osu file format v14

[General]
AudioFilename: audio.mp3
AudioLeadIn: 0
PreviewTime: 19507
Countdown: 0
SampleSet: None
StackLeniency: 0.2
Mode: 0
LetterboxInBreaks: 0
WidescreenStoryboard: 0

[Editor]
Bookmarks: 5634,46434
DistanceSpacing: 1
BeatDivisor: 2
GridSize: 4
TimelineZoom: 1.5

[Metadata]
Title:Weaponized
TitleUnicode:Weaponized
Artist:Celldweller
ArtistUnicode:Celldweller
Creator:Hiicantpk
Version:Easy
Source:
Tags:Terraform Drums Vol. 01 Position Music Gun Symphony HPK Crowie
BeatmapID:1302324
BeatmapSetID:616637

[Difficulty]
HPDrainRate:2
CircleSize:3.2
OverallDifficulty:2
ApproachRate:3
SliderMultiplier:0.8
SliderTickRate:1

[Events]
//Background and Video events
0,0,"Sinon.jpg",0,0
//Break Periods
//Storyboard Layer 0 (Background)
//Storyboard Layer 1 (Fail)
//Storyboard Layer 2 (Pass)
//Storyboard Layer 3 (Foreground)
//Storyboard Sound Samples

[TimingPoints]
907,600,4,3,1,80,1,0
9907,-100,4,3,1,5,0,0
10057,-100,4,3,1,80,0,0
14707,-100,4,3,1,5,0,0
14857,-100,4,3,1,80,0,0
20107,-100,4,3,0,100,0,1
27907,-100,4,3,0,5,0,1
28057,-100,4,3,0,100,0,1
38707,-100,4,3,0,5,0,1
38857,-100,4,3,0,100,0,1
39307,-100,4,3,1,80,0,0

[Colours]
Combo1 : 150,169,150
Combo2 : 200,200,200
Combo3 : 96,102,117

[HitObjects]
32,33,907,6,0,L|37:116,1,80,0|0,0:0|0:0,0:0:0:0:
43,192,2107,1,2,0:1:0:0:
122,182,2707,1,2,0:1:0:0:
201,172,3307,6,0,L|196:255,1,80,0|0,0:0|0:0,0:0:0:0:
189,331,4507,1,2,0:1:0:0:
268,321,5107,1,2,0:1:0:0:
347,309,5707,6,0,L|351:229,1,80,0|0,0:0|0:0,0:0:0:0:
355,149,6907,1,2,0:1:0:0:
434,139,7507,1,2,0:1:0:0:
467,211,8107,6,0,B|451:250|451:250|423:289,1,80,0|0,0:0|1:0,0:0:0:0:
356,315,9307,2,0,P|275:283|261:254,1,120,4|0,0:0|0:0,0:0:0:0:
254,218,10507,5,0,0:0:0:0:
254,138,11107,1,0,0:0:0:0:
216,67,11707,2,0,B|183:83|183:83|137:122,1,80,2|2,0:1|0:1,0:0:0:0:
123,141,12607,1,0,0:0:0:0:
107,177,12907,6,0,L|76:268,1,80
58,329,14107,2,0,L|144:358,1,80,2|0,0:1|0:0,0:0:0:0:
209,380,15307,5,0,0:0:0:0:
224,301,15907,1,0,0:0:0:0:
242,223,16507,2,0,B|260:183|260:183|283:154,1,80,2|2,0:1|0:1,0:0:0:0:
312,127,17407,1,0,0:0:0:0:
345,105,17707,6,0,P|329:61|302:32,1,80,4|2,0:0|0:0,0:0:0:0:
227,27,18907,1,2,0:0:0:0:
184,94,19507,1,2,0:2:0:0:
144,163,20107,6,0,L|224:215,1,80,0|0,1:0|1:0,0:0:0:0:
242,230,21007,1,0,0:0:0:0:
277,249,21307,2,0,B|345:205,1,80,0|2,1:0|0:2,0:0:0:0:
409,159,22507,6,0,L|367:90,1,80,0|0,1:0|1:0,0:0:0:0:
344,57,23407,1,0,0:0:0:0:
322,23,23707,1,0,1:0:0:0:
255,67,24307,2,0,L|281:109,1,40,2|2,0:2|0:2,0:0:0:0:
293,137,24907,6,0,L|220:181,1,80,0|0,1:0|1:0,0:0:0:0:
191,200,25807,1,0,0:0:0:0:
156,220,26107,2,0,B|83:176,1,80,0|2,1:0|0:2,0:0:0:0:
27,125,27307,6,0,L|127:60,1,120,4|0,0:0|0:0,2:0:0:0:
165,45,28507,2,0,L|145:136,1,80,0|8,0:0|0:0,0:0:0:0:
224,146,29707,6,0,L|302:163,1,80,0|0,1:0|1:0,0:0:0:0:
340,174,30607,1,0,0:0:0:0:
377,187,30907,2,0,B|406:212|406:212|422:251,1,80,0|2,1:0|0:2,0:0:0:0:
429,329,32107,6,0,L|333:336,1,80,0|0,1:0|1:0,0:0:0:0:
269,341,33307,1,2,0:0:0:0:
189,346,33907,2,0,L|174:297,1,40,2|2,0:2|0:2,0:0:0:0:
169,268,34507,6,0,L|270:237,1,80,0|0,1:0|1:0,0:0:0:0:
284,234,35407,1,0,0:0:0:0:
323,226,35707,2,0,B|399:249,1,80,0|4,1:0|0:0,0:0:0:0:
476,272,36907,5,0,1:0:0:0:
459,193,37507,1,0,1:0:0:0:
434,116,38107,2,0,B|396:96|356:102|356:102|313:79,1,120,4|0,0:0|0:0,2:0:0:0:
286,63,39307,6,0,L|304:15,2,40,0|0|4,0:0|0:0|0:0,0:0:0:0:
210,88,40507,1,2,0:1:0:0:
130,91,41107,1,2,0:1:0:0:
85,158,41707,6,0,L|62:204,2,40,0|0|4,0:0|0:0|0:0,0:0:0:0:
155,195,42907,1,2,0:1:0:0:
234,206,43507,1,2,0:1:0:0:
313,217,44107,6,0,L|367:232,2,40,0|0|4,0:0|0:0|0:0,0:0:0:0:
260,277,45307,1,2,0:1:0:0:
182,293,45907,1,2,0:1:0:0:
102,287,46507,6,0,L|53:272,2,40,0|0|4,0:0|0:0|0:0,0:0:0:0:
142,218,47707,1,2,0:1:0:0:
132,140,48307,1,2,0:1:0:0:
116,61,48907,6,0,L|65:43,2,40
192,84,50107,2,0,L|229:70,2,40
212,161,51307,6,0,L|229:212,2,40
285,128,52507,2,0,L|323:115,2,40
258,52,53707,6,0,L|205:54,1,40,2|0,0:1|0:0,0:0:0:0:
181,37,54307,2,0,L|141:38,1,40,2|0,0:1|0:0,0:0:0:0:
101,46,54907,6,0,L|116:96,1,40,2|0,0:1|0:0,0:0:0:0:
92,121,55507,2,0,L|107:171,1,40,2|0,0:1|0:0,0:0:0:0:
115,197,56107,5,4,0:3:0:0:
256,192,56257,12,2,58507,0:1:0:0:
