osu file format v14

[General]
AudioFilename: audio.mp3
AudioLeadIn: 0
PreviewTime: 18635
Countdown: 0
SampleSet: Soft
StackLeniency: 0.6
Mode: 0
LetterboxInBreaks: 0
WidescreenStoryboard: 1

[Editor]
Bookmarks: 19210,23410,24010,26410,28810,33010,33610,35410
DistanceSpacing: 0.7
BeatDivisor: 6
GridSize: 16
TimelineZoom: 1.5

[Metadata]
Title:Weaponized
TitleUnicode:Weaponized
Artist:Celldweller
ArtistUnicode:Celldweller
Creator:Cynplytholowazy
Version:Alumetri's Terraform
Source:
Tags:Weapons of War Terraform Drums Vol. 01 Electronic Instrumental Gun Symphony Drumstep Klayton trailer piroshki riana alumetri chuuritsutv mimari underdogs never_log_off angki Ishtaiq FAMoss 1164530434 Featured Artist FA
BeatmapID:2338610
BeatmapSetID:1119418

[Difficulty]
HPDrainRate:5
CircleSize:3.6
OverallDifficulty:9.2
ApproachRate:9.3
SliderMultiplier:2.02
SliderTickRate:1

[Events]
//Background and Video events
0,0,"anime.jpg",0,0
//Break Periods
//Storyboard Layer 0 (Background)
//Storyboard Layer 1 (Fail)
//Storyboard Layer 2 (Pass)
//Storyboard Layer 3 (Foreground)
//Storyboard Layer 4 (Overlay)
//Storyboard Sound Samples

[TimingPoints]
10,600,4,2,1,70,1,0
1210,-142.857142857143,4,2,1,70,0,0
1660,-142.857142857143,4,2,1,5,0,0
1810,-142.857142857143,4,2,1,70,0,0
2260,-142.857142857143,4,2,1,5,0,0
2410,-142.857142857143,4,2,1,70,0,0
4060,-142.857142857143,4,2,1,5,0,0
4210,-142.857142857143,4,2,1,70,0,0
4660,-142.857142857143,4,2,1,5,0,0
4810,-142.857142857143,4,2,1,70,0,0
6460,-142.857142857143,4,2,1,5,0,0
6610,-142.857142857143,4,2,1,70,0,0
7060,-142.857142857143,4,2,1,5,0,0
7210,-142.857142857143,4,2,2,70,0,0
8410,-200,4,2,2,70,0,0
9010,-200,4,2,2,5,0,0
9610,-100,4,2,1,70,0,0
13210,-200,4,2,1,70,0,0
13660,-200,4,2,1,20,0,0
14260,-200,4,2,1,5,0,0
14410,-100,4,2,1,70,0,0
17260,-100,4,2,1,5,0,0
17410,-200,4,2,3,70,0,0
17860,-200,4,2,3,5,0,0
18010,-200,4,2,3,70,0,0
19210,-76.9230769230769,4,1,6,70,0,1
19360,-76.9230769230769,4,3,1,70,0,1
19810,-76.9230769230769,4,1,5,70,0,1
20110,-76.9230769230769,4,3,3,70,0,1
20410,-76.9230769230769,4,2,1,70,0,1
21610,-76.9230769230769,4,1,4,70,0,1
21760,-76.9230769230769,4,2,1,70,0,1
22210,-76.9230769230769,4,1,5,70,0,1
22660,-76.9230769230769,4,3,2,70,0,1
22810,-76.9230769230769,4,1,6,70,0,1
23410,-76.9230769230769,4,2,1,70,0,0
24010,-76.9230769230769,4,1,4,70,0,1
24160,-76.9230769230769,4,2,1,70,0,1
24610,-76.9230769230769,4,1,5,70,0,1
24910,-76.9230769230769,4,3,3,70,0,1
25210,-76.9230769230769,4,2,1,70,0,1
26410,-200,4,1,8,70,0,0
27310,-200,4,3,2,70,0,0
27610,-200,4,3,4,70,0,0
28810,-76.9230769230769,4,1,6,70,0,1
28960,-76.9230769230769,4,3,1,70,0,1
29410,-76.9230769230769,4,1,5,70,0,1
29710,-76.9230769230769,4,3,3,70,0,1
30010,-76.9230769230769,4,3,1,70,0,1
30310,-76.9230769230769,4,3,3,70,0,1
30460,-76.9230769230769,4,3,1,70,0,1
30910,-76.9230769230769,4,2,3,70,0,1
31210,-76.9230769230769,4,1,4,70,0,1
31360,-76.9230769230769,4,3,1,70,0,1
31660,-76.9230769230769,4,3,9,70,0,1
31810,-76.9230769230769,4,1,5,70,0,1
32110,-76.9230769230769,4,1,6,70,0,1
32260,-76.9230769230769,4,3,1,70,0,1
32410,-200,4,1,6,70,0,1
32860,-200,4,1,6,5,0,1
33010,-76.9230769230769,4,1,6,70,0,0
33610,-76.9230769230769,4,1,4,70,0,1
33760,-76.9230769230769,4,3,1,70,0,1
34210,-76.9230769230769,4,1,5,70,0,1
34510,-76.9230769230769,4,3,3,70,0,1
34810,-76.9230769230769,4,3,1,70,0,1
35410,-83.3333333333333,4,1,4,70,0,0
35860,-83.3333333333333,4,1,4,5,0,0
36010,-83.3333333333333,4,3,1,70,0,0
36310,-83.3333333333333,4,3,2,70,0,0
36610,-83.3333333333333,4,3,1,70,0,0
36910,-83.3333333333333,4,3,2,70,0,0
37210,-200,4,1,10,70,0,0
38260,-200,4,1,10,5,0,0
38410,-200,4,3,1,70,0,0
40060,-200,4,3,1,5,0,0
40210,-200,4,3,1,70,0,0
40660,-200,4,3,1,5,0,0
40810,-166.666666666667,4,3,1,70,0,0
42460,-166.666666666667,4,3,1,5,0,0
42610,-166.666666666667,4,3,1,70,0,0
43060,-166.666666666667,4,3,1,5,0,0
43210,-142.857142857143,4,3,1,70,0,0
44860,-142.857142857143,4,3,1,5,0,0
45010,-142.857142857143,4,3,1,70,0,0
45460,-142.857142857143,4,3,1,5,0,0
45610,-125,4,3,1,70,0,0
47260,-125,4,3,1,5,0,0
47410,-125,4,3,1,70,0,0
47860,-125,4,3,1,5,0,0
48010,-125,4,3,1,70,0,0
52810,-125,4,1,11,70,0,0
52960,-125,4,3,1,70,0,0
55210,-200,4,1,13,100,0,0
57310,-66.6666666666667,4,3,2,70,0,0
57610,-66.6666666666667,4,1,14,70,0,0
57760,-66.6666666666667,4,1,14,5,0,0

[Colours]
Combo1 : 137,77,10
Combo2 : 0,232,232
Combo3 : 204,204,0
Combo4 : 216,153,7

[HitObjects]
127,296,10,5,8,0:1:0:0:
87,84,160,1,8,0:0:0:0:
84,71,610,1,4,0:0:0:0:
82,62,1210,6,0,P|135:51|201:52,1,106.049996763611,2|0,0:0|0:0,0:0:0:0:
367,115,1810,2,0,P|314:115|262:126,1,106.049996763611,2|0,0:0|0:0,0:0:0:0:
175,205,2410,5,8,1:1:0:0:
394,98,2560,1,8,0:0:0:0:
414,89,3010,1,4,0:0:0:0:
437,79,3610,6,0,P|441:130|434:194,1,106.049996763611,2|0,0:0|0:0,0:0:0:0:
338,325,4210,2,0,P|332:272|336:219,1,106.049996763611,2|0,0:0|0:0,0:0:0:0:
355,117,4810,5,8,1:1:0:0:
434,329,4960,1,8,0:0:0:0:
443,352,5410,1,4,0:0:0:0:
450,375,6010,6,0,P|395:382|336:377,1,106.049996763611,2|0,0:0|0:0,0:0:0:0:
179,298,6610,2,0,P|234:291|293:296,1,106.049996763611,2|0,0:0|0:0,0:0:0:0:
384,248,7210,6,0,P|391:212|396:166,1,70.6999978424073,4|2,0:3|0:3,0:0:0:0:
395,178,7810,1,8,0:3:0:0:
284,294,7960,1,8,0:3:0:0:
369,100,8110,1,8,0:3:0:0:
470,283,8260,1,8,0:3:0:0:
293,127,8410,6,0,B|203:128|239:175|144:182,1,151.5,4|0,0:1|0:0,0:0:0:0:
155,180,9610,5,10,0:0:0:0:
355,247,9760,1,2,0:1:0:0:
355,247,10210,2,0,P|326:239|298:235,1,50.5,12|0,0:3|0:0,0:0:0:0:
135,275,10510,5,2,0:3:0:0:
293,127,10660,1,2,0:3:0:0:
223,347,10810,2,0,P|226:318|223:287,1,50.5,12|0,0:3|0:0,0:0:0:0:
161,99,11110,5,2,0:3:0:0:
65,336,11260,1,2,0:3:0:0:
239,180,11410,2,0,P|264:174|289:172,1,50.5,12|0,0:3|0:0,0:0:0:0:
135,275,11710,2,0,P|109:269|85:267,1,50.5,2|0,0:3|0:0,0:0:0:0:
167,117,12010,5,10,0:0:0:0:
224,296,12160,1,8,0:3:0:0:
224,296,12610,2,0,P|197:290|157:287,1,50.5,12|0,0:3|0:0,0:0:0:0:
0,303,12910,5,2,0:3:0:0:
200,197,13060,1,2,0:3:0:0:
18,131,13210,6,0,B|139:151|59:196|179:207,1,176.75,4|0,0:1|0:0,0:0:0:0:
266,168,14410,5,10,0:0:0:0:
41,237,14560,1,2,0:1:0:0:
41,237,15010,2,0,P|64:229|91:226,1,50.5,12|0,0:3|0:0,0:0:0:0:
312,275,15310,5,2,0:3:0:0:
101,316,15460,1,2,0:3:0:0:
321,197,15610,2,0,P|327:226|331:260,1,50.5,12|0,0:3|0:0,0:0:0:0:
158,121,15910,5,2,0:3:0:0:
224,339,16060,1,2,0:3:0:0:
279,118,16210,2,0,P|285:92|298:60,1,50.5,12|0,0:3|0:0,0:0:0:0:
177,286,16510,2,0,P|185:309|191:334,1,50.5,2|0,0:3|0:0,0:0:0:0:
150,69,16810,6,0,P|207:22|291:49,1,151.5,4|0,0:1|0:0,0:0:0:0:
354,23,17410,6,0,P|353:60|331:95,1,75.75,4|0,0:1|0:0,0:0:0:0:
190,122,18010,5,8,0:3:0:0:
347,175,18210,5,8,0:3:0:0:
145,239,18410,5,8,0:3:0:0:
336,318,18610,6,0,P|351:320|370:327,2,25.25,4|0|0,0:2|0:0|0:0,0:0:0:0:
248,358,19210,5,4,0:1:0:0:
171,141,19360,2,0,P|161:169|156:214,1,65.6499969947816,2|0,0:3|0:0,0:0:0:0:
336,318,19660,1,2,0:3:0:0:
135,344,19810,2,0,P|101:349|58:364,1,65.6499969947816,4|0,0:1|0:0,0:0:0:0:
267,266,20110,1,8,0:0:0:0:
68,237,20260,1,8,0:0:0:0:
272,167,20410,5,2,0:3:0:0:
256,358,20560,1,2,0:3:0:0:
334,111,20710,1,2,0:3:0:0:
419,334,20860,1,2,0:3:0:0:
206,216,21010,2,0,P|169:221|137:236,1,65.6499969947816,2|0,0:3|0:0,0:0:0:0:
378,194,21310,2,0,P|415:199|447:214,1,65.6499969947816,8|0,0:0|0:0,0:0:0:0:
258,83,21610,5,12,0:1:0:0:
360,288,21760,2,0,P|361:320|355:354,1,65.6499969947816,2|0,0:3|0:0,0:0:0:0:
209,173,22060,1,2,0:0:0:0:
136,379,22210,2,0,P|126:346|120:308,1,65.6499969947816,4|0,0:1|0:0,0:0:0:0:
138,124,22510,1,0,0:0:0:0:
259,257,22660,1,4,0:3:0:0:
61,203,22810,5,12,0:1:0:0:
222,89,22960,1,8,0:1:0:0:
182,259,23110,1,8,0:1:0:0:
53,120,23260,1,8,0:1:0:0:
285,138,23410,5,2,0:0:0:0:
103,277,23560,1,2,0:0:0:0:
155,45,23710,1,2,0:0:0:0:
331,210,23860,1,2,0:0:0:0:
61,203,24010,5,6,0:1:0:0:
254,65,24160,2,0,P|287:61|327:63,1,65.6499969947816,2|0,0:0|0:0,0:0:0:0:
127,12,24460,1,2,0:0:0:0:
280,158,24610,2,0,P|292:188|300:227,1,65.6499969947816,4|0,0:0|0:0,0:0:0:0:
319,62,24910,1,8,0:3:0:0:
199,217,25060,1,8,0:3:0:0:
396,138,25210,5,8,0:0:0:0:
128,114,25360,1,8,0:0:0:0:
434,113,25510,1,8,0:0:0:0:
104,144,25660,1,8,0:0:0:0:
383,222,25810,2,0,P|413:215|451:211,1,65.6499969947816,8|0,0:0|0:0,0:0:0:0:
208,271,26110,2,0,P|178:264|140:260,1,65.6499969947816,2|0,0:3|0:0,0:0:0:0:
309,341,26410,6,0,B|327:256|290:282|304:184,1,151.5,12|2,0:1|0:3,0:0:0:0:
383,222,27610,5,8,0:3:0:0:
195,173,27810,5,8,0:3:0:0:
406,85,28010,5,8,0:3:0:0:
168,28,28210,5,2,0:3:0:0:
168,28,28810,5,4,0:1:0:0:
56,174,28960,2,0,P|58:210|65:249,1,65.6499969947816,2|0,0:3|0:0,0:0:0:0:
9,79,29260,1,2,0:3:0:0:
174,217,29410,2,0,P|172:253|165:292,1,65.6499969947816,4|0,0:1|0:0,0:0:0:0:
263,139,29710,1,8,0:3:0:0:
311,278,29860,1,8,0:3:0:0:
183,114,30010,5,2,0:3:0:0:
129,299,30160,1,2,0:3:0:0:
261,88,30310,1,10,0:3:0:0:
325,319,30460,1,2,0:3:0:0:
118,156,30610,2,0,P|84:161|51:177,1,65.6499969947816,2|0,0:3|0:0,0:0:0:0:
318,196,30910,2,0,P|352:201|385:217,1,65.6499969947816,10|0,0:2|0:0,0:0:0:0:
495,376,31210,5,10,0:1:0:0:
508,184,31360,2,0,P|513:150|508:111,1,65.6499969947816,2|0,0:3|0:0,0:0:0:0:
400,289,31660,1,10,0:3:0:0:
362,112,31810,2,0,P|365:77|380:41,1,65.6499969947816,4|0,0:1|0:0,0:0:0:0:
268,199,32110,1,10,0:1:0:0:
438,152,32260,1,2,0:0:0:0:
237,100,32410,6,0,P|198:103|145:118,1,75.75,4|0,0:1|0:0,0:0:0:0:
78,162,33010,6,0,P|55:154|27:152,2,43.7666646631878,8|8|8,0:1|0:1|0:1,0:0:0:0:
193,186,33310,2,0,P|216:180|244:180,2,43.7666646631878,8|8|8,0:1|0:1|0:1,0:0:0:0:
162,112,33610,5,4,0:1:0:0:
225,289,33760,2,0,P|237:257|248:207,1,65.6499969947816,2|0,0:3|0:0,0:0:0:0:
158,73,34060,1,2,0:3:0:0:
336,244,34210,2,0,P|330:210|314:161,1,65.6499969947816,4|0,0:1|0:0,0:0:0:0:
151,243,34510,1,8,0:3:0:0:
255,105,34660,1,8,0:3:0:0:
346,328,34810,5,2,0:3:0:0:
371,78,34960,1,2,0:3:0:0:
307,355,35110,1,2,0:3:0:0:
307,355,35410,6,0,P|287:255|296:159,1,181.799994451904,8|0,0:1|0:0,0:0:0:0:
371,78,36010,5,2,0:3:0:0:
190,219,36160,1,2,0:3:0:0:
413,256,36310,2,0,P|441:261|471:271,1,60.5999981506348,8|4,0:0|0:0,0:0:0:0:
286,94,36610,5,2,0:3:0:0:
224,302,36760,1,2,0:3:0:0:
417,149,36910,2,0,P|412:121|402:91,1,60.5999981506348,8|4,0:0|0:0,0:0:0:0:
229,10,37210,6,0,B|118:21|175:65|56:84,1,176.75,8|0,0:1|0:0,0:0:0:0:
4,33,38410,5,8,0:3:0:0:
221,115,38560,1,8,0:3:0:0:
7,194,38710,1,8,0:3:0:0:
82,0,38860,1,8,0:3:0:0:
188,203,39010,1,8,0:3:0:0:
188,203,39610,6,0,P|225:201|268:183,1,75.75,4|0,0:3|0:0,0:0:0:0:
347,127,40210,2,0,P|384:129|427:147,1,75.75,4|0,0:3|0:0,0:0:0:0:
486,224,40810,5,8,0:3:0:0:
308,275,40960,1,8,0:3:0:0:
498,115,41110,1,8,0:3:0:0:
503,343,41260,1,8,0:3:0:0:
419,142,41410,1,8,0:3:0:0:
419,142,42010,6,0,P|374:138|327:144,1,90.8999972259522,4|0,0:3|0:0,0:0:0:0:
252,213,42610,2,0,P|207:217|160:211,1,90.8999972259522,4|0,0:3|0:0,0:0:0:0:
81,145,43210,5,8,0:3:0:0:
155,342,43360,1,8,0:3:0:0:
111,108,43510,1,8,0:3:0:0:
45,334,43660,1,8,0:3:0:0:
252,213,43810,1,8,0:3:0:0:
252,213,44410,6,0,P|256:161|280:106,1,106.049996763611,4|0,0:3|0:0,0:0:0:0:
361,53,45010,2,0,P|413:55|470:65,1,106.049996763611,4|0,0:3|0:0,0:0:0:0:
512,157,45610,5,8,0:3:0:0:
340,23,45760,1,8,0:3:0:0:
350,247,45910,1,8,0:3:0:0:
466,64,46060,1,8,0:3:0:0:
237,90,46210,1,8,0:3:0:0:
237,90,46810,6,0,P|188:103|117:141,1,121.2,4|0,0:3|0:0,0:0:0:0:
47,205,47410,2,0,P|105:221|158:250,1,121.2,4|0,0:3|0:0,0:0:0:0:
213,337,48010,5,8,0:3:0:0:
245,116,48160,1,8,0:3:0:0:
309,364,48310,1,8,0:3:0:0:
218,87,48460,1,8,0:3:0:0:
120,345,48610,1,8,0:3:0:0:
120,345,49210,5,8,0:3:0:0:
363,274,49360,1,8,0:3:0:0:
83,222,49510,1,8,0:3:0:0:
394,255,49660,1,8,0:3:0:0:
41,304,49810,1,8,0:3:0:0:
41,304,50410,5,8,0:3:0:0:
125,56,50560,1,8,0:3:0:0:
208,322,50710,1,8,0:3:0:0:
143,29,50860,1,8,0:3:0:0:
32,329,51010,1,8,0:3:0:0:
32,329,51610,5,8,0:3:0:0:
298,220,51760,1,8,0:3:0:0:
24,122,51910,1,8,0:3:0:0:
151,380,52060,1,8,0:3:0:0:
273,122,52210,1,8,0:3:0:0:
273,122,52810,5,12,0:1:0:0:
223,356,52960,1,8,0:3:0:0:
291,92,53110,1,8,0:3:0:0:
380,340,53260,1,8,0:3:0:0:
150,176,53410,5,8,0:3:0:0:
435,109,53560,1,8,0:3:0:0:
116,151,53710,1,8,0:3:0:0:
436,259,53860,1,8,0:3:0:0:
116,287,54010,5,8,0:3:0:0:
449,226,54160,1,8,0:3:0:0:
91,138,54310,1,8,0:3:0:0:
439,305,54460,1,8,0:3:0:0:
59,361,54610,5,8,0:3:0:0:
468,315,54760,1,8,0:3:0:0:
4,192,54910,1,8,0:3:0:0:
443,48,55060,1,8,0:3:0:0:
257,384,55210,5,12,0:1:0:0:
256,192,55360,12,0,57160,0:0:0:0:
63,234,57310,6,0,P|101:234|145:223,1,75.7500028896333,4|0,0:3|0:0,0:0:0:0:
308,36,57610,2,0,P|288:104|272:199,1,151.500005779267,12|0,0:1|0:0,0:0:0:0:
