osu file format v14

[General]
AudioFilename: audio.mp3
AudioLeadIn: 0
PreviewTime: 134092
Countdown: 0
SampleSet: Soft
StackLeniency: 0.7
Mode: 0
LetterboxInBreaks: 0
WidescreenStoryboard: 0

[Editor]
Bookmarks: 56669,64054,71438,86208,93592,100977,115746,134208,148977,155438,163746,178515,196977,211746,222822,230207,237591,244976,252361,259745,274515
DistanceSpacing: 0.78
BeatDivisor: 4
GridSize: 8
TimelineZoom: 1

[Metadata]
Title:The Best It's Gonna Get
TitleUnicode:The Best It's Gonna Get
Artist:Celldweller
ArtistUnicode:Celldweller
Creator:Mirash
Version:Insane
Source:
Tags:piroshki Wish Upon a Blackstar mappers' guild featured artist fa english rock electronic
BeatmapID:2258972
BeatmapSetID:1079727

[Difficulty]
HPDrainRate:7
CircleSize:4
OverallDifficulty:8
ApproachRate:8.7
SliderMultiplier:1.4
SliderTickRate:1

[Events]
//Background and Video events
0,0,"p.jpg",0,0
//Break Periods
2,56869,62486
2,149176,153870
//Storyboard Layer 0 (Background)
//Storyboard Layer 1 (Fail)
//Storyboard Layer 2 (Pass)
//Storyboard Layer 3 (Foreground)
//Storyboard Layer 4 (Overlay)
//Storyboard Sound Samples

[TimingPoints]
1285,461.538461538462,4,2,0,20,1,0
17900,-133.333333333333,4,2,0,20,0,0
34515,-133.333333333333,4,2,0,80,0,0
34977,-133.333333333333,4,2,0,30,0,0
36361,-133.333333333333,4,2,0,40,0,0
37746,-133.333333333333,4,2,0,50,0,0
38208,-100,4,2,0,60,0,0
40054,-83.3333333333333,4,2,0,60,0,0
41900,-83.3333333333333,4,2,0,70,0,0
63131,-133.333333333333,4,2,0,30,0,0
63823,-133.333333333333,4,2,0,50,0,0
63938,-133.333333333333,4,2,0,70,0,0
65842,-133.333333333333,4,2,0,40,0,0
67746,-133.333333333333,4,2,0,15,0,0
67977,-133.333333333333,4,2,0,25,0,0
68208,-133.333333333333,4,2,0,30,0,0
68438,-133.333333333333,4,2,0,35,0,0
68669,-133.333333333333,4,2,0,40,0,0
68900,-133.333333333333,4,2,0,45,0,0
69131,-133.333333333333,4,2,0,50,0,0
69592,-133.333333333333,4,2,0,55,0,0
70054,-133.333333333333,4,2,0,60,0,0
70515,-133.333333333333,4,2,0,5,0,0
71438,-133.333333333333,4,2,0,50,0,0
84361,-100,4,2,0,40,0,0
85746,-100,4,2,0,50,0,0
86208,-100,4,2,0,60,0,0
93131,-66.6666666666667,4,2,0,50,0,0
93592,-100,4,2,0,50,0,0
99131,-200,4,2,0,30,0,0
99137,-200,4,2,0,5,0,0
99246,-200,4,2,2,10,0,0
99361,-200,4,2,3,15,0,0
99477,-200,4,2,1,20,0,0
99592,-200,4,2,2,25,0,0
99708,-200,4,2,3,30,0,0
99823,-200,4,2,4,35,0,0
99938,-200,4,2,5,40,0,0
100054,-200,4,2,6,45,0,0
100169,-200,4,2,7,50,0,0
100285,-200,4,2,8,55,0,0
100400,-200,4,2,9,60,0,0
100515,-200,4,2,1,65,0,0
100977,-83.3333333333333,4,2,0,60,0,0
115746,-66.6666666666667,4,2,0,65,0,0
129131,-66.6666666666667,4,2,0,45,0,0
130515,-66.6666666666667,4,2,0,35,0,0
132477,-66.6666666666667,4,2,0,30,0,0
132823,-66.6666666666667,4,2,0,25,0,0
133285,-66.6666666666667,4,2,0,20,0,0
133515,-100,4,2,0,25,0,0
133573,-100,4,2,0,30,0,0
133631,-100,4,2,0,35,0,0
133688,-100,4,2,0,40,0,0
133746,-50,4,2,0,50,0,0
134092,-50,4,2,0,30,0,0
134208,-66.6666666666667,4,2,0,70,0,0
154515,-133.333333333333,4,2,0,30,0,0
155092,-133.333333333333,4,2,0,20,0,0
155438,-66.6666666666667,4,2,0,50,0,0
155785,-66.6666666666667,4,2,0,20,0,0
155900,-66.6666666666667,4,2,0,20,0,0
155958,-66.6666666666667,4,2,0,25,0,0
156015,-66.6666666666667,4,2,0,35,0,0
156073,-66.6666666666667,4,2,0,45,0,0
156246,-66.6666666666667,4,2,0,55,0,0
156361,-100,4,2,0,60,0,0
161900,-100,4,2,0,30,0,0
162823,-100,4,2,0,35,0,0
163169,-100,4,2,0,40,0,0
163515,-100,4,2,0,45,0,0
163631,-100,4,2,0,50,0,0
163746,-83.3333333333333,4,2,0,60,0,0
172861,-83.3333333333333,4,2,0,40,0,0
176208,-83.3333333333333,4,2,0,45,0,0
176669,-83.3333333333333,4,2,69,75,0,0
176675,-83.3333333333333,4,2,0,55,0,0
177131,-83.3333333333333,4,2,0,65,0,0
177592,500,4,2,0,30,1,0
177592,-133.333333333333,4,2,0,30,0,0
178092,423.728813559322,4,2,0,30,1,0
178092,-133.333333333333,4,2,0,30,0,0
178515,461.538461538462,4,2,0,65,1,0
178515,-66.6666666666667,4,2,0,65,0,0
191438,-66.6666666666667,4,2,0,50,0,0
191899,-66.6666666666667,4,2,0,45,0,0
193284,-66.6666666666667,4,2,0,35,0,0
195245,-66.6666666666667,4,2,0,30,0,0
195591,-66.6666666666667,4,2,0,25,0,0
196053,-66.6666666666667,4,2,0,20,0,0
196059,-66.6666666666667,4,2,0,5,0,0
196111,-66.6666666666667,4,2,0,10,0,0
196168,-66.6666666666667,4,2,0,15,0,0
196226,-66.6666666666667,4,2,0,20,0,0
196284,-66.6666666666667,4,2,0,25,0,0
196341,-66.6666666666667,4,2,0,30,0,0
196399,-66.6666666666667,4,2,0,35,0,0
196515,-66.6666666666667,4,2,0,50,0,0
196976,-66.6666666666667,4,2,0,70,0,0
215438,-66.6666666666667,4,2,0,60,0,0
228476,-66.6666666666667,4,2,0,40,0,0
229053,-66.6666666666667,4,2,0,55,0,0
229515,-66.6666666666667,4,2,0,60,0,0
230553,-66.6666666666667,4,2,0,50,0,0
237591,-66.6666666666667,4,2,0,70,0,0
245322,-66.6666666666667,4,2,0,50,0,0
252361,-66.6666666666667,4,2,0,70,0,0
256053,-66.6666666666667,4,2,0,40,0,0
258707,-66.6666666666667,4,2,0,5,0,0
258822,-66.6666666666667,4,2,0,25,0,0
258828,-66.6666666666667,4,2,1,15,0,0
259284,-50,4,2,0,80,0,0
259745,-66.6666666666667,4,2,0,70,0,0
281207,-66.6666666666667,4,2,0,80,0,0
281668,-66.6666666666667,4,2,0,60,0,0
281899,-100,4,2,0,20,0,0
281905,-200,4,2,0,5,0,0
282072,-200,4,2,0,20,0,0
282130,-200,4,2,0,30,0,0
282188,-200,4,2,0,40,0,0
282245,-200,4,2,0,50,0,0
282361,-66.6666666666667,4,2,0,60,0,0
287438,-80,4,2,0,60,0,0
287668,-100,4,2,0,45,0,0
287899,-100,4,2,0,30,0,0

[Colours]
Combo1 : 17,254,176
Combo2 : 173,255,95
Combo3 : 255,88,100
Combo4 : 255,94,55

[HitObjects]
457,129,17900,6,0,P|412:140|359:186,1,105.000004005432,0|0,1:0|1:0,0:0:0:0:
295,200,18592,2,0,P|297:244|297:260,1,52.5000020027161,0|0,1:0|0:0,0:0:0:0:
55,129,21592,6,0,P|100:140|153:186,1,105.000004005432,0|0,1:0|1:0,0:0:0:0:
217,200,22284,2,0,P|215:244|215:260,1,52.5000020027161,0|0,1:0|0:0,0:0:0:0:
249,318,22746,1,0,1:0:0:0:
224,345,22977,2,0,L|280:337,1,52.5000020027161,0|0,1:0|1:0,0:0:0:0:
326,283,23438,5,0,1:0:0:0:
378,338,23669,1,0,0:0:0:0:
438,298,23900,1,2,0:0:0:0:
473,321,24131,1,0,0:0:0:0:
511,302,24361,1,0,0:0:0:0:
501,296,24477,1,2,0:0:0:0:
507,287,24592,1,2,0:0:0:0:
497,281,24708,1,0,0:0:0:0:
254,56,25285,6,0,P|264:109|264:174,1,105.000004005432,0|0,1:0|1:0,0:0:0:0:
214,216,25977,1,0,1:0:0:0:
147,185,26208,1,0,1:0:0:0:
140,193,26323,1,0,0:0:0:0:
134,201,26438,1,0,1:0:0:0:
60,214,26669,1,0,1:0:0:0:
51,207,26785,2,0,L|61:136,1,52.5000020027161,0|0,1:0|0:0,0:0:0:0:
16,88,27131,6,0,P|46:73|119:85,1,105.000004005432,0|8,1:2|0:0,0:0:0:0:
165,138,27823,1,0,1:0:0:0:
165,138,28054,2,0,P|158:183|150:250,1,105.000004005432,0|8,1:0|0:0,0:0:0:0:
205,296,28746,1,0,1:0:0:0:
213,290,28861,1,0,0:0:0:0:
222,286,28977,2,0,P|228:233|236:181,1,105.000004005432,0|8,1:0|0:0,0:0:0:0:
218,111,29669,1,0,1:0:0:0:
220,100,29785,1,0,0:0:0:0:
222,89,29900,1,0,1:0:0:0:
267,31,30131,1,0,1:0:0:0:
199,2,30361,2,0,L|191:61,1,52.5000020027161,8|0,0:0|0:0,0:0:0:0:
354,179,30823,5,0,1:0:0:0:
424,152,31054,1,0,1:0:0:0:
435,80,31285,1,8,0:0:0:0:
379,40,31515,1,0,1:0:0:0:
379,40,31631,1,0,0:0:0:0:
379,40,31746,2,0,L|275:91,1,105.000004005432,0|8,1:0|0:0,0:0:0:0:
213,62,32438,1,0,1:0:0:0:
200,136,32669,5,0,1:0:0:0:
208,142,32785,1,2,0:0:0:0:
203,151,32900,1,2,1:2:0:0:
211,157,33016,1,2,0:0:0:0:
206,166,33131,1,8,0:0:0:0:
243,231,33361,1,0,1:0:0:0:
181,267,33592,1,0,0:0:0:0:
86,192,33823,2,0,L|147:208,1,52.5000020027161,0|8,1:0|0:0,0:0:0:0:
256,368,34515,5,4,1:0:0:0:
256,368,34977,1,8,0:0:0:0:
281,300,35208,1,0,0:0:0:0:
276,290,35323,1,0,0:0:0:0:
272,280,35438,1,0,1:0:0:0:
345,300,35669,1,0,1:0:0:0:
422,307,35900,1,8,0:0:0:0:
417,297,36015,1,2,0:0:0:0:
413,287,36130,1,2,0:0:0:0:
408,277,36246,1,0,0:0:0:0:
404,267,36361,1,0,1:0:0:0:
477,287,36592,5,0,0:0:0:0:
490,213,36823,1,8,0:0:0:0:
417,196,37054,1,0,1:0:0:0:
412,186,37169,1,0,0:0:0:0:
408,176,37284,1,0,1:0:0:0:
253,92,37746,1,8,0:0:0:0:
258,83,37861,1,2,0:0:0:0:
251,74,37977,1,2,0:0:0:0:
256,65,38092,1,0,0:0:0:0:
249,56,38208,6,0,L|262:197,1,140,0|0,1:0|1:0,0:0:0:0:
267,208,38785,1,2,0:0:0:0:
272,220,38900,1,2,0:0:0:0:
277,232,39015,1,0,0:0:0:0:
276,267,39131,1,0,1:0:0:0:
283,233,39246,1,2,0:0:0:0:
291,199,39361,1,2,0:0:0:0:
299,164,39477,1,2,0:0:0:0:
278,135,39592,1,0,1:0:0:0:
290,186,39708,1,0,1:0:0:0:
302,236,39823,1,2,1:0:0:0:
314,286,39938,1,0,1:0:0:0:
286,330,40054,6,0,L|305:59,1,251.999992309571,4|4,1:0|3:0,0:0:0:0:
303,78,40823,1,4,3:0:0:0:
303,78,40900,1,4,3:0:0:0:
303,78,40977,1,4,3:0:0:0:
315,89,41438,1,0,0:0:0:0:
8,192,41900,5,4,1:0:0:0:
497,250,42361,1,8,1:0:0:0:
438,319,42592,1,0,1:0:0:0:
430,290,42708,1,0,1:0:0:0:
423,261,42823,1,4,1:2:0:0:
374,349,43054,1,2,0:0:0:0:
345,229,43285,1,8,1:0:0:0:
351,208,43400,1,0,0:0:0:0:
357,188,43515,1,0,1:0:0:0:
363,167,43631,1,0,0:0:0:0:
369,147,43746,1,4,1:2:0:0:
441,128,43977,1,0,0:0:0:0:
43,46,44208,5,8,1:0:0:0:
57,122,44438,1,4,1:0:0:0:
415,356,44900,5,4,1:2:0:0:
433,283,45131,1,8,1:0:0:0:
451,212,45361,1,4,1:2:0:0:
8,192,45592,5,4,1:0:0:0:
491,143,46054,1,8,1:0:0:0:
448,52,46285,1,0,1:0:0:0:
438,79,46401,1,0,1:0:0:0:
429,107,46516,1,4,1:2:0:0:
381,29,46747,1,2,0:0:0:0:
345,155,46978,1,8,1:0:0:0:
351,176,47093,1,0,0:0:0:0:
357,196,47208,1,0,1:0:0:0:
363,217,47324,1,0,0:0:0:0:
369,237,47439,1,4,1:2:0:0:
351,309,47670,1,2,1:2:0:0:
31,106,47900,5,8,1:0:0:0:
107,81,48131,1,4,1:0:0:0:
482,46,48592,5,4,1:2:0:0:
464,119,48823,1,8,1:0:0:0:
446,190,49053,1,4,1:2:0:0:
8,192,49285,5,4,1:0:0:0:
479,268,49746,1,8,1:0:0:0:
434,326,49977,1,0,1:0:0:0:
405,319,50092,1,0,1:0:0:0:
376,310,50208,1,4,1:2:0:0:
326,365,50438,1,2,0:0:0:0:
231,265,50669,1,8,1:0:0:0:
251,270,50785,1,0,0:0:0:0:
271,275,50900,1,0,1:0:0:0:
291,280,51015,1,0,0:0:0:0:
311,285,51131,1,4,1:2:0:0:
457,45,51592,5,8,1:0:0:0:
382,61,51823,1,4,1:0:0:0:
58,322,52285,5,4,1:2:0:0:
133,342,52515,1,8,1:0:0:0:
208,362,52746,1,4,1:2:0:0:
8,192,52977,5,4,1:0:0:0:
255,10,53438,1,8,1:0:0:0:
271,154,53669,1,0,1:0:0:0:
256,193,53785,1,0,1:0:0:0:
242,232,53900,1,4,1:2:0:0:
263,373,54131,1,2,0:0:0:0:
301,163,54361,5,8,1:0:0:0:
276,128,54477,1,0,0:0:0:0:
258,89,54592,1,0,1:0:0:0:
226,117,54708,1,0,0:0:0:0:
193,143,54823,1,4,1:2:0:0:
122,162,55054,1,2,0:0:0:0:
334,177,55285,5,8,1:0:0:0:
360,120,55400,1,4,1:3:0:0:
377,59,55515,1,8,1:3:0:0:
417,107,55631,1,4,1:3:0:0:
469,141,55746,1,6,1:2:0:0:
443,279,55977,1,8,1:0:0:0:
408,188,56208,1,6,1:2:0:0:
8,192,56669,5,4,1:0:0:0:
255,170,63131,6,0,P|252:237|254:331,1,157.500006008148,2|0,0:0|0:0,0:0:0:0:
255,170,64054,1,4,0:1:0:0:
256,192,65900,12,0,70515,0:0:0:0:
412,85,71438,5,4,3:2:0:0:
415,97,71554,1,0,3:0:0:0:
418,109,71669,1,0,3:0:0:0:
421,121,71785,1,0,3:0:0:0:
410,145,71900,1,0,3:0:0:0:
384,149,72015,1,0,3:0:0:0:
364,166,72131,1,0,3:0:0:0:
351,189,72246,1,0,0:0:0:0:
329,203,72361,5,2,3:0:0:0:
344,224,72477,1,0,3:0:0:0:
318,229,72592,1,0,3:0:0:0:
335,248,72708,1,0,3:0:0:0:
309,255,72823,1,0,3:0:0:0:
328,272,72938,1,0,3:0:0:0:
303,282,73054,1,0,3:0:0:0:
319,301,73169,1,2,0:0:0:0:
298,317,73285,5,2,3:0:0:0:
259,324,73400,1,0,3:0:0:0:
220,319,73515,1,0,3:0:0:0:
184,301,73631,1,0,3:0:0:0:
154,275,73746,1,0,3:0:0:0:
138,238,73861,1,0,3:0:0:0:
129,199,73977,1,0,3:0:0:0:
130,159,74092,1,2,0:0:0:0:
145,122,74208,1,2,3:0:0:0:
157,84,74323,1,0,3:0:0:0:
147,45,74438,1,0,3:0:0:0:
115,21,74554,1,2,0:2:0:0:
75,23,74669,1,2,3:0:0:0:
258,183,75131,5,2,3:0:0:0:
270,185,75246,1,0,3:0:0:0:
282,187,75361,1,0,3:0:0:0:
294,189,75477,1,0,3:0:0:0:
316,202,75592,1,0,3:0:0:0:
336,185,75708,1,0,3:0:0:0:
350,163,75823,1,0,3:0:0:0:
354,137,75938,1,0,0:0:0:0:
348,109,76054,5,2,3:0:0:0:
333,88,76170,1,0,3:0:0:0:
359,83,76285,1,0,3:0:0:0:
342,64,76401,1,0,3:0:0:0:
368,57,76516,1,0,3:0:0:0:
349,40,76631,1,0,3:0:0:0:
374,30,76747,1,0,3:0:0:0:
358,11,76862,1,2,0:0:0:0:
389,8,76977,5,2,3:0:0:0:
379,45,77092,1,0,3:0:0:0:
371,83,77208,1,0,3:0:0:0:
365,121,77323,1,0,3:0:0:0:
362,160,77438,1,0,3:0:0:0:
360,199,77554,1,0,3:0:0:0:
361,238,77669,1,0,3:0:0:0:
361,277,77785,1,2,0:0:0:0:
362,316,77900,5,2,1:0:0:0:
370,277,78015,1,0,1:0:0:0:
270,244,78246,1,2,1:0:0:0:
280,281,78361,1,0,1:0:0:0:
286,320,78477,1,0,1:0:0:0:
289,359,78592,1,2,1:0:0:0:
209,275,78823,5,0,1:0:0:0:
212,262,78938,1,0,0:0:0:0:
215,249,79054,1,0,0:0:0:0:
218,236,79169,1,0,0:0:0:0:
222,223,79285,1,8,0:0:0:0:
208,200,79400,1,0,0:0:0:0:
187,184,79515,1,0,0:0:0:0:
160,181,79631,1,0,0:0:0:0:
135,189,79746,1,0,1:0:0:0:
98,206,79861,1,0,0:0:0:0:
58,201,79977,2,0,P|63:172|65:151,1,26.2500010013581,0|0,1:0|0:0,0:0:0:0:
0,134,80208,6,0,L|12:258,1,105.000004005432,8|0,0:0|1:0,0:0:0:0:
454,201,80900,2,0,P|449:172|447:151,1,26.2500010013581,0|0,1:0|0:0,0:0:0:0:
512,134,81131,6,0,L|500:258,1,105.000004005432,8|0,0:0|1:0,0:0:0:0:
472,255,81708,1,0,0:0:0:0:
448,267,81823,1,0,1:0:0:0:
422,270,81938,1,0,0:0:0:0:
396,262,82054,1,8,0:0:0:0:
391,274,82169,1,0,0:0:0:0:
386,286,82285,1,2,1:0:0:0:
381,298,82400,1,0,0:0:0:0:
384,323,82515,5,0,1:0:0:0:
359,331,82631,1,0,0:0:0:0:
332,333,82746,1,0,0:0:0:0:
306,330,82861,1,0,0:0:0:0:
280,323,82977,1,8,0:0:0:0:
255,315,83093,1,0,0:0:0:0:
228,313,83208,1,0,0:0:0:0:
202,316,83323,1,0,0:0:0:0:
178,327,83438,5,2,1:0:0:0:
176,313,83554,1,0,0:0:0:0:
174,300,83669,1,2,1:0:0:0:
172,286,83785,1,0,0:0:0:0:
170,272,83900,1,8,0:0:0:0:
168,259,84015,1,2,0:0:0:0:
166,245,84131,1,0,1:0:0:0:
164,232,84245,1,0,0:0:0:0:
162,218,84361,6,0,L|180:221,4,11.6666666666667,0|0|0|0|0,1:0|1:0|1:0|1:0|1:0,1:1:0:0:
151,202,84592,6,0,L|128:208,3,17.5,0|0|0|0,1:0|1:0|1:0|1:0,1:1:0:0:
169,179,84823,6,0,L|194:186,2,23.3333333333333,0|0|0,1:0|1:0|1:0,1:1:0:0:
147,158,85054,6,0,L|93:172,1,35,0|0,1:0|1:0,1:1:0:0:
84,191,85285,6,0,L|27:186,2,46.6666666666667,0|0|0,1:0|1:0|1:0,1:1:0:0:
164,120,85746,5,8,1:0:0:0:
214,132,85861,1,2,0:0:0:0:
264,145,85977,1,2,0:0:0:0:
313,161,86092,1,0,0:0:0:0:
341,140,86208,5,4,1:0:0:0:
338,129,86323,1,0,0:0:0:0:
335,118,86438,1,0,1:0:0:0:
332,107,86554,1,0,0:0:0:0:
351,78,86669,2,0,P|342:137|335:199,1,105,8|0,1:0|1:0,0:0:0:0:
274,78,87131,6,0,P|278:43|279:20,1,35,0|0,1:0|0:0,0:0:0:0:
355,23,87361,2,0,P|353:40|351:57,1,35,0|0,1:0|0:0,0:0:0:0:
411,108,87592,1,8,1:0:0:0:
441,90,87708,1,2,0:0:0:0:
467,112,87823,1,2,0:0:0:0:
501,110,87938,1,2,0:0:0:0:
470,126,88054,1,0,1:0:0:0:
444,104,88169,1,0,0:0:0:0:
414,122,88285,1,0,1:0:0:0:
384,103,88400,1,0,0:0:0:0:
411,108,88515,1,8,1:0:0:0:
441,90,88631,1,2,0:0:0:0:
467,112,88746,1,2,0:0:0:0:
501,110,88861,1,2,1:0:0:0:
470,126,88977,1,0,1:0:0:0:
444,104,89092,1,0,0:0:0:0:
414,122,89208,1,2,1:0:0:0:
384,103,89323,1,0,0:0:0:0:
411,108,89438,1,8,1:0:0:0:
258,189,89669,6,0,L|251:125,1,35,2|0,1:0|0:0,0:0:0:0:
256,200,89900,1,0,1:0:0:0:
254,210,90015,1,0,0:0:0:0:
252,220,90131,1,0,1:0:0:0:
250,230,90246,1,0,0:0:0:0:
249,242,90361,2,0,L|260:365,1,105,8|0,1:0|1:0,0:0:0:0:
172,246,90823,6,0,L|176:203,1,35,0|0,1:0|0:0,0:0:0:0:
328,294,91054,2,0,L|331:328,1,35,0|0,1:0|0:0,0:0:0:0:
276,136,91285,5,8,1:0:0:0:
304,156,91400,1,2,0:0:0:0:
335,171,91515,1,2,0:0:0:0:
324,204,91631,1,2,0:0:0:0:
314,237,91746,2,0,L|327:276,1,35,0|0,1:0|0:0,0:0:0:0:
184,188,91977,2,0,L|195:154,1,35,0|0,1:0|0:0,0:0:0:0:
161,51,92208,1,8,1:0:0:0:
127,59,92322,1,2,0:0:0:0:
93,66,92438,1,2,0:0:0:0:
96,100,92553,1,2,1:0:0:0:
93,135,92669,2,0,L|65:165,1,35,0|0,1:0|0:0,0:0:0:0:
6,200,92900,1,2,1:0:0:0:
39,228,93015,1,0,0:0:0:0:
10,287,93131,6,2,P|12:221|10:91,1,157.500006008148,2|0,1:0|0:0,1:1:0:0:
19,114,93592,5,2,1:3:0:0:
117,204,93823,1,4,0:0:0:0:
222,79,94054,2,0,L|346:114,1,105,8|2,1:0|1:2,0:0:0:0:
222,79,94515,2,0,L|186:93,1,35,2|2,1:2|0:0,0:0:0:0:
127,59,94746,1,0,1:0:0:0:
227,30,94977,6,0,L|240:82,1,35,8|0,1:0|0:0,0:0:0:0:
277,128,95208,2,0,L|261:185,1,35,0|0,0:0|0:0,0:0:0:0:
221,226,95438,2,0,L|241:319,1,70,2|4,1:3|0:0,0:0:0:0:
251,308,95785,1,0,0:0:0:0:
204,368,95900,2,0,L|168:363,2,35,8|0|0,1:0|0:0|0:0,0:0:0:0:
158,288,96246,1,2,1:2:0:0:
94,319,96361,2,0,L|115:274,1,35,2|2,1:2|0:0,0:0:0:0:
164,234,96592,1,0,1:0:0:0:
25,340,96823,5,8,1:0:0:0:
76,350,96938,1,2,1:2:0:0:
127,361,97054,2,0,L|134:336,1,17.5,2|2,1:0|2:0,0:0:0:0:
178,372,97169,2,0,L|185:347,1,17.5,2|2,1:0|0:0,0:0:0:0:
211,335,97285,6,0,L|222:383,1,35,2|0,1:3|0:0,0:0:0:0:
249,358,97515,1,4,0:0:0:0:
274,343,97631,1,0,0:0:0:0:
311,372,97746,1,8,1:0:0:0:
274,343,98092,1,8,1:0:0:0:
332,308,98323,1,4,1:3:0:0:
371,323,98438,1,4,1:3:0:0:
389,285,98554,1,8,1:3:0:0:
345,266,98669,1,4,1:3:0:0:
337,298,98785,5,2,1:2:0:0:
366,309,98900,1,2,1:2:0:0:
382,291,99015,1,0,1:0:0:0:
351,276,99131,2,2,P|358:223|353:60,1,210,4|2,1:0|0:0,1:1:0:0:
322,71,100631,1,2,0:0:0:0:
306,46,100746,1,2,0:1:0:0:
291,66,100861,1,2,0:0:0:0:
261,40,100977,6,0,P|257:77|253:131,1,83.9999974365235,4|0,1:0|1:0,0:0:0:0:
245,203,101438,2,0,P|255:250|272:350,1,125.999996154785,8|0,1:0|1:0,0:0:0:0:
245,203,101900,2,0,L|290:195,1,41.9999987182618,0|0,1:0|0:0,0:0:0:0:
348,241,102131,2,0,L|393:233,1,41.9999987182618,0|0,1:0|0:0,0:0:0:0:
461,265,102361,1,8,1:0:0:0:
468,254,102477,1,2,0:0:0:0:
475,244,102592,1,2,0:0:0:0:
482,234,102708,1,2,0:0:0:0:
493,247,102823,6,0,L|451:254,1,41.9999987182618,0|0,1:0|0:0,0:0:0:0:
390,209,103054,2,0,L|348:216,1,41.9999987182618,0|0,1:0|0:0,0:0:0:0:
279,247,103285,1,8,1:0:0:0:
268,229,103401,1,2,0:0:0:0:
257,214,103516,1,2,0:0:0:0:
247,197,103631,6,0,B|241:175|241:175|246:143,1,41.9999987182618,2|0,1:0|1:0,0:0:0:0:
307,112,103861,1,0,0:0:0:0:
307,112,103977,2,0,B|329:117|329:117|354:138,1,41.9999987182618,2|0,1:0|0:0,0:0:0:0:
235,83,104208,1,8,1:0:0:0:
237,70,104323,1,0,0:0:0:0:
239,57,104438,1,2,1:0:0:0:
241,44,104554,1,0,0:0:0:0:
225,23,104669,5,0,1:0:0:0:
256,186,104900,1,0,1:0:0:0:
287,349,105131,1,8,1:0:0:0:
287,349,105477,1,0,1:0:0:0:
287,349,105592,1,0,1:0:0:0:
255,278,105823,1,0,1:0:0:0:
282,207,106054,1,8,1:0:0:0:
260,133,106285,1,2,0:0:0:0:
262,120,106400,1,2,0:0:0:0:
253,110,106515,6,0,L|223:164,1,41.9999987182618,0|0,1:0|0:0,0:0:0:0:
161,158,106746,1,0,1:0:0:0:
136,151,106861,1,0,0:0:0:0:
112,160,106977,1,8,1:0:0:0:
112,160,107208,5,2,0:0:0:0:
136,151,107324,1,2,1:0:0:0:
161,158,107439,1,0,1:0:0:0:
182,171,107554,1,0,0:0:0:0:
206,175,107669,1,2,1:0:0:0:
229,166,107785,1,0,0:0:0:0:
257,119,107900,5,2,1:0:0:0:
199,98,108015,1,0,0:0:0:0:
152,132,108131,1,0,0:0:0:0:
294,234,108361,5,4,1:0:0:0:
352,255,108476,1,0,0:0:0:0:
399,221,108592,1,0,1:0:0:0:
400,195,108708,1,0,0:0:0:0:
376,181,108823,6,0,P|373:245|374:328,1,125.999996154785,8|0,1:0|1:0,0:0:0:0:
376,181,109285,2,0,L|330:176,1,41.9999987182618,0|0,1:0|0:0,0:0:0:0:
278,128,109515,2,0,L|232:123,1,41.9999987182618,0|0,1:0|0:0,0:0:0:0:
186,65,109746,1,8,1:0:0:0:
174,69,109861,1,2,0:0:0:0:
162,73,109977,1,2,0:0:0:0:
150,77,110092,1,2,0:0:0:0:
132,94,110208,6,0,L|178:89,1,41.9999987182618,0|0,1:0|0:0,0:0:0:0:
231,44,110438,2,0,L|277:39,1,41.9999987182618,0|0,1:0|0:0,0:0:0:0:
341,10,110669,1,8,1:0:0:0:
360,18,110785,1,2,0:0:0:0:
378,26,110900,1,2,0:0:0:0:
396,35,111015,6,0,B|390:55|390:55|397:83,1,41.9999987182618,2|0,1:0|1:0,0:0:0:0:
435,146,111246,1,0,0:0:0:0:
435,146,111361,2,0,L|388:151,1,41.9999987182618,2|0,1:0|0:0,0:0:0:0:
320,175,111592,2,0,L|326:80,1,83.9999974365235,8|2,1:0|1:0,0:0:0:0:
68,187,112054,5,0,1:0:0:0:
134,218,112285,1,0,1:0:0:0:
145,200,112400,1,0,0:0:0:0:
156,182,112515,1,8,1:0:0:0:
224,206,112746,1,2,0:0:0:0:
131,175,112977,1,0,1:0:0:0:
145,200,113092,1,0,0:0:0:0:
158,226,113207,1,0,1:0:0:0:
191,134,113438,6,0,P|167:235|148:283,1,125.999996154785,8|2,1:0|0:0,0:0:0:0:
191,134,113900,2,0,L|246:127,1,41.9999987182618,0|0,1:0|0:0,0:0:0:0:
281,73,114131,1,0,1:0:0:0:
320,86,114246,1,4,1:3:0:0:
359,99,114361,1,8,1:0:0:0:
398,113,114477,1,4,1:3:0:0:
397,124,114708,5,4,1:3:0:0:
364,87,114824,1,8,1:0:0:0:
315,96,114939,1,4,1:3:0:0:
285,63,115054,1,10,1:0:0:0:
238,11,115285,6,0,L|189:23,1,41.9999987182618,2|0,0:1|0:0,0:0:0:0:
136,60,115515,1,2,0:1:0:0:
123,51,115631,1,2,0:1:0:0:
112,11,115746,6,0,P|116:108|126:247,1,210.000008010865,4|4,1:0|1:0,0:0:0:0:
116,340,116438,1,2,0:0:0:0:
123,220,116669,1,4,1:2:0:0:
388,249,116900,5,0,1:0:0:0:
395,207,117015,1,0,1:0:0:0:
401,165,117131,1,10,1:0:0:0:
407,123,117246,1,0,0:0:0:0:
401,165,117361,1,2,1:0:0:0:
407,123,117477,1,2,1:0:0:0:
384,137,117592,6,0,L|447:155,1,52.5000020027161,4|0,1:2|0:0,0:0:0:0:
257,195,117939,5,0,1:0:0:0:
257,195,118054,2,0,L|307:180,1,52.5000020027161,8|0,1:0|0:0,0:0:0:0:
116,74,118285,5,2,1:0:0:0:
140,84,118400,1,2,1:0:0:0:
164,94,118515,1,4,0:0:0:0:
196,74,118631,5,0,1:0:0:0:
196,74,118746,2,0,L|183:124,1,52.5000020027161,0|0,1:0|0:0,0:0:0:0:
331,81,118977,1,8,1:0:0:0:
331,81,119092,2,0,L|293:44,2,52.5000020027161,0|0|0,1:0|0:0|0:0,0:0:0:0:
387,32,119438,6,0,P|383:129|373:268,1,210.000008010865,4|4,1:0|1:0,0:0:0:0:
382,361,120131,1,2,0:0:0:0:
375,241,120362,1,4,1:2:0:0:
202,303,120592,5,0,1:0:0:0:
149,306,120708,1,0,1:0:0:0:
97,312,120823,1,10,1:0:0:0:
122,319,120938,1,0,0:0:0:0:
147,326,121054,1,0,1:0:0:0:
172,333,121169,1,2,1:0:0:0:
197,340,121285,1,4,1:2:0:0:
70,161,121631,5,0,1:0:0:0:
70,161,121746,2,0,L|41:250,1,52.5000020027161,8|0,1:0|0:0,0:0:0:0:
253,213,121977,2,0,L|236:163,1,52.5000020027161,2|2,1:0|1:0,0:0:0:0:
152,226,122208,5,4,0:0:0:0:
154,184,122323,1,0,1:0:0:0:
157,142,122438,1,2,1:0:0:0:
157,99,122554,1,0,0:0:0:0:
157,142,122669,1,10,1:0:0:0:
157,99,122785,1,2,1:0:0:0:
120,89,122900,6,0,B|93:85|93:85|60:97,1,52.5000020027161,2|0,1:0|0:0,0:0:0:0:
192,142,123131,6,0,L|314:120,1,105.000004005432,4|2,1:0|0:0,0:0:0:0:
440,34,123592,1,12,1:0:0:0:
316,15,123823,1,2,0:0:0:0:
424,132,124054,1,4,1:2:0:0:
229,203,124285,5,0,1:0:0:0:
233,256,124401,1,0,0:0:0:0:
237,308,124516,1,8,1:0:0:0:
240,361,124631,1,0,0:0:0:0:
263,314,124746,1,0,0:0:0:0:
218,285,124861,1,0,0:0:0:0:
252,244,124977,1,4,1:0:0:0:
252,244,125323,1,0,1:0:0:0:
297,270,125438,2,0,L|364:260,1,52.5000020027161,12|0,1:0|0:0,0:0:0:0:
257,170,125669,5,2,1:0:0:0:
275,120,125785,1,2,1:0:0:0:
253,72,125900,1,4,1:2:0:0:
252,19,126015,1,0,0:0:0:0:
300,0,126131,1,2,1:0:0:0:
257,170,126361,5,8,1:0:0:0:
275,120,126477,1,2,1:0:0:0:
253,72,126592,1,0,0:0:0:0:
252,19,126708,1,0,0:0:0:0:
300,0,126823,6,0,B|321:16|321:16|362:14,1,52.5000020027161,4|0,1:0|0:0,0:0:0:0:
385,98,127054,2,0,B|360:108|360:108|341:144,1,52.5000020027161,2|0,1:2|0:0,0:0:0:0:
212,192,127285,5,12,1:0:0:0:
195,142,127400,1,2,0:0:0:0:
178,92,127515,1,2,1:2:0:0:
161,42,127631,1,0,0:0:0:0:
154,93,127746,5,4,1:2:0:0:
244,29,127977,1,2,0:0:0:0:
59,11,128208,1,8,1:0:0:0:
96,29,128323,1,2,1:0:0:0:
59,11,128438,1,2,1:0:0:0:
96,29,128553,1,0,0:0:0:0:
35,43,128669,6,0,B|71:82|71:82|50:219,1,157.500006008148,4|0,1:0|1:0,0:0:0:0:
41,171,129131,1,8,1:2:0:0:
36,195,129246,1,0,1:0:0:0:
66,172,129361,1,0,0:0:0:0:
61,200,129477,1,0,1:0:0:0:
92,229,129592,5,2,0:0:0:0:
134,224,129708,1,4,1:2:0:0:
173,208,129823,1,0,1:0:0:0:
200,176,129938,1,0,1:0:0:0:
235,153,130054,1,2,1:3:0:0:
348,254,130285,1,4,1:3:0:0:
445,201,130515,5,4,1:0:0:0:
445,201,130745,1,0,1:0:0:0:
425,208,130861,1,0,1:0:0:0:
375,268,131092,1,0,1:0:0:0:
382,288,131208,1,0,1:0:0:0:
375,268,131323,1,0,1:0:0:0:
442,338,131554,1,0,1:0:0:0:
492,278,131785,1,0,1:0:0:0:
485,258,131900,1,0,1:0:0:0:
350,189,132131,1,0,1:0:0:0:
350,167,132246,1,0,1:0:0:0:
242,60,132477,1,0,1:0:0:0:
249,39,132592,1,0,1:0:0:0:
242,60,132708,1,0,1:0:0:0:
243,80,132823,1,0,1:0:0:0:
255,114,132938,1,0,1:0:0:0:
249,158,133054,1,0,1:0:0:0:
262,202,133169,1,0,1:0:0:0:
252,241,133285,2,0,L|277:257,1,26.2500010013581,0|0,1:0|0:0,0:0:0:0:
263,359,133515,6,0,L|249:376,1,17.5,2|2,0:0|0:0,0:0:0:0:
249,359,133631,2,0,L|263:376,1,17.5,2|2,0:0|0:0,0:0:0:0:
257,383,133746,6,0,L|242:162,1,210,4|0,1:0|2:0,1:1:0:0:
504,192,134208,5,4,1:0:0:0:
28,48,134669,1,8,1:0:0:0:
83,98,134900,1,0,1:0:0:0:
117,85,135015,1,0,1:0:0:0:
151,71,135131,1,4,1:2:0:0:
200,126,135361,1,2,0:0:0:0:
141,180,135592,1,8,1:0:0:0:
143,200,135708,1,0,0:0:0:0:
145,220,135823,1,0,1:0:0:0:
148,240,135938,1,0,0:0:0:0:
151,260,136054,1,4,1:2:0:0:
99,316,136285,1,0,0:0:0:0:
279,154,136515,5,8,1:0:0:0:
251,13,136746,1,4,1:0:0:0:
251,13,137092,1,8,1:0:0:0:
251,13,137208,2,0,L|239:76,1,52.5000020027161,4|0,1:2|0:0,0:0:0:0:
270,134,137438,1,8,1:0:0:0:
260,169,137554,1,0,0:0:0:0:
284,218,137669,1,4,1:3:0:0:
270,267,137785,1,0,0:0:0:0:
283,333,137900,6,0,L|271:153,1,157.500006008148,4|0,1:0|0:0,0:0:0:0:
283,333,138361,2,0,L|222:339,1,52.5000020027161,8|0,1:0|0:0,0:0:0:0:
115,272,138592,1,0,1:0:0:0:
85,289,138708,1,0,1:0:0:0:
42,259,138823,6,0,L|35:352,1,52.5000020027161,4|0,1:2|0:0,0:0:0:0:
44,344,139054,2,0,L|49:290,1,52.5000020027161,2|0,0:0|0:0,0:0:0:0:
18,299,139285,1,8,1:0:0:0:
198,328,139515,1,0,1:0:0:0:
269,120,139746,6,0,B|241:112|241:112|209:129,1,52.5000020027161,4|0,1:2|0:0,0:0:0:0:
107,245,139977,2,0,B|135:253|135:253|167:236,1,52.5000020027161,2|0,1:2|0:0,0:0:0:0:
237,216,140208,1,8,1:0:0:0:
56,63,140438,2,0,L|35:245,1,157.500006008148,4|0,1:0|0:0,0:0:0:0:
96,267,140900,6,0,L|155:256,1,52.5000020027161,4|0,1:2|0:0,0:0:0:0:
306,185,141131,1,8,1:0:0:0:
335,195,141246,1,0,0:0:0:0:
393,175,141361,1,4,1:2:0:0:
450,202,141477,1,0,0:0:0:0:
504,185,141592,5,4,1:0:0:0:
28,336,142054,1,8,1:0:0:0:
75,280,142285,1,0,1:0:0:0:
108,295,142400,1,0,1:0:0:0:
140,312,142516,1,4,1:2:0:0:
195,264,142746,1,2,0:0:0:0:
273,373,142977,1,8,1:0:0:0:
271,353,143093,1,0,0:0:0:0:
269,333,143208,1,0,1:0:0:0:
266,313,143323,1,0,0:0:0:0:
263,293,143439,1,4,1:2:0:0:
315,237,143670,5,0,0:0:0:0:
180,324,143900,1,8,1:0:0:0:
93,189,144131,1,4,1:0:0:0:
93,189,144592,5,4,1:2:0:0:
114,205,144708,1,0,0:0:0:0:
136,181,144823,1,8,1:0:0:0:
155,200,144938,1,0,0:0:0:0:
123,167,145054,6,0,L|114:232,1,52.5000020027161,4|0,1:2|0:0,0:0:0:0:
368,373,145285,6,0,L|353:203,1,157.500006008148,4|0,1:0|0:0,0:0:0:0:
310,157,145746,2,0,L|252:170,1,52.5000020027161,8|0,1:0|0:0,0:0:0:0:
202,118,145977,1,0,1:0:0:0:
209,92,146092,1,0,1:0:0:0:
216,66,146208,1,4,1:2:0:0:
129,130,146438,1,2,0:0:0:0:
330,81,146669,1,8,1:0:0:0:
403,14,146900,5,0,1:0:0:0:
421,148,147131,1,4,1:2:0:0:
240,89,147361,5,2,0:0:0:0:
246,63,147477,1,0,0:0:0:0:
252,37,147592,1,8,1:0:0:0:
260,182,147823,1,8,1:3:0:0:
355,85,148054,1,6,1:2:0:0:
147,112,148285,1,8,1:0:0:0:
260,354,148515,6,0,B|234:310|261:253|261:253|291:198|250:135,1,210.000008010865,6|4,1:2|1:0,0:0:0:0:
270,181,154515,6,0,L|261:308,1,105.000004005432,2|0,0:0|2:0,0:0:0:0:
261,150,155092,2,0,L|242:157,1,13.125000500679,2|0,2:0|2:0,2:2:0:0:
268,128,155208,2,0,L|287:135,1,13.125000500679,2|0,2:0|2:0,2:2:0:0:
261,106,155323,2,0,L|242:113,1,13.125000500679,2|0,2:0|2:0,2:2:0:0:
259,76,155438,6,0,L|270:246,1,157.500006008148,0|0,1:0|2:0,1:1:0:0:
260,268,155900,2,0,L|218:257,4,26.2500010013581,2|2|2|2|2,2:0|2:0|2:0|2:0|2:0,2:0:0:0:
275,311,156246,2,0,L|304:302,1,26.2500010013581,2|0,1:2|1:0,1:1:0:0:
251,339,156361,6,0,L|199:329,1,35,4|0,1:0|0:0,0:0:0:0:
157,291,156592,2,0,L|105:281,1,35,0|0,1:0|0:0,0:0:0:0:
67,238,156823,1,8,1:0:0:0:
91,213,156938,2,0,L|80:123,1,70,0|0,0:0|1:0,0:0:0:0:
81,67,157285,2,0,L|124:76,1,35,0|0,1:0|0:0,0:0:0:0:
160,13,157515,2,0,L|199:2,1,35,0|0,1:0|0:0,0:0:0:0:
275,132,157746,5,8,1:0:0:0:
305,114,157862,1,2,0:0:0:0:
331,136,157977,1,2,0:0:0:0:
365,134,158092,1,2,0:0:0:0:
334,150,158208,1,0,1:0:0:0:
308,128,158323,1,0,0:0:0:0:
278,146,158439,1,0,1:0:0:0:
248,127,158554,1,0,0:0:0:0:
275,132,158669,1,8,1:0:0:0:
305,114,158785,1,2,0:0:0:0:
331,136,158900,1,2,0:0:0:0:
365,134,159015,1,2,1:0:0:0:
334,150,159131,1,0,1:0:0:0:
308,128,159246,1,0,0:0:0:0:
278,146,159362,1,2,1:0:0:0:
248,127,159477,1,0,0:0:0:0:
275,132,159592,1,8,1:0:0:0:
267,282,159823,6,0,L|255:244,1,35,2|0,1:0|0:0,0:0:0:0:
264,295,160054,1,0,1:0:0:0:
262,306,160169,1,0,0:0:0:0:
260,317,160285,1,0,1:0:0:0:
258,328,160400,1,0,0:0:0:0:
256,338,160515,2,0,L|383:323,1,105,8|0,1:0|1:0,0:0:0:0:
252,232,160977,6,0,L|262:265,1,35,0|0,1:0|0:0,0:0:0:0:
167,335,161208,2,0,L|177:301,1,35,0|0,1:0|0:0,0:0:0:0:
64,191,161438,1,8,1:0:0:0:
97,202,161554,1,2,0:0:0:0:
130,212,161669,1,2,0:0:0:0:
163,223,161785,1,2,0:0:0:0:
165,210,161900,5,0,1:0:0:0:
64,191,162131,1,0,1:0:0:0:
45,292,162361,1,8,1:0:0:0:
256,363,162592,5,2,0:0:0:0:
253,345,162708,1,2,1:0:0:0:
261,329,162823,1,0,1:0:0:0:
258,311,162939,1,2,1:0:0:0:
258,234,163169,1,0,1:0:0:0:
262,224,163285,1,2,1:0:0:0:
260,198,163400,5,0,1:0:0:0:
236,240,163515,1,2,1:0:0:0:
284,243,163631,1,0,1:0:0:0:
213,200,163746,6,0,L|125:223,1,83.9999974365235,4|0,1:0|1:0,0:0:0:0:
86,281,164208,2,0,P|32:262|0:180,1,125.999996154785,8|0,1:0|1:0,0:0:0:0:
0,333,164669,2,0,L|9:398,1,41.9999987182618,0|0,1:0|0:0,0:0:0:0:
153,335,164900,2,0,L|158:293,1,41.9999987182618,0|0,1:0|0:0,0:0:0:0:
230,356,165131,1,8,1:0:0:0:
242,353,165246,1,2,0:0:0:0:
254,350,165361,1,2,0:0:0:0:
266,347,165477,1,2,0:0:0:0:
278,330,165592,6,0,B|300:343|300:343|327:337,1,41.9999987182618,0|0,1:0|0:0,0:0:0:0:
411,341,165823,2,0,B|388:353|388:353|380:379,1,41.9999987182618,0|0,1:0|0:0,0:0:0:0:
360,278,166054,1,8,1:0:0:0:
355,257,166169,1,2,0:0:0:0:
350,236,166285,1,2,0:0:0:0:
327,210,166400,6,0,L|313:264,1,41.9999987182618,2|0,1:0|1:0,0:0:0:0:
437,204,166631,1,0,0:0:0:0:
437,204,166746,2,0,L|426:163,1,41.9999987182618,2|0,1:0|0:0,0:0:0:0:
360,124,166977,1,8,1:0:0:0:
347,126,167092,1,0,0:0:0:0:
334,127,167208,1,0,1:0:0:0:
321,128,167323,1,0,0:0:0:0:
306,152,167438,5,0,1:0:0:0:
110,73,167669,1,0,1:0:0:0:
26,256,167900,1,8,1:0:0:0:
26,256,168246,1,0,1:0:0:0:
26,256,168361,1,0,1:0:0:0:
97,177,168592,1,0,1:0:0:0:
182,241,168823,1,8,1:0:0:0:
108,326,169054,1,2,0:0:0:0:
105,313,169169,1,2,0:0:0:0:
112,302,169285,6,0,L|177:311,1,41.9999987182618,0|0,1:0|0:0,0:0:0:0:
206,358,169515,2,0,L|271:367,1,41.9999987182618,0|0,1:0|0:0,0:0:0:0:
339,325,169746,1,8,1:0:0:0:
320,308,169861,1,0,0:0:0:0:
294,308,169977,1,2,0:0:0:0:
320,308,170092,1,2,1:0:0:0:
339,325,170208,1,0,1:0:0:0:
351,346,170323,1,0,0:0:0:0:
383,371,170438,5,2,1:0:0:0:
422,354,170554,1,0,0:0:0:0:
436,314,170669,1,2,1:0:0:0:
425,273,170785,1,0,0:0:0:0:
398,240,170900,1,0,0:0:0:0:
393,198,171015,1,0,0:0:0:0:
419,165,171131,6,0,L|477:177,1,41.9999987182618,4|0,1:0|0:0,0:0:0:0:
351,201,171361,2,0,L|309:192,1,41.9999987182618,0|0,1:0|0:0,0:0:0:0:
261,131,171592,1,8,1:0:0:0:
248,134,171708,1,0,0:0:0:0:
235,137,171823,1,0,0:0:0:0:
222,140,171938,1,0,1:0:0:0:
199,177,172054,5,4,1:2:0:0:
159,162,172169,1,0,0:0:0:0:
173,122,172285,1,4,1:2:0:0:
211,138,172400,1,0,0:0:0:0:
208,199,172515,6,0,P|203:265|201:330,1,125.999996154785,4|2,1:2|0:0,0:0:0:0:
201,324,172977,1,0,1:0:0:0:
201,324,173092,1,0,0:0:0:0:
201,324,173208,1,0,1:0:0:0:
201,324,173323,1,0,0:0:0:0:
201,324,173438,1,0,1:0:0:0:
288,358,173669,1,0,1:0:0:0:
297,339,173785,1,0,1:0:0:0:
307,320,173900,1,0,1:0:0:0:
289,308,174015,1,0,0:0:0:0:
271,296,174131,1,0,1:0:0:0:
144,349,174361,1,0,1:0:0:0:
134,368,174476,1,0,0:0:0:0:
152,380,174591,1,0,1:0:0:0:
192,282,174823,5,0,1:0:0:0:
184,262,174938,1,0,0:0:0:0:
176,242,175054,1,0,1:0:0:0:
169,222,175169,1,0,0:0:0:0:
215,238,175285,5,8,1:0:0:0:
191,246,175400,1,0,0:0:0:0:
167,256,175516,1,2,0:0:0:0:
143,265,175631,1,0,0:0:0:0:
164,209,175746,5,0,1:0:0:0:
174,237,175861,1,0,0:0:0:0:
185,264,175977,1,0,1:0:0:0:
196,292,176092,1,0,0:0:0:0:
128,270,176208,5,8,1:0:0:0:
162,257,176323,1,0,0:0:0:0:
195,243,176439,1,0,1:0:0:0:
229,232,176554,1,2,0:0:0:0:
167,222,176669,5,2,1:2:0:0:
150,263,176785,1,0,1:0:0:0:
191,279,176900,1,0,1:0:0:0:
207,239,177015,1,0,1:0:0:0:
185,249,177131,5,8,1:0:0:0:
168,278,177246,1,0,1:0:0:0:
163,233,177361,1,8,1:2:0:0:
206,249,177477,1,8,1:0:0:0:
234,313,177592,6,0,L|293:303,2,35.0000013351441,2|2|2,1:2|0:0|0:0,0:0:0:0:
211,337,178092,6,0,L|136:328,1,52.5000020027161,2|2,0:0|0:0,0:0:0:0:
76,355,178515,6,0,L|104:189,1,157.500006008148,4|0,1:0|0:0,0:0:0:0:
176,205,178976,2,0,B|201:159|201:159|170:99,1,105.000004005432,12|2,1:0|0:0,0:0:0:0:
108,48,179438,1,4,1:2:0:0:
88,127,179668,1,0,1:0:0:0:
286,177,179899,1,10,1:0:0:0:
276,152,180015,1,0,0:0:0:0:
281,126,180130,1,2,1:0:0:0:
277,100,180245,1,2,1:0:0:0:
277,100,180361,6,0,L|264:261,1,157.500006008148,4|0,1:2|1:0,0:0:0:0:
312,317,180822,2,0,B|337:333|337:333|377:322,1,52.5000020027161,8|0,1:0|0:0,0:0:0:0:
462,213,181053,1,2,1:0:0:0:
459,186,181168,1,2,1:0:0:0:
435,177,181284,1,4,0:0:0:0:
402,213,181399,5,0,1:0:0:0:
402,213,181515,2,0,L|409:103,1,105.000004005432,0|8,1:0|1:0,0:0:0:0:
256,26,181861,2,0,L|262:106,1,52.5000020027161,0|0,1:0|0:0,0:0:0:0:
202,162,182207,6,0,L|168:323,1,157.500006008148,4|0,1:0|0:0,0:0:0:0:
120,373,182668,2,0,P|78:346|69:280,1,105.000004005432,12|2,1:0|0:0,0:0:0:0:
0,237,183130,1,4,1:2:0:0:
37,162,183361,1,0,1:0:0:0:
119,177,183590,1,10,1:0:0:0:
141,163,183707,1,0,0:0:0:0:
164,174,183822,1,0,1:0:0:0:
175,197,183938,1,2,1:0:0:0:
139,219,184053,6,0,P|149:133|150:81,1,105.000004005432,4|0,1:2|0:0,0:0:0:0:
191,51,184399,1,0,1:0:0:0:
211,67,184515,1,8,1:0:0:0:
242,151,184745,2,0,L|309:136,1,52.5000020027161,2|2,1:0|1:0,0:0:0:0:
386,68,184976,2,0,B|362:113|362:113|382:168,1,105.000004005432,4|2,0:0|1:0,0:0:0:0:
458,147,185322,1,0,0:0:0:0:
471,169,185438,1,10,1:0:0:0:
456,190,185553,1,2,1:0:0:0:
466,214,185668,1,2,1:0:0:0:
265,367,185899,6,0,B|236:330|236:330|261:204,1,157.500006008148,4|0,1:0|0:0,0:0:0:0:
321,179,186361,2,0,L|301:67,1,105.000004005432,4|2,1:0|0:0,0:0:0:0:
142,107,186822,1,4,1:2:0:0:
168,224,187053,1,0,1:0:0:0:
222,85,187284,5,8,1:0:0:0:
230,60,187399,1,0,0:0:0:0:
208,45,187515,1,0,0:0:0:0:
216,20,187630,1,0,0:0:0:0:
216,20,187745,2,0,B|142:12|142:12|80:89,1,157.500006008148,4|0,1:0|1:0,0:0:0:0:
19,96,188207,2,0,L|29:165,1,52.5000020027161,12|0,1:0|0:0,0:0:0:0:
78,202,188438,1,2,1:0:0:0:
73,227,188553,1,2,1:0:0:0:
69,252,188668,1,4,1:2:0:0:
65,278,188784,1,0,0:0:0:0:
60,303,188899,1,2,1:0:0:0:
260,371,189130,5,8,1:0:0:0:
240,353,189245,2,0,L|260:259,1,52.5000020027161,2|0,1:0|0:0,0:0:0:0:
233,261,189476,1,0,0:0:0:0:
269,229,189591,6,0,L|441:260,1,157.500006008148,4|0,1:0|0:0,0:0:0:0:
489,288,190053,2,0,B|504:341|504:341|474:393,1,105.000004005432,12|2,1:0|1:2,0:0:0:0:
334,193,190515,1,4,1:2:0:0:
381,94,190745,1,2,0:0:0:0:
478,169,190976,1,8,1:0:0:0:
481,184,191091,1,2,1:0:0:0:
481,199,191207,1,2,1:0:0:0:
478,214,191322,1,0,0:0:0:0:
468,236,191438,6,0,B|429:238|429:238|392:105,1,157.500006008148,4|0,1:0|1:0,0:0:0:0:
407,111,191899,1,8,1:2:0:0:
401,96,192015,1,0,1:0:0:0:
404,80,192130,1,0,0:0:0:0:
397,65,192245,1,0,1:0:0:0:
403,50,192361,1,2,0:0:0:0:
368,37,192476,1,4,1:2:0:0:
338,59,192591,1,0,1:0:0:0:
318,90,192707,1,0,1:0:0:0:
281,94,192822,1,2,1:3:0:0:
155,43,193053,1,4,1:3:0:0:
98,164,193284,5,4,1:0:0:0:
98,164,193515,1,0,1:0:0:0:
98,164,193630,1,0,1:0:0:0:
172,204,193861,1,0,1:0:0:0:
172,204,193976,1,0,1:0:0:0:
172,204,194091,1,0,1:0:0:0:
232,159,194322,1,0,1:0:0:0:
299,202,194553,1,0,1:0:0:0:
299,202,194668,1,0,1:0:0:0:
366,162,194899,1,0,1:0:0:0:
366,162,195015,1,0,1:0:0:0:
438,191,195245,1,0,1:0:0:0:
438,191,195361,1,0,1:0:0:0:
469,210,195476,1,0,1:0:0:0:
469,210,195591,1,0,1:0:0:0:
444,263,195707,1,0,1:0:0:0:
444,263,195822,1,0,1:0:0:0:
476,312,195938,1,0,1:0:0:0:
476,312,196053,2,0,L|483:341,6,26.2500010013581,0|2|2|2|2|2|2,1:0|0:0|0:0|0:0|0:0|0:0|0:0,0:0:0:0:
420,381,196515,6,0,B|378:346|378:346|237:369,1,157.500006008148,4|0,1:0|0:0,1:1:0:0:
257,377,196976,5,4,1:0:0:0:
86,16,197438,1,8,1:0:0:0:
17,53,197668,1,0,1:0:0:0:
33,86,197784,1,0,1:0:0:0:
48,119,197899,1,4,1:2:0:0:
13,186,198130,1,2,0:0:0:0:
119,134,198361,1,8,1:0:0:0:
114,154,198476,1,0,0:0:0:0:
109,174,198591,1,0,1:0:0:0:
104,194,198707,1,0,0:0:0:0:
99,214,198822,1,4,1:2:0:0:
483,50,199284,5,8,1:0:0:0:
408,27,199515,1,4,1:0:0:0:
257,377,199861,5,8,1:0:0:0:
252,366,199976,2,0,L|260:298,1,52.5000020027161,4|0,1:2|0:0,0:0:0:0:
298,253,200207,1,8,1:0:0:0:
290,233,200322,1,0,0:0:0:0:
282,213,200438,1,4,1:3:0:0:
274,193,200553,1,0,0:0:0:0:
297,164,200668,6,0,P|242:220|151:217,1,157.500006008148,4|0,1:0|0:0,0:0:0:0:
239,109,201130,2,0,P|256:78|288:62,1,52.5000020027161,8|0,1:0|0:0,0:0:0:0:
312,6,201361,1,0,1:0:0:0:
348,3,201476,1,0,1:0:0:0:
377,24,201591,1,4,1:2:0:0:
395,96,201822,1,2,0:0:0:0:
202,50,202053,5,8,1:0:0:0:
186,35,202168,1,0,0:0:0:0:
165,29,202284,1,0,1:0:0:0:
144,31,202399,1,0,0:0:0:0:
126,43,202515,1,4,1:2:0:0:
27,236,202745,1,2,1:2:0:0:
218,335,202976,1,8,1:0:0:0:
318,141,203207,1,4,1:0:0:0:
191,203,203668,5,4,1:2:0:0:
390,258,203899,1,8,1:0:0:0:
326,59,204130,1,4,1:2:0:0:
257,377,204361,5,4,1:0:0:0:
425,28,204822,1,8,1:0:0:0:
490,64,205052,1,0,1:0:0:0:
475,98,205168,1,0,1:0:0:0:
461,131,205283,1,4,1:2:0:0:
506,189,205514,1,2,0:0:0:0:
385,147,205745,1,8,1:0:0:0:
390,167,205860,1,0,0:0:0:0:
395,187,205975,1,0,1:0:0:0:
400,207,206091,1,0,0:0:0:0:
405,227,206206,1,4,1:2:0:0:
445,245,206322,1,0,1:0:0:0:
430,290,206438,5,0,1:0:0:0:
242,365,206668,5,8,1:0:0:0:
54,245,206899,5,4,1:0:0:0:
39,200,207015,1,0,1:0:0:0:
79,182,207130,1,8,1:0:0:0:
96,192,207245,1,0,1:0:0:0:
105,173,207361,1,4,1:2:0:0:
85,130,207476,1,0,1:0:0:0:
93,104,207591,6,0,L|85:168,1,52.5000020027161,8|0,1:0|0:0,0:0:0:0:
262,96,207822,2,0,L|256:44,1,52.5000020027161,4|0,1:2|0:0,0:0:0:0:
80,77,208053,6,0,L|68:245,1,157.500006008148,4|0,1:0|0:0,0:0:0:0:
159,104,208515,2,0,P|171:84|174:35,1,52.5000020027161,8|0,1:0|0:0,0:0:0:0:
126,0,208745,1,0,1:0:0:0:
104,0,208861,1,0,1:0:0:0:
84,7,208976,1,4,1:2:0:0:
30,58,209207,1,2,0:0:0:0:
242,227,209438,1,8,1:0:0:0:
368,120,209668,1,0,1:0:0:0:
379,102,209784,1,4,1:3:0:0:
366,71,209899,5,4,1:2:0:0:
373,123,210015,1,4,1:3:0:0:
380,174,210130,1,2,1:0:0:0:
387,225,210245,1,4,1:3:0:0:
403,186,210361,5,8,1:0:0:0:
357,208,210476,1,4,1:3:0:0:
371,258,210591,1,4,1:3:0:0:
416,235,210707,1,4,1:3:0:0:
387,225,210822,5,6,1:2:0:0:
157,342,211053,5,12,1:0:0:0:
7,180,211284,5,6,1:2:0:0:
255,0,211745,5,4,1:0:0:0:
255,0,214976,5,12,1:0:0:0:
255,0,215322,1,0,1:0:0:0:
255,0,215438,2,0,L|265:64,1,52.5000020027161,4|0,1:0|0:0,0:0:0:0:
322,105,215668,2,0,L|332:169,1,52.5000020027161,0|0,1:0|0:0,0:0:0:0:
398,194,215899,5,8,1:0:0:0:
393,219,216015,1,0,1:0:0:0:
388,244,216130,1,2,0:0:0:0:
383,269,216245,1,2,0:0:0:0:
378,294,216361,1,0,1:0:0:0:
397,368,216591,1,0,1:0:0:0:
194,147,216822,5,8,1:0:0:0:
199,172,216938,1,0,1:0:0:0:
204,197,217053,1,2,0:0:0:0:
209,222,217168,1,0,1:0:0:0:
214,247,217284,1,0,1:0:0:0:
409,20,217515,5,2,0:0:0:0:
422,58,217631,1,2,0:0:0:0:
379,69,217745,5,8,1:0:0:0:
374,94,217861,1,0,0:0:0:0:
369,119,217976,1,2,0:0:0:0:
364,144,218091,1,2,0:0:0:0:
359,169,218207,1,0,1:0:0:0:
310,227,218438,1,0,1:0:0:0:
153,1,218668,5,8,1:0:0:0:
146,26,218784,1,2,0:0:0:0:
139,51,218899,1,2,0:0:0:0:
159,87,219015,1,0,1:0:0:0:
128,111,219130,6,0,B|103:103|103:103|75:119,1,52.5000020027161,2|0,1:0|0:0,0:0:0:0:
68,195,219361,2,0,B|93:187|93:187|115:200,1,52.5000020027161,2|0,1:0|0:0,0:0:0:0:
187,190,219591,1,2,1:0:0:0:
197,213,219707,2,0,L|182:269,1,52.5000020027161,0|0,1:0|0:0,0:0:0:0:
491,258,220053,1,0,1:0:0:0:
471,333,220284,1,0,1:0:0:0:
344,147,220515,5,8,1:0:0:0:
349,172,220631,1,0,1:0:0:0:
354,197,220746,1,2,0:0:0:0:
359,222,220861,1,0,1:0:0:0:
364,247,220977,1,0,1:0:0:0:
248,1,221207,5,0,1:0:0:0:
261,39,221323,1,2,0:0:0:0:
218,50,221437,5,8,1:0:0:0:
213,75,221553,1,8,1:0:0:0:
208,100,221668,1,2,0:0:0:0:
203,125,221783,1,2,0:0:0:0:
198,150,221899,1,8,1:0:0:0:
384,352,222130,5,8,1:0:0:0:
354,308,222245,1,8,1:0:0:0:
309,279,222361,1,8,1:3:0:0:
256,277,222476,1,8,1:3:0:0:
203,279,222591,1,4,1:3:0:0:
158,308,222707,1,4,1:3:0:0:
128,352,222822,1,4,1:0:0:0:
256,196,223053,5,0,1:0:0:0:
266,172,223168,1,0,0:0:0:0:
276,147,223284,1,8,1:0:0:0:
287,123,223399,1,0,1:0:0:0:
298,99,223515,1,2,0:0:0:0:
289,74,223630,1,2,0:0:0:0:
328,66,223745,1,0,1:0:0:0:
380,118,223976,1,0,1:0:0:0:
392,141,224091,1,0,0:0:0:0:
412,124,224207,1,8,1:0:0:0:
427,145,224322,1,0,1:0:0:0:
448,130,224438,1,2,0:0:0:0:
473,177,224553,1,0,1:0:0:0:
442,222,224668,1,0,1:0:0:0:
391,283,224899,5,2,0:0:0:0:
366,272,225015,1,2,0:0:0:0:
339,270,225130,1,8,1:0:0:0:
315,280,225245,1,0,0:0:0:0:
289,287,225361,1,2,0:0:0:0:
265,240,225476,1,2,0:0:0:0:
212,242,225591,1,0,1:0:0:0:
171,309,225822,1,0,1:0:0:0:
126,247,226053,1,8,1:0:0:0:
75,262,226168,1,2,0:0:0:0:
24,277,226284,1,2,0:0:0:0:
13,263,226399,1,0,1:0:0:0:
18,227,226515,6,0,B|26:198|26:198|16:166,1,52.5000020027161,2|0,1:0|0:0,0:0:0:0:
58,111,226745,2,0,L|47:48,1,52.5000020027161,2|0,1:0|0:0,0:0:0:0:
110,9,226976,1,2,1:0:0:0:
110,9,227091,2,0,B|138:2|138:2|162:19,1,52.5000020027161,0|0,1:0|0:0,0:0:0:0:
255,291,227438,1,0,1:0:0:0:
329,264,227668,1,0,1:0:0:0:
474,126,227899,5,8,1:0:0:0:
448,119,228015,1,0,1:0:0:0:
422,112,228130,1,2,0:0:0:0:
396,105,228245,1,0,1:0:0:0:
370,98,228361,2,0,L|309:117,4,52.5000020027161,4|0|0|0|0,1:3|0:0|0:0|0:0|0:0,0:0:0:0:
180,384,229053,5,4,1:3:0:0:
139,373,229168,1,4,1:3:0:0:
98,363,229284,1,8,1:3:0:0:
57,355,229399,1,8,1:3:0:0:
16,346,229515,1,8,1:0:0:0:
256,296,229861,1,8,1:0:0:0:
496,346,230207,1,4,1:0:0:0:
64,108,230553,5,0,1:0:0:0:
78,86,230668,1,8,1:0:0:0:
20,37,230899,1,0,0:0:0:0:
34,15,231014,1,0,1:0:0:0:
20,37,231130,1,0,1:0:0:0:
156,36,231361,1,4,1:2:0:0:
130,160,231591,1,8,1:0:0:0:
6,134,231822,1,2,0:0:0:0:
257,370,232053,5,4,1:2:0:0:
439,46,232515,1,8,1:0:0:0:
439,46,232861,1,0,1:0:0:0:
439,46,232976,1,0,1:0:0:0:
469,113,233207,1,4,1:2:0:0:
496,181,233438,1,8,1:0:0:0:
256,102,233668,1,2,0:0:0:0:
42,270,233899,6,0,L|61:376,1,105.000004005432,4|0,1:0|0:0,0:0:0:0:
261,30,234361,1,8,1:0:0:0:
261,30,234707,1,0,1:0:0:0:
261,30,234822,1,0,1:0:0:0:
219,93,235053,1,4,1:2:0:0:
157,51,235284,1,8,1:0:0:0:
166,38,235515,1,2,0:0:0:0:
256,375,235745,5,4,1:2:0:0:
452,266,236207,1,8,1:0:0:0:
444,240,236322,1,8,1:0:0:0:
357,176,236553,1,0,1:0:0:0:
371,138,236668,1,8,1:0:0:0:
383,99,236783,1,0,0:0:0:0:
395,59,236899,1,4,1:3:0:0:
297,25,237130,6,0,B|262:57|262:57|268:175,1,157.500006008148,12|0,1:0|0:0,0:0:0:0:
380,85,237591,6,0,P|431:62|465:15,1,105.000004005432,6|0,1:0|0:0,0:0:0:0:
96,44,238053,2,0,P|142:110|146:217,1,157.500006008148,12|0,1:2|1:0,0:0:0:0:
33,96,238515,2,0,P|13:61|20:-10,1,105.000004005432,2|2,1:0|1:0,0:0:0:0:
254,170,238976,2,2,P|259:221|237:268,1,105.000004005432,12|2,1:2|0:1,1:1:0:0:
41,343,239438,5,4,1:0:0:0:
126,317,239668,1,0,0:0:0:0:
102,229,239899,1,8,1:2:0:0:
14,255,240130,1,0,0:0:0:0:
14,255,240245,1,0,1:0:0:0:
14,255,240361,5,0,1:0:0:0:
255,373,240591,1,0,1:0:0:0:
255,373,240707,1,0,0:0:0:0:
255,373,240822,1,12,1:2:0:0:
498,255,241053,1,12,1:2:0:0:
435,187,241284,6,0,P|457:144|451:69,1,105.000004005432,6|0,1:0|0:0,0:0:0:0:
222,83,241745,2,0,P|286:91|377:46,1,157.500006008148,12|0,1:2|1:0,0:0:0:0:
216,171,242207,2,0,P|215:223|238:269,1,105.000004005432,2|2,1:0|1:0,0:0:0:0:
143,33,242668,2,2,P|84:48|56:92,1,105.000004005432,12|2,1:2|0:1,1:1:0:0:
123,173,243130,5,4,1:0:0:0:
190,327,243361,1,0,0:0:0:0:
17,278,243591,1,8,1:0:0:0:
43,275,243707,1,8,1:0:0:0:
69,272,243822,1,4,1:3:0:0:
95,269,243938,1,4,1:3:0:0:
119,228,244053,5,8,1:0:0:0:
158,232,244169,1,8,1:0:0:0:
197,237,244284,1,4,1:3:0:0:
236,241,244400,1,4,1:3:0:0:
257,291,244515,5,12,1:0:0:0:
410,145,244745,1,4,1:2:0:0:
253,12,244976,1,4,1:0:0:0:
28,324,245322,5,0,1:0:0:0:
38,348,245438,1,8,1:0:0:0:
92,274,245668,1,0,0:0:0:0:
102,298,245784,1,0,1:0:0:0:
92,274,245899,1,0,1:0:0:0:
170,346,246130,1,4,1:2:0:0:
218,240,246361,1,8,1:0:0:0:
134,167,246591,1,2,0:0:0:0:
256,8,246822,5,4,1:2:0:0:
474,348,247284,1,8,1:0:0:0:
474,348,247630,1,0,1:0:0:0:
474,348,247745,1,0,1:0:0:0:
381,327,247976,1,4,1:2:0:0:
402,234,248207,1,8,1:0:0:0:
495,255,248438,1,2,0:0:0:0:
256,8,248668,5,4,1:0:0:0:
38,348,249130,1,8,1:0:0:0:
38,348,249476,1,0,1:0:0:0:
38,348,249591,1,4,1:2:0:0:
126,322,249822,1,4,1:2:0:0:
17,244,250053,1,8,1:0:0:0:
259,9,250399,5,0,1:0:0:0:
273,30,250515,1,4,1:2:0:0:
257,106,250976,5,12,1:0:0:0:
278,181,251207,1,8,1:0:0:0:
264,258,251438,5,8,1:0:0:0:
241,210,251553,1,4,1:3:0:0:
247,158,251668,1,8,1:3:0:0:
270,110,251783,1,8,1:0:0:0:
264,58,251899,1,12,1:0:0:0:
251,75,252015,1,0,1:0:0:0:
244,94,252130,1,8,1:3:0:0:
240,114,252245,1,4,1:3:0:0:
247,158,252361,6,0,P|272:218|273:279,1,105.000004005432,6|0,1:0|0:0,0:0:0:0:
143,208,252822,2,0,P|125:171|136:49,1,157.500006008148,12|0,1:2|1:0,0:0:0:0:
101,279,253284,2,0,P|32:270|-6:238,1,105.000004005432,2|2,1:0|1:0,0:0:0:0:
22,43,253745,2,2,P|91:52|129:84,1,105.000004005432,12|2,1:2|0:1,1:1:0:0:
162,141,254207,5,4,1:0:0:0:
313,47,254438,1,8,1:0:0:0:
407,198,254668,1,12,1:2:0:0:
256,292,254899,1,0,0:0:0:0:
261,116,255130,5,0,1:0:0:0:
312,126,255245,1,0,1:0:0:0:
363,137,255361,1,0,1:0:0:0:
414,147,255476,1,0,1:0:0:0:
464,158,255591,1,12,1:2:0:0:
19,336,256053,5,6,1:0:0:0:
19,346,256168,1,0,0:0:0:0:
19,356,256284,1,0,0:0:0:0:
19,366,256399,1,0,0:0:0:0:
19,376,256515,1,8,1:2:0:0:
91,362,256745,1,0,1:0:0:0:
12,315,256976,5,2,1:0:0:0:
16,328,257091,1,0,0:0:0:0:
14,343,257207,1,2,1:0:0:0:
19,356,257322,1,0,0:0:0:0:
16,370,257437,1,8,1:2:0:0:
91,362,257668,1,2,1:1:0:0:
471,373,257899,6,0,L|484:309,1,52.5000020027161,4|0,1:2|0:0,0:0:0:0:
439,259,258130,2,0,L|452:195,1,52.5000020027161,4|0,1:2|0:0,0:0:0:0:
39,176,258476,2,0,L|20:47,1,105.000004005432,8|0,1:0|0:0,0:0:0:0:
11,67,258822,6,2,P|75:63|141:161,1,157.500006008148,0|0,0:0|0:0,1:1:0:0:
201,296,259284,6,0,B|267:283|267:283|309:221|309:221|389:207,1,210,12|0,1:0|0:0,0:0:0:0:
505,192,259745,5,4,1:0:0:0:
41,31,260207,1,8,1:0:0:0:
128,63,260438,1,0,1:0:0:0:
115,113,260553,1,0,1:0:0:0:
102,163,260668,1,4,1:2:0:0:
158,233,260899,1,2,0:0:0:0:
49,337,261130,1,8,1:0:0:0:
40,296,261245,1,0,0:0:0:0:
31,254,261361,1,0,1:0:0:0:
22,212,261476,1,0,0:0:0:0:
11,171,261591,1,4,1:2:0:0:
434,104,262053,5,8,1:0:0:0:
501,171,262284,1,4,1:0:0:0:
503,129,262399,1,4,1:3:0:0:
505,86,262515,1,0,1:0:0:0:
416,201,262745,1,4,1:2:0:0:
509,1,262976,1,8,1:0:0:0:
507,44,263092,1,0,1:0:0:0:
505,86,263207,1,4,1:3:0:0:
503,129,263322,1,0,1:0:0:0:
501,171,263437,5,4,1:0:0:0:
41,353,263899,1,8,1:0:0:0:
117,309,264130,1,0,1:0:0:0:
105,258,264245,1,0,1:0:0:0:
93,206,264360,1,4,1:2:0:0:
169,156,264591,1,2,0:0:0:0:
49,47,264822,5,8,1:0:0:0:
40,88,264937,1,0,0:0:0:0:
31,130,265053,1,0,1:0:0:0:
22,172,265168,1,0,0:0:0:0:
11,213,265283,1,4,1:2:0:0:
197,288,265515,1,2,1:2:0:0:
272,102,265745,1,8,1:0:0:0:
86,27,265976,1,4,1:0:0:0:
321,205,266438,5,4,1:2:0:0:
361,195,266553,1,0,0:0:0:0:
401,185,266668,1,8,1:0:0:0:
442,175,266784,1,0,0:0:0:0:
482,165,266899,1,4,1:2:0:0:
255,383,267130,5,4,1:0:0:0:
29,32,267591,1,8,1:0:0:0:
108,93,267822,1,0,1:0:0:0:
68,127,267938,1,0,1:0:0:0:
29,162,268053,1,4,1:2:0:0:
158,178,268284,1,2,0:0:0:0:
117,47,268515,1,8,1:0:0:0:
157,56,268630,1,0,0:0:0:0:
197,66,268745,1,0,1:0:0:0:
237,76,268861,1,0,0:0:0:0:
276,89,268976,1,4,1:2:0:0:
42,332,269438,5,8,1:0:0:0:
125,299,269668,1,4,1:0:0:0:
263,12,270130,5,4,1:2:0:0:
402,66,270361,1,8,1:0:0:0:
263,12,270591,1,4,1:2:0:0:
255,383,270822,5,4,1:0:0:0:
483,32,271284,1,8,1:0:0:0:
331,146,271515,1,0,1:0:0:0:
382,137,271630,1,0,1:0:0:0:
433,127,271745,1,4,1:2:0:0:
509,110,271976,1,2,0:0:0:0:
243,165,272207,1,8,1:0:0:0:
246,144,272322,1,0,0:0:0:0:
251,123,272438,1,0,1:0:0:0:
255,103,272553,1,0,0:0:0:0:
261,82,272668,1,4,1:2:0:0:
212,194,272899,5,8,1:0:0:0:
254,194,273015,1,4,1:3:0:0:
291,211,273130,1,8,1:0:0:0:
315,244,273245,1,4,0:3:0:0:
326,284,273361,1,8,1:3:0:0:
358,310,273476,1,8,1:0:0:0:
394,288,273591,5,8,1:0:0:0:
341,279,273707,1,4,1:3:0:0:
290,290,273822,1,8,1:0:0:0:
240,309,273938,1,4,1:3:0:0:
189,323,274053,2,0,B|163:313|163:313|130:320,1,52.5000020027161,4|8,1:0|1:3,1:1:0:0:
33,374,274284,2,0,B|59:384|59:384|92:377,1,52.5000020027161,4|4,1:2|1:3,1:1:0:0:
257,195,274515,6,0,B|293:125|293:125|255:49,1,157.500006008148,4|0,1:0|1:0,0:0:0:0:
185,217,274976,2,0,L|227:286,1,52.5000020027161,8|0,1:0|0:0,0:0:0:0:
402,157,275207,1,0,1:0:0:0:
374,112,275322,1,0,1:0:0:0:
346,67,275438,1,4,1:2:0:0:
209,45,275668,1,2,0:0:0:0:
270,243,275899,1,8,1:0:0:0:
314,214,276015,1,0,0:0:0:0:
358,185,276130,1,0,1:0:0:0:
402,157,276245,1,0,0:0:0:0:
446,128,276361,1,4,1:2:0:0:
52,34,276822,5,8,1:0:0:0:
69,129,277053,1,4,1:0:0:0:
418,226,277515,5,4,1:2:0:0:
391,353,277745,1,8,1:0:0:0:
418,226,277976,1,4,1:3:0:0:
13,192,278207,6,0,B|70:169|70:169|153:222,1,157.500006008148,4|0,1:0|0:0,0:0:0:0:
0,271,278668,2,0,L|14:332,1,52.5000020027161,8|0,1:0|0:0,0:0:0:0:
207,375,278899,1,0,1:0:0:0:
215,322,279015,1,0,1:0:0:0:
222,270,279130,1,4,1:2:0:0:
307,189,279361,1,2,0:0:0:0:
201,26,279591,5,8,1:0:0:0:
88,128,279822,1,0,1:0:0:0:
214,197,280053,1,4,1:2:0:0:
205,145,280168,1,0,1:0:0:0:
219,94,280284,1,0,1:0:0:0:
263,66,280399,1,0,1:0:0:0:
315,72,280515,1,4,1:3:0:0:
362,94,280630,1,4,1:3:0:0:
412,106,280745,1,12,1:0:0:0:
464,101,280861,1,0,1:0:0:0:
503,66,280976,1,4,1:3:0:0:
490,15,281091,1,4,1:3:0:0:
437,7,281207,5,8,1:0:0:0:
257,160,281438,1,8,1:0:0:0:
77,313,281668,1,4,1:0:0:0:
77,313,281899,6,0,L|61:326,6,17.5,4|2|2|2|2|2|2,1:0|0:0|0:0|0:0|0:0|0:0|0:0,0:0:0:0:
51,239,282361,5,8,1:0:0:0:
196,316,282591,1,0,1:0:0:0:
208,264,282707,1,0,1:0:0:0:
220,213,282822,1,4,1:2:0:0:
325,158,283053,1,2,0:0:0:0:
90,146,283284,1,8,1:0:0:0:
141,136,283399,1,0,0:0:0:0:
192,126,283515,1,0,1:0:0:0:
244,120,283630,1,0,0:0:0:0:
296,115,283745,1,4,1:2:0:0:
490,369,284207,5,8,1:0:0:0:
401,357,284438,1,4,1:0:0:0:
22,15,284899,5,4,1:2:0:0:
158,33,285130,1,8,1:0:0:0:
22,15,285361,1,4,1:2:0:0:
261,351,285591,5,4,1:0:0:0:
261,351,285822,1,8,1:0:0:0:
245,300,285938,1,8,1:0:0:0:
250,248,286053,1,8,1:0:0:0:
266,197,286168,1,4,1:3:0:0:
261,145,286284,1,12,1:3:0:0:
146,255,286515,5,4,1:2:0:0:
370,270,286745,1,2,1:0:0:0:
277,14,286976,5,8,1:0:0:0:
256,192,287207,5,4,1:3:0:0:
235,368,287438,6,0,L|179:360,1,43.75,6|0,1:0|0:0,0:0:0:0:
123,377,287668,6,0,L|68:367,1,35,10|0,1:0|0:0,0:0:0:0:
19,384,287899,5,4,1:2:0:0:
