osu file format v14

[General]
AudioFilename: audio.mp3
AudioLeadIn: 0
PreviewTime: 75933
Countdown: 0
SampleSet: Soft
StackLeniency: 0.7
Mode: 0
LetterboxInBreaks: 0
WidescreenStoryboard: 0

[Editor]
DistanceSpacing: 1.5
BeatDivisor: 4
GridSize: 4
TimelineZoom: 2.1

[Metadata]
Title:Shapeshifter (feat. Styles of Beyond)
TitleUnicode:Shapeshifter (feat. Styles of Beyond)
Artist:Celldweller
ArtistUnicode:Celldweller
Creator:PandaHero
Version:Expert
Source:Need for Speed: Most Wanted
Tags:frey neko ds nfs mw nfsmw 2005 klayton 10 years anniversary deluxe edition death race 2 english rock nu industrial metal video game soundtrack ost fa featured artist
BeatmapID:2350464
BeatmapSetID:1124906

[Difficulty]
HPDrainRate:6
CircleSize:4
OverallDifficulty:8.5
ApproachRate:9.3
SliderMultiplier:2.2
SliderTickRate:1

[Events]
//Background and Video events
0,0,"street-922971_1920.jpg",0,0
//Break Periods
//Storyboard Layer 0 (Background)
//Storyboard Layer 1 (Fail)
//Storyboard Layer 2 (Pass)
//Storyboard Layer 3 (Foreground)
//Storyboard Layer 4 (Overlay)
//Storyboard Sound Samples

[TimingPoints]
2097,517.241379310345,4,2,0,65,1,0
2097,-200,4,2,0,65,0,0
10372,-125,4,2,0,65,0,0
17614,-200,4,1,1,65,0,0
18131,-62.5,4,1,0,65,0,0
18648,-83.3333333333333,4,1,1,80,0,0
33131,-83.3333333333333,4,2,0,70,0,0
35200,-99.9999999999999,4,2,1,70,0,0
47097,-500,4,2,1,75,0,0
47614,-100,4,2,1,75,0,0
50200,-333.333333333333,4,2,1,75,0,0
50717,-333.333333333333,4,1,1,75,0,0
51493,-333.333333333333,4,2,1,75,0,0
51752,-100,4,2,1,75,0,0
68303,-200,4,2,0,65,0,0
76062,-62.5,4,2,1,70,0,0
76579,-83.3333333333333,4,1,1,80,0,0
91062,-83.3333333333333,4,1,1,70,0,0
93131,-125,4,2,0,55,0,0
95200,-125,4,2,0,60,0,0
97269,-125,4,2,0,65,0,0
98433,-125,4,2,0,65,0,0
99855,-125,4,2,0,60,0,0
100243,-125,4,2,0,55,0,0
100631,-125,4,2,0,50,0,0
101019,-125,4,2,0,40,0,0
101278,-125,4,2,0,60,0,0
101407,-100,4,2,1,70,0,0
117183,-100,4,1,1,70,0,0
117571,-100,4,2,1,70,0,0
117959,-100,4,2,1,75,0,0
126234,-200,4,2,0,65,0,0
133476,-500,4,3,0,65,0,0
134510,-83.3333333333333,4,1,1,80,0,0
148993,-125,4,1,1,70,0,0
151062,-125,4,2,0,65,0,0
155200,-125,4,2,0,50,0,0
155329,-125,4,2,0,30,0,0
156234,-125,4,2,0,35,0,0
156752,-125,4,2,0,40,0,0
157269,-125,4,2,0,45,0,0
157786,-125,4,2,0,45,0,0
158303,-333.333333333333,4,2,1,50,0,0
159338,-71.4285714285714,4,2,1,75,0,0
165545,-125,4,2,0,70,0,0
166321,-125,4,2,1,70,0,0
166967,-125,4,2,0,70,0,0
167614,-71.4285714285714,4,2,1,75,0,0
173821,-200,4,2,1,65,0,0
175890,-76.9230769230769,4,1,1,85,0,0
190372,-100,4,1,1,70,0,0
191924,-100,4,1,1,75,0,0
192441,-76.9230769230769,4,1,1,85,0,0
206924,-100,4,1,1,75,0,0
207183,-76.9230769230769,4,2,1,25,0,0
213131,-76.9230769230769,4,2,1,5,0,0

[Colours]
Combo1 : 126,75,77
Combo2 : 117,119,83
Combo3 : 79,123,114
Combo4 : 109,77,125

[HitObjects]
183,204,2097,5,0,1:0:0:0:
112,237,2614,1,8,0:2:0:0:
183,215,3390,1,0,1:0:0:0:
104,213,3648,1,8,0:0:0:0:
296,326,4165,5,0,1:0:0:0:
365,282,4424,1,2,3:0:0:0:
365,282,4553,1,0,1:0:0:0:
365,282,4683,1,8,0:0:0:0:
429,323,4941,1,0,3:0:0:0:
429,323,5459,1,2,3:0:0:0:
365,282,5717,1,8,0:0:0:0:
459,299,5976,1,0,1:0:0:0:
305,204,6234,5,0,1:0:0:0:
305,204,6364,1,0,3:0:0:0:
192,148,6622,1,0,3:0:0:0:
200,159,6752,1,8,0:0:0:0:
207,170,6881,1,0,3:0:0:0:
307,67,7140,1,0,3:0:0:0:
305,80,7269,1,0,0:0:0:0:
303,93,7398,1,0,0:0:0:0:
300,106,7528,1,0,1:0:0:0:
161,77,7786,1,8,0:0:0:0:
225,11,8045,1,0,3:0:0:0:
190,89,8303,5,0,0:0:0:0:
188,98,8821,1,0,3:0:0:0:
183,106,9338,1,0,0:0:0:0:
114,283,9597,5,2,3:0:0:0:
110,200,9855,1,8,0:0:0:0:
189,250,10114,5,0,1:0:0:0:
189,250,10243,1,0,0:0:0:0:
189,250,10372,1,4,1:0:0:0:
111,347,10631,2,0,P|92:297|60:241,2,88,0|8|2,1:0|0:0|0:0,0:0:0:0:
368,280,11407,1,0,0:0:0:0:
325,270,11536,1,0,3:0:0:0:
281,261,11665,1,0,1:0:0:0:
481,225,11924,1,8,0:0:0:0:
324,363,12183,1,0,1:0:0:0:
237,204,12441,6,0,B|212:146|212:146|244:78,1,132,0|0,1:0|0:0,0:0:0:0:
274,19,12959,2,0,L|283:115,1,88,8|2,0:0|0:0,0:0:0:0:
98,170,13476,1,2,0:0:0:0:
98,170,13605,1,8,0:0:0:0:
43,112,13734,1,0,1:0:0:0:
116,88,13864,1,0,3:0:0:0:
98,170,13993,2,0,L|128:232,1,44,8|0,0:0|0:0,0:0:0:0:
116,88,14252,2,0,L|146:45,1,44,0|0,1:0|0:0,0:0:0:0:
29,250,14510,6,0,B|61:306|61:306|21:408,1,132,0|0,1:0|1:0,0:0:0:0:
36,368,15028,1,8,0:0:0:0:
138,313,15286,2,0,L|146:290,4,22,0|0|0|0|8,1:0|0:0|0:0|0:0|0:0,0:0:0:0:
336,207,15803,1,2,0:0:0:0:
259,190,15932,1,0,0:0:0:0:
286,264,16062,2,0,L|289:298,2,22,0|2|2,1:0|3:0|3:0,0:0:0:0:
231,358,16321,2,0,L|228:324,2,22,0|2|2,1:0|3:0|3:0,0:0:0:0:
392,359,16579,1,2,3:0:0:0:
337,158,16838,6,0,L|327:189,2,22,2|0|0,0:0|0:0|0:0,0:0:0:0:
483,202,17097,1,0,1:0:0:0:
398,32,17355,6,0,L|408:63,2,22,2|0|0,0:0|0:0|0:0,0:0:0:0:
229,93,17614,2,2,L|141:103,1,82.5,0|0,1:0|2:0,0:0:0:0:
56,49,18131,6,2,L|326:67,1,264,2|0,1:0|2:0,0:1:0:0:
169,182,18648,5,4,0:0:0:0:
169,182,18778,2,0,L|14:182,1,131.99999597168,4|0,0:2|0:0,0:0:0:0:
236,315,19165,1,8,0:0:0:0:
236,315,19424,1,4,0:2:0:0:
145,276,19553,1,0,0:0:0:0:
106,367,19683,1,0,0:2:0:0:
322,195,19941,2,0,L|332:112,1,65.9999979858399,4|0,0:2|2:0,0:0:0:0:
451,247,20200,1,8,0:0:0:0:
296,31,20459,1,0,0:0:0:0:
298,241,20717,5,4,0:0:0:0:
298,241,20847,2,0,L|291:392,1,131.99999597168,4|0,0:2|0:0,0:0:0:0:
484,178,21234,1,8,0:0:0:0:
484,178,21493,1,2,0:3:0:0:
466,280,21622,1,0,0:0:0:0:
355,129,21752,1,2,0:3:0:0:
286,210,21881,1,8,0:2:0:0:
383,230,22010,2,0,L|383:143,1,65.9999979858399,8|0,0:2|2:0,0:0:0:0:
388,29,22269,5,12,0:0:0:0:
119,150,22528,5,0,0:0:0:0:
342,335,22786,5,6,0:0:0:0:
342,335,22915,2,0,L|245:346,1,65.9999979858399,2|0,0:0|2:0,0:0:0:0:
103,295,23174,5,2,0:0:0:0:
103,295,23303,1,10,0:0:0:0:
103,295,23433,2,0,L|191:280,1,65.9999979858399,2|0,0:0|2:0,0:0:0:0:
333,164,23691,5,2,0:0:0:0:
333,164,23821,1,2,0:0:0:0:
333,164,23950,1,2,0:0:0:0:
231,131,24079,1,4,0:2:0:0:
326,79,24209,1,0,0:0:0:0:
221,157,24338,2,0,L|231:253,1,65.9999979858399,8|0,0:0|2:0,0:0:0:0:
348,65,24597,2,0,L|341:-20,1,65.9999979858399,4|0,0:2|2:0,0:0:0:0:
459,150,24855,6,2,P|451:216|446:353,1,197.99999395752,4|0,0:0|2:0,0:0:0:0:
364,105,25372,2,2,P|356:177|352:269,1,131.99999597168,8|2,0:0|0:3,0:0:0:0:
261,361,25760,1,0,0:0:0:0:
261,361,25825,1,0,0:0:0:0:
261,361,25890,2,0,L|255:271,1,65.9999979858399,2|0,0:3|0:0,0:0:0:0:
228,47,26148,5,8,0:2:0:0:
127,229,26278,1,8,0:2:0:0:
142,74,26407,5,8,0:0:0:0:
198,178,26536,1,8,0:2:0:0:
47,28,26665,5,8,0:2:0:0:
308,146,26795,1,8,0:2:0:0:
25,243,26924,5,4,0:0:0:0:
25,243,27053,2,0,P|93:248|188:264,1,131.99999597168,4|0,0:2|2:0,0:0:0:0:
267,351,27441,2,0,L|185:362,1,65.9999979858399,8|0,0:0|2:0,0:0:0:0:
399,194,27700,1,2,0:3:0:0:
334,269,27829,1,0,0:0:0:0:
432,281,27959,2,0,L|508:288,1,65.9999979858399,2|0,0:3|2:0,0:0:0:0:
296,113,28217,1,4,0:2:0:0:
204,202,28347,1,0,0:0:0:0:
157,84,28476,2,0,L|169:17,1,65.9999979858399,8|0,0:0|0:0,0:0:0:0:
58,128,28734,2,0,L|70:221,1,65.9999979858399,4|0,0:2|0:0,0:0:0:0:
234,354,28993,5,4,0:0:0:0:
234,354,29122,2,0,P|224:226|219:181,1,131.99999597168,4|0,0:2|2:0,0:0:0:0:
359,178,29510,1,8,0:0:0:0:
359,178,29640,2,0,L|352:325,1,131.99999597168,4|0,0:2|2:0,0:0:0:0:
211,24,30028,1,2,0:3:0:0:
59,148,30157,1,8,0:2:0:0:
162,183,30286,1,0,0:0:0:0:
135,91,30415,1,0,0:0:0:0:
106,256,30545,2,0,L|140:372,1,65.9999979858399,8|0,0:0|2:0,0:0:0:0:
283,130,30803,2,0,L|194:115,1,65.9999979858399,4|0,0:2|2:0,0:0:0:0:
396,227,31062,5,6,0:0:0:0:
396,227,31191,2,0,L|500:240,1,65.9999979858399,2|0,0:0|2:0,0:0:0:0:
308,296,31450,5,2,0:0:0:0:
308,296,31579,1,10,0:0:0:0:
308,296,31709,2,0,L|216:279,1,65.9999979858399,2|2,0:0|2:3,0:0:0:0:
308,89,31967,5,2,0:0:0:0:
308,89,32097,2,0,L|387:99,1,65.9999979858399,2|0,0:0|2:0,0:0:0:0:
188,48,32355,5,4,0:2:0:0:
127,126,32484,1,0,0:0:0:0:
34,90,32614,2,0,L|36:-1,1,65.9999979858399,8|0,0:0|2:0,0:0:0:0:
176,262,32872,2,0,L|186:170,1,65.9999979858399,4|0,0:2|2:0,0:0:0:0:
43,319,33131,5,4,1:3:0:0:
43,319,33260,1,4,1:3:0:0:
287,368,33519,1,2,0:3:0:0:
287,368,33648,1,8,1:0:0:0:
287,368,33778,1,2,1:2:0:0:
172,275,34036,5,8,0:2:0:0:
172,275,34165,1,2,1:3:0:0:
418,324,34424,1,4,0:3:0:0:
192,316,34683,6,2,L|421:307,1,197.99999395752,8|0,1:3|2:0,0:0:0:0:
454,224,35200,6,0,L|376:222,1,55,4|0,1:0|0:0,0:0:0:0:
364,151,35459,2,0,L|305:154,1,55,0|0,1:0|0:0,0:0:0:0:
231,158,35717,1,8,0:0:0:0:
231,158,35847,1,2,0:2:0:0:
231,158,35976,2,0,L|244:57,1,55,0|0,0:0|0:0,0:0:0:0:
326,16,36234,2,0,L|315:77,1,55,2|0,0:0|0:0,0:0:0:0:
154,115,36493,2,0,L|28:106,2,110,0|8|0,1:0|0:0|1:0,0:0:0:0:
301,137,37269,6,0,L|298:204,1,55,0|0,1:0|0:0,0:0:0:0:
239,245,37528,2,0,L|246:274,2,27.5,2|0|2,1:0|3:0|1:2,0:0:0:0:
326,310,37786,1,10,0:0:0:0:
259,342,37915,1,2,1:0:0:0:
323,348,38045,1,0,1:0:0:0:
287,362,38174,1,0,0:0:0:0:
308,383,38303,6,0,L|305:304,1,55,2|0,0:3|0:0,0:0:0:0:
361,276,38562,2,0,L|443:292,1,55,0|0,1:0|0:0,0:0:0:0:
272,137,38821,2,0,L|293:269,2,110,8|2|4,0:0|1:0|1:0,0:0:0:0:
465,26,39597,5,0,1:0:0:0:
465,26,39726,1,0,1:0:0:0:
465,26,39855,2,0,L|448:93,1,55,8|0,0:0|0:0,0:0:0:0:
388,128,40114,1,2,0:3:0:0:
388,128,40243,1,0,1:0:0:0:
388,128,40372,2,0,L|332:101,1,55,2|0,0:0|0:0,0:0:0:0:
257,76,40631,1,0,1:0:0:0:
326,15,40760,1,0,1:0:0:0:
181,123,40890,2,2,L|190:242,1,110,8|0,0:0|1:0,0:0:0:0:
54,357,41278,5,0,0:0:0:0:
54,357,41407,2,0,L|45:266,1,55,0|2,1:0|0:0,0:0:0:0:
80,381,41795,5,0,1:0:0:0:
80,381,41924,1,8,0:0:0:0:
80,381,42053,2,0,L|76:307,1,55,0|0,1:0|0:0,0:0:0:0:
166,229,42311,5,0,1:0:0:0:
166,229,42441,2,0,L|173:305,1,55,2|0,0:3|0:0,0:0:0:0:
338,364,42700,1,0,1:0:0:0:
248,347,42829,1,2,0:3:0:0:
334,331,42959,2,0,L|422:336,1,55,8|0,0:0|0:0,0:0:0:0:
486,270,43217,2,2,P|441:257|434:194,1,110,2|4,1:0|1:0,0:0:0:0:
260,38,43734,6,0,L|339:40,1,55,2|0,0:3|0:0,0:0:0:0:
365,100,43993,2,0,L|423:102,1,55,8|0,0:0|0:0,0:0:0:0:
261,139,44252,1,2,0:3:0:0:
261,139,44381,1,0,1:0:0:0:
261,139,44510,2,0,L|141:136,1,110,0|0,1:0|1:0,0:0:0:0:
85,177,44898,1,2,0:0:0:0:
85,177,45028,2,0,L|96:256,1,55,8|0,0:0|0:0,0:0:0:0:
198,300,45286,2,0,L|194:222,1,55,0|0,1:0|0:0,0:0:0:0:
26,333,45545,6,0,P|65:369|115:353,1,110,0|0,1:0|0:0,0:0:0:0:
377,267,45933,1,0,1:0:0:0:
377,267,46062,2,2,P|338:231|288:247,1,110,8|2,0:0|0:3,0:0:0:0:
225,324,46450,1,2,0:0:0:0:
225,324,46579,2,0,L|288:349,1,55,2|0,0:3|0:0,0:0:0:0:
168,197,46838,2,0,L|166:279,1,55,0|0,1:0|0:0,0:0:0:0:
236,132,47097,6,2,L|236:108,1,22,8|0,0:0|3:0,0:0:0:0:
489,281,47614,6,0,L|415:260,1,55,4|0,1:0|0:0,0:0:0:0:
338,208,47872,1,2,0:0:0:0:
423,170,48002,1,0,1:0:0:0:
253,260,48131,2,0,L|126:291,1,110,8|2,0:0|0:3,0:0:0:0:
49,315,48519,1,0,1:0:0:0:
49,315,48648,2,0,L|48:238,1,55,0|0,1:0|0:0,0:0:0:0:
102,53,48907,2,0,L|116:171,2,110,0|8|0,1:0|0:0|1:0,0:0:0:0:
257,164,49683,6,0,L|247:253,1,55,0|0,1:0|0:0,0:0:0:0:
198,360,49941,1,2,0:0:0:0:
152,285,50071,1,0,1:0:0:0:
323,302,50200,6,2,L|402:317,2,65.9999979858399,8|0|8,0:0|2:0|0:0,0:0:0:0:
243,250,51493,2,0,L|238:227,1,16.49999949646,0|8,1:0|0:0,0:0:0:0:
365,79,51752,6,0,L|360:165,1,55,4|0,1:0|0:0,0:0:0:0:
276,26,52010,2,0,L|279:100,1,55,0|0,1:0|1:0,0:0:0:0:
454,358,52269,2,0,L|460:209,1,110,8|2,0:0|0:3,0:0:0:0:
352,224,52657,1,0,1:0:0:0:
294,293,52786,1,2,0:3:0:0:
378,307,52915,1,0,0:0:0:0:
247,227,53045,2,0,L|169:243,1,55,4|0,1:3|0:0,0:0:0:0:
124,338,53303,2,0,L|55:326,1,55,8|0,0:0|0:0,0:0:0:0:
95,138,53562,2,0,L|180:148,1,55,4|0,1:3|0:0,0:0:0:0:
406,32,53821,6,0,B|358:58|358:58|289:45,1,110,2|2,1:0|0:3,0:0:0:0:
440,198,54209,1,2,1:0:0:0:
440,198,54338,2,0,B|441:143|441:143|487:90,1,110,8|2,0:0|0:3,0:0:0:0:
274,154,54726,1,0,1:0:0:0:
274,154,54855,2,0,L|320:204,1,55,2|0,0:3|0:0,0:0:0:0:
354,282,55114,2,0,L|336:357,1,55,4|0,1:3|0:0,0:0:0:0:
60,297,55372,2,2,L|239:284,1,165,8|0,0:0|0:0,0:1:0:0:
272,33,55890,6,0,L|196:27,1,55,4|0,1:0|0:0,0:0:0:0:
83,80,56148,2,0,L|147:86,1,55,0|0,1:0|1:0,0:0:0:0:
224,179,56407,2,0,L|216:103,2,55,8|0|2,0:0|0:0|0:3,0:0:0:0:
132,251,56795,1,0,1:0:0:0:
132,251,56924,2,0,L|126:176,1,55,2|0,0:0|0:0,0:0:0:0:
267,268,57183,1,4,1:3:0:0:
323,348,57312,1,0,0:0:0:0:
418,321,57441,2,0,L|502:304,1,55,8|0,0:0|0:0,0:0:0:0:
414,199,57700,2,0,L|344:216,1,55,4|0,1:3|0:0,0:0:0:0:
188,303,57959,5,0,1:0:0:0:
188,303,58088,1,2,1:0:0:0:
188,303,58217,2,0,L|195:231,1,55,2|2,0:3|1:0,0:0:0:0:
227,38,58476,1,8,0:0:0:0:
227,38,58605,1,2,0:0:0:0:
227,38,58734,2,0,L|213:117,1,55,0|4,1:0|0:3,0:0:0:0:
52,193,58993,1,0,0:0:0:0:
11,107,59122,1,2,0:0:0:0:
113,112,59252,6,2,B|208:108|208:108|232:130|232:130|343:124,1,220,4|0,0:0|1:0,0:0:0:0:
465,231,59898,5,2,1:0:0:0:
465,231,60028,2,0,L|384:239,1,55,4|0,1:0|0:0,0:0:0:0:
204,203,60286,1,2,0:3:0:0:
299,229,60415,1,0,1:0:0:0:
312,327,60545,2,0,L|303:414,1,55,8|0,0:0|0:0,0:0:0:0:
235,129,60803,5,2,0:3:0:0:
171,205,60933,1,0,1:0:0:0:
153,77,61062,2,0,L|147:7,1,55,2|0,0:3|0:0,0:0:0:0:
62,288,61321,5,4,1:3:0:0:
126,364,61451,1,2,0:0:0:0:
144,236,61580,2,0,L|150:166,1,55,8|0,0:0|0:0,0:0:0:0:
213,313,61838,2,0,L|225:236,1,55,4|0,1:3|0:0,0:0:0:0:
474,227,62097,6,2,B|421:255|421:255|339:217,1,110,2|0,1:0|0:0,0:0:0:0:
351,314,62484,1,2,1:0:0:0:
351,314,62614,2,0,L|372:399,1,55,8|0,0:0|0:0,0:0:0:0:
286,201,62872,2,0,L|296:130,1,55,2|0,0:3|0:0,0:0:0:0:
314,26,63131,1,2,1:3:0:0:
399,67,63260,1,0,0:0:0:0:
314,54,63390,1,4,1:3:0:0:
401,37,63519,1,0,1:0:0:0:
194,55,63648,2,0,L|133:70,1,55,8|0,0:0|0:0,0:0:0:0:
28,146,63907,2,0,L|110:152,1,55,2|0,1:3|0:0,0:0:0:0:
160,218,64165,5,4,1:0:0:0:
160,218,64295,2,2,B|126:268|126:268|152:368,1,110,2|0,1:0|0:0,0:0:0:0:
39,359,64683,1,8,0:0:0:0:
39,359,64812,2,0,L|31:277,2,55,2|2|0,0:0|0:3|1:0,0:0:0:0:
317,225,65200,1,0,1:0:0:0:
365,310,65329,1,2,0:0:0:0:
276,355,65459,1,4,1:3:0:0:
213,278,65588,1,2,0:0:0:0:
399,184,65717,2,0,L|491:197,1,55,8|0,0:0|0:0,0:0:0:0:
297,119,65976,1,4,1:3:0:0:
184,166,66105,1,0,1:0:0:0:
109,38,66234,6,0,L|83:123,1,55,0|2,1:0|0:0,0:0:0:0:
255,35,66493,1,2,0:3:0:0:
255,35,66622,1,4,1:3:0:0:
255,35,66751,2,0,L|175:62,1,55,8|0,0:0|0:0,0:0:0:0:
43,178,67010,1,2,0:3:0:0:
43,178,67140,1,2,0:0:0:0:
43,178,67269,2,0,L|52:301,2,110,2|4|8,0:3|1:3|0:0,0:0:0:0:
215,327,68045,2,2,B|254:358|254:358|341:342,1,110,2|0,0:0|1:0,0:0:0:0:
460,289,68562,5,2,0:0:0:0:
460,289,69079,1,0,1:0:0:0:
408,222,69338,1,0,3:0:0:0:
408,222,69467,1,0,1:0:0:0:
310,242,69597,5,0,1:0:0:0:
431,139,69855,1,8,0:0:0:0:
460,289,70114,1,0,1:0:0:0:
198,206,70372,5,0,1:0:0:0:
198,206,71148,1,2,0:0:0:0:
118,212,71407,2,0,L|106:255,1,27.5,0|0,3:0|0:0,0:0:0:0:
150,142,71665,1,0,1:0:0:0:
150,142,71795,1,0,3:0:0:0:
150,142,71924,2,0,L|149:92,1,27.5,8|0,0:0|0:0,0:0:0:0:
81,75,72183,2,0,L|85:35,1,27.5,0|0,1:0|0:0,0:0:0:0:
26,287,72441,5,0,1:0:0:0:
26,287,73217,2,0,L|43:289,4,13.75,2|0|0|0|8,0:0|0:0|0:0|0:0|0:0,0:0:0:0:
176,284,73734,1,2,0:0:0:0:
246,311,73864,1,0,3:0:0:0:
179,370,73993,2,0,L|179:349,2,13.75,0|0|0,1:0|0:0|0:0,0:0:0:0:
307,263,74252,2,0,L|307:242,2,13.75,2|0|0,0:0|0:0|0:0,0:0:0:0:
194,178,74510,5,2,0:3:0:0:
194,178,74769,2,0,L|194:155,4,13.75,0|0|0|0|0,3:0|0:0|0:0|0:0|1:0,0:0:0:0:
277,116,75286,2,0,L|276:91,4,13.75,2|0|0|0|0,0:0|0:0|0:0|0:0|1:0,0:0:0:0:
167,65,75674,6,0,L|103:76,1,55,2|0,0:0|0:0,0:0:0:0:
202,267,76062,6,0,L|224:182,1,88,2|0,1:0|0:0,0:0:0:0:
294,339,76321,6,0,L|381:329,1,88,2|0,1:0|0:0,0:0:0:0:
60,362,76579,5,4,0:0:0:0:
60,362,76709,2,0,P|65:286|65:205,1,131.99999597168,4|0,0:2|0:0,0:0:0:0:
129,20,77097,2,0,L|127:137,1,65.9999979858399,8|0,0:0|2:0,0:0:0:0:
293,177,77355,1,4,0:2:0:0:
394,138,77484,1,0,0:0:0:0:
323,65,77614,1,0,0:2:0:0:
323,65,77872,2,0,L|303:172,1,65.9999979858399,4|0,0:2|2:0,0:0:0:0:
479,94,78131,2,0,L|396:23,1,65.9999979858399,8|0,0:0|2:0,0:0:0:0:
400,218,78390,2,0,L|502:181,1,65.9999979858399,0|0,0:0|2:0,0:0:0:0:
367,349,78648,5,4,0:0:0:0:
367,349,78778,2,0,L|212:336,1,131.99999597168,4|0,0:2|0:0,0:0:0:0:
92,368,79165,1,8,0:0:0:0:
92,368,79424,1,2,0:3:0:0:
146,285,79553,1,0,0:0:0:0:
9,193,79683,1,2,0:3:0:0:
32,288,79812,1,8,0:2:0:0:
187,193,79941,2,0,L|102:183,1,65.9999979858399,8|0,0:2|2:0,0:0:0:0:
203,84,80200,2,0,L|303:92,1,65.9999979858399,12|0,0:0|2:0,0:0:0:0:
113,32,80459,2,0,L|98:127,1,65.9999979858399,0|0,0:0|2:0,0:0:0:0:
309,238,80717,5,6,0:0:0:0:
309,238,80847,2,0,L|318:144,1,65.9999979858399,2|0,0:0|2:0,0:0:0:0:
216,351,81105,1,2,0:0:0:0:
216,351,81170,1,0,0:0:0:0:
216,351,81234,2,0,L|208:259,1,65.9999979858399,10|0,0:0|2:0,0:0:0:0:
384,362,81493,1,2,1:0:0:0:
465,265,81622,1,2,0:0:0:0:
373,131,81752,2,0,L|197:171,2,131.99999597168,2|2|8,0:0|0:3|0:0,0:0:0:0:
485,53,82528,5,2,0:3:0:0:
388,30,82657,1,0,1:0:0:0:
153,120,82786,2,2,L|163:218,1,65.9999979858399,4|2,0:0|0:0,0:0:0:0:
349,212,83045,5,0,0:0:0:0:
259,169,83174,1,0,1:0:0:0:
54,264,83303,2,2,L|71:370,1,65.9999979858399,10|0,0:0|2:0,0:0:0:0:
279,259,83562,5,2,0:3:0:0:
324,118,83691,1,2,0:0:0:0:
413,350,83821,2,0,L|520:359,1,65.9999979858399,2|0,0:0|2:0,0:0:0:0:
365,257,84079,2,0,L|294:265,1,65.9999979858399,8|0,0:2|2:0,0:0:0:0:
183,348,84338,2,0,L|265:357,1,65.9999979858399,8|0,0:0|2:0,0:0:0:0:
243,101,84597,1,8,0:2:0:0:
179,239,84726,1,8,0:2:0:0:
47,42,84855,5,4,0:0:0:0:
47,42,84984,2,0,P|120:48|127:115,1,131.99999597168,4|0,0:2|1:0,0:0:0:0:
72,258,85372,2,0,P|61:198|47:126,1,131.99999597168,8|2,0:0|0:3,0:0:0:0:
47,128,85760,1,0,0:0:0:0:
203,175,85890,2,0,L|284:175,2,65.9999979858399,2|0|4,0:3|2:0|0:2,0:0:0:0:
160,265,86278,1,0,0:0:0:0:
331,357,86407,2,0,P|361:282|331:208,1,131.99999597168,8|4,0:0|0:2,0:0:0:0:
349,234,86795,1,0,0:0:0:0:
161,361,86924,5,4,0:0:0:0:
161,361,87053,2,0,B|95:337|95:337|10:361,1,131.99999597168,4|0,0:2|1:0,0:0:0:0:
253,259,87441,1,8,0:0:0:0:
253,259,87700,2,0,L|245:342,1,65.9999979858399,0|0,0:0|0:0,0:0:0:0:
299,120,87959,1,2,0:3:0:0:
393,147,88088,1,8,0:2:0:0:
268,26,88217,1,0,0:0:0:0:
208,185,88347,1,0,0:0:0:0:
381,67,88476,6,0,L|495:72,1,65.9999979858399,8|0,0:0|2:0,0:0:0:0:
301,155,88734,2,0,L|392:163,1,65.9999979858399,4|0,0:2|2:0,0:0:0:0:
121,148,88993,5,6,0:0:0:0:
121,148,89122,1,2,0:0:0:0:
186,222,89252,1,2,0:0:0:0:
122,297,89381,1,2,0:0:0:0:
11,202,89510,6,0,L|20:122,1,65.9999979858399,10|0,0:0|0:0,0:0:0:0:
242,296,89769,2,0,L|224:395,1,65.9999979858399,2|2,1:0|0:0,0:0:0:0:
241,73,90028,5,2,0:0:0:0:
349,130,90158,1,0,2:0:0:0:
250,166,90287,1,4,0:2:0:0:
452,219,90415,5,0,0:0:0:0:
452,219,90545,2,0,P|426:326|425:379,1,131.99999597168,8|4,0:0|0:2,0:0:0:0:
424,347,90933,1,0,2:0:0:0:
325,173,91062,5,4,1:3:0:0:
396,136,91191,1,4,1:3:0:0:
204,81,91450,5,2,0:3:0:0:
127,58,91579,1,8,1:0:0:0:
203,47,91709,1,2,1:2:0:0:
293,166,91967,5,8,0:2:0:0:
258,173,92097,1,2,1:3:0:0:
294,178,92226,1,0,0:0:0:0:
238,101,92355,6,2,L|231:259,2,131.99999597168,4|8|4,0:3|1:3|0:2,0:0:0:0:
215,364,93131,5,4,1:3:0:0:
215,364,93648,1,8,0:0:0:0:
222,372,94424,1,0,0:0:0:0:
222,372,94683,1,8,0:0:0:0:
222,372,94941,1,0,1:0:0:0:
239,26,95200,5,4,1:3:0:0:
239,26,95717,1,8,0:0:0:0:
247,33,96493,1,0,0:0:0:0:
247,33,96752,1,8,0:0:0:0:
247,33,97010,1,2,0:0:0:0:
221,370,97269,6,0,L|159:364,1,44,4|0,1:3|0:0,0:0:0:0:
72,325,97528,2,0,P|126:304|146:265,1,88,2|0,0:0|0:0,0:0:0:0:
171,206,97915,2,0,L|114:204,1,44,2|0,0:0|0:0,0:0:0:0:
189,196,98174,2,0,L|132:194,1,44,2|0,0:0|0:0,0:0:0:0:
207,186,98433,2,0,L|150:184,1,44,2|0,0:0|0:0,0:0:0:0:
225,176,98691,2,0,L|168:174,1,44,2|8,0:0|0:0,0:0:0:0:
243,166,98950,2,0,L|186:164,1,44,2|0,0:0|1:0,0:0:0:0:
222,70,99209,6,0,L|165:68,2,44,2|4|0,0:0|1:3|0:0,0:0:0:0:
286,28,99597,2,0,L|358:37,1,44,2|0,0:0|0:0,0:0:0:0:
400,70,99855,2,0,B|370:110|370:110|388:231,3,132,8|0|8|0,0:0|3:0|0:0|3:0,0:0:0:0:
202,155,101278,1,0,1:0:0:0:
202,155,101407,6,0,L|134:170,1,55,4|0,1:0|0:0,0:0:0:0:
94,109,101665,2,0,L|12:130,1,55,0|0,1:0|0:0,0:0:0:0:
144,37,101924,1,8,0:0:0:0:
144,37,102053,2,0,P|199:40|264:46,1,110,2|0,1:2|1:0,0:0:0:0:
325,79,102441,1,2,1:2:0:0:
325,79,102700,1,0,1:0:0:0:
304,147,102829,2,2,L|303:217,1,55,2|8,0:0|0:0,0:0:0:0:
214,274,103088,2,2,B|186:241|186:241|205:161,1,110,0|0,1:2|0:0,0:0:0:0:
340,307,103476,5,0,1:0:0:0:
340,307,103734,1,0,1:0:0:0:
407,267,103864,1,2,1:2:0:0:
468,315,103993,1,8,0:0:0:0:
468,315,104252,2,0,L|389:346,1,55,0|2,1:0|0:0,0:0:0:0:
367,272,104510,1,2,0:3:0:0:
367,272,104640,1,0,1:0:0:0:
367,272,104769,1,0,1:0:0:0:
367,272,104898,2,2,L|382:191,1,55,2|8,1:2|0:0,0:0:0:0:
266,250,105157,2,2,P|269:323|257:386,1,110,0|0,1:0|0:0,0:0:0:0:
181,199,105545,6,0,L|178:137,1,55,4|0,1:0|0:0,0:0:0:0:
237,89,105803,1,0,1:0:0:0:
237,89,105933,1,0,1:0:0:0:
237,89,106062,2,0,L|233:14,1,55,8|0,0:0|0:0,0:0:0:0:
244,50,106579,6,0,L|243:134,1,55,2|0,0:0|0:0,0:0:0:0:
283,172,106838,1,0,1:0:0:0:
351,135,106967,1,0,1:0:0:0:
302,194,107097,2,0,B|278:240|278:240|296:311,2,110,8|0|0,0:0|1:0|1:0,0:0:0:0:
302,194,107872,2,0,L|201:207,1,55,2|0,1:2|1:0,0:0:0:0:
363,251,108131,6,0,B|415:273|415:273|494:240,1,110,8|0,0:0|0:0,0:0:0:0:
284,288,108519,2,0,B|238:322|238:322|228:406,1,110,0|0,1:0|0:0,0:0:0:0:
302,194,108907,2,0,B|295:137|295:137|226:86,1,110,0|8,1:0|0:0,0:0:0:0:
252,105,109424,6,2,B|294:137|294:137|301:193,1,110,4|4,1:2|1:0,0:0:0:0:
145,256,109941,1,2,0:3:0:0:
61,217,110071,1,0,1:0:0:0:
143,168,110200,2,0,L|137:240,1,55,8|0,0:0|0:0,0:0:0:0:
67,357,110459,2,0,L|63:287,1,55,2|0,1:3|1:0,0:0:0:0:
225,287,110717,1,0,1:0:0:0:
319,256,110847,1,0,1:0:0:0:
403,324,110976,2,0,B|357:351|357:351|262:330,1,110,4|8,1:3|0:0,0:0:0:0:
248,171,111364,1,2,0:0:0:0:
339,209,111493,1,0,1:0:0:0:
240,205,111622,1,2,0:3:0:0:
469,234,111752,5,0,1:0:0:0:
469,234,111881,2,0,B|469:173,1,55,0|0,1:0|0:0,0:0:0:0:
393,100,112140,1,0,1:0:0:0:
393,100,112269,2,2,L|392:11,1,55,8|0,1:2|0:0,0:0:0:0:
272,176,112528,2,0,L|335:173,1,55,2|2,0:3|0:0,0:0:0:0:
153,215,112786,1,2,1:3:0:0:
179,334,112915,1,0,1:0:0:0:
299,299,113045,1,0,1:0:0:0:
263,206,113174,1,2,0:0:0:0:
69,200,113303,2,2,B|40:256|40:256|65:356,1,165,8|0,0:0|0:0,0:0:0:0:
85,103,113821,6,0,L|76:13,1,55,4|0,1:0|0:0,0:0:0:0:
237,133,114079,1,2,1:2:0:0:
154,189,114209,1,0,1:0:0:0:
320,268,114338,2,0,L|329:199,1,55,8|0,1:2|0:0,0:0:0:0:
215,290,114597,2,0,L|210:391,1,55,2|0,1:3|1:0,0:0:0:0:
247,168,114855,1,0,1:0:0:0:
269,71,114984,1,0,1:0:0:0:
209,150,115114,1,0,1:0:0:0:
368,63,115243,2,2,L|494:80,1,110,0|0,1:0|0:0,0:0:0:0:
253,33,115631,2,2,L|158:51,1,55,0|0,1:0|0:0,0:0:0:0:
321,194,115890,6,0,L|312:124,2,55,0|0|2,1:0|1:0|0:0,0:0:0:0:
197,281,116278,1,0,1:0:0:0:
197,281,116407,2,2,L|196:205,1,55,8|0,1:2|0:0,0:0:0:0:
300,302,116665,6,0,L|297:341,1,27.5,2|0,1:0|0:0,0:0:0:0:
312,314,116795,2,0,L|309:353,1,27.5,2|0,1:2|0:0,0:0:0:0:
284,365,116924,6,2,L|295:215,2,110,0|0|8,0:0|1:0|0:0,0:0:0:0:
34,369,117571,1,0,1:0:0:0:
34,369,117700,1,2,0:3:0:0:
34,369,117829,1,0,1:0:0:0:
34,369,117959,6,0,L|110:359,1,55,4|0,1:0|0:0,0:0:0:0:
202,316,118217,2,0,L|280:326,1,55,2|0,1:3|1:0,0:0:0:0:
461,356,118476,1,8,0:0:0:0:
461,356,118734,1,2,1:3:0:0:
393,282,118864,1,0,1:0:0:0:
473,224,118993,2,2,L|468:97,1,110,2|4,1:3|1:3,0:0:0:0:
468,114,119381,1,0,0:0:0:0:
319,223,119510,2,0,L|243:219,1,55,8|0,1:2|0:0,0:0:0:0:
155,144,119769,2,0,L|241:137,1,55,2|0,1:3|0:0,0:0:0:0:
133,270,120028,5,2,1:0:0:0:
41,307,120157,1,2,1:0:0:0:
157,320,120286,2,0,L|146:381,1,55,2|2,0:3|1:0,0:0:0:0:
44,234,120545,2,0,L|39:101,1,110,8|2,0:0|0:3,0:0:0:0:
39,124,120933,1,0,1:0:0:0:
213,38,121062,2,0,L|209:160,1,110,2|2,1:2|1:3,0:0:0:0:
209,147,121450,1,0,1:0:0:0:
115,23,121579,2,2,L|38:37,1,55,8|0,0:0|0:0,0:0:0:0:
345,147,121838,1,2,1:3:0:0:
345,147,122097,6,0,L|349:77,1,55,4|0,1:0|0:0,0:0:0:0:
451,222,122355,2,0,L|369:237,1,55,2|0,1:0|1:0,0:0:0:0:
248,190,122614,1,8,1:2:0:0:
238,96,122743,1,0,1:0:0:0:
184,260,122872,1,2,1:3:0:0:
113,181,123002,1,0,1:0:0:0:
310,247,123131,2,2,B|283:295|283:295|296:378,1,110,0|4,1:0|1:3,0:0:0:0:
292,350,123519,1,2,1:3:0:0:
114,183,123648,2,0,B|169:182|169:182|234:129,1,110,8|4,1:2|1:3,0:0:0:0:
169,370,124036,5,2,1:0:0:0:
95,305,124165,1,0,1:0:0:0:
222,266,124295,2,0,L|164:298,1,55,2|2,1:0|0:3,0:0:0:0:
440,228,124553,1,2,1:0:0:0:
313,188,124683,2,0,L|371:220,1,55,8|2,0:0|0:0,0:0:0:0:
194,28,124941,1,2,1:3:0:0:
209,126,125071,1,4,1:3:0:0:
295,79,125200,2,2,L|292:23,2,55,0|2|4,0:0|0:0|0:0,0:0:0:0:
165,231,125588,2,2,P|73:229|52:165,1,165,2|2,1:0|1:3,0:0:0:0:
313,188,126234,5,0,1:0:0:0:
313,188,126493,2,0,L|311:258,1,55,2|8,0:0|0:0,0:0:0:0:
243,274,127010,1,0,1:0:0:0:
243,274,127269,2,0,L|190:272,1,27.5,0|0,3:0|1:0,0:0:0:0:
289,353,127528,1,0,1:0:0:0:
289,353,127786,2,0,L|215:357,1,55,8|0,0:0|1:0,0:0:0:0:
216,187,128303,2,0,L|335:203,1,110,0|8,1:0|0:0,0:0:0:0:
369,367,129079,6,0,L|367:327,1,27.5,2|0,0:0|0:0,0:0:0:0:
434,278,129338,2,0,L|435:313,1,27.5,0|0,3:0|0:0,0:0:0:0:
494,362,129597,2,0,L|495:340,4,13.75,0|0|0|0|8,1:0|0:0|3:0|0:0|0:0,0:0:0:0:
326,226,130114,1,0,1:0:0:0:
474,142,130372,5,0,1:0:0:0:
474,142,130502,2,0,L|460:206,1,55,0|0,0:0|0:0,0:0:0:0:
396,94,130890,2,0,L|397:71,2,13.75,8|0|0,0:0|0:0|0:0,0:0:0:0:
329,153,131148,1,2,0:0:0:0:
329,153,131213,1,0,3:0:0:0:
329,153,131278,1,0,3:0:0:0:
329,153,131342,1,0,3:0:0:0:
329,153,131407,2,0,L|331:168,4,13.75,8|0|0|0|2,0:0|0:0|0:0|0:0|0:0,0:0:0:0:
84,111,131924,2,0,L|102:109,2,13.75,0|0|0,1:0|0:0|0:0,0:0:0:0:
147,46,132183,2,0,L|165:44,2,13.75,2|0|0,0:0|0:0|0:0,0:0:0:0:
31,205,132441,5,2,0:3:0:0:
109,261,132700,1,0,3:0:0:0:
109,261,132765,1,0,3:0:0:0:
109,261,132829,1,0,3:0:0:0:
109,261,132894,1,0,3:0:0:0:
109,261,132959,2,0,L|107:322,1,55,0|2,1:0|0:0,0:0:0:0:
173,182,133347,1,0,3:0:0:0:
173,182,133411,1,0,3:0:0:0:
173,182,133476,6,0,L|129:173,1,44,0|2,1:0|1:0,0:0:0:0:
129,173,134252,1,2,1:0:0:0:
232,359,134510,5,4,0:0:0:0:
232,359,134640,2,0,B|290:331|290:331|388:344,1,131.99999597168,4|0,0:2|0:0,0:0:0:0:
456,223,135028,1,8,0:0:0:0:
456,223,135157,2,0,B|398:251|398:251|300:238,1,131.99999597168,0|0,1:0|1:0,0:0:0:0:
160,168,135545,2,0,L|226:130,1,65.9999979858399,0|0,0:2|2:0,0:0:0:0:
298,78,135803,1,4,0:2:0:0:
207,36,135933,1,0,0:0:0:0:
374,131,136062,2,0,L|475:113,1,65.9999979858399,8|0,0:0|2:0,0:0:0:0:
298,78,136321,2,0,L|311:13,1,65.9999979858399,0|0,0:0|2:0,0:0:0:0:
185,205,136579,5,4,0:0:0:0:
185,205,136709,2,0,B|220:254|220:254|196:376,1,131.99999597168,4|0,0:2|0:0,0:0:0:0:
34,373,137097,2,0,L|39:298,1,65.9999979858399,8|0,0:0|2:0,0:0:0:0:
70,162,137355,1,2,0:3:0:0:
109,252,137484,1,0,0:0:0:0:
164,121,137614,1,2,0:3:0:0:
122,31,137743,1,8,0:2:0:0:
274,139,137872,2,0,L|276:235,1,65.9999979858399,8|0,0:2|2:0,0:0:0:0:
397,61,138131,2,0,L|321:47,1,65.9999979858399,12|0,0:0|2:0,0:0:0:0:
433,224,138390,2,0,L|463:145,1,65.9999979858399,0|0,0:0|2:0,0:0:0:0:
322,291,138648,5,6,0:0:0:0:
322,291,138778,2,0,L|242:286,1,65.9999979858399,2|0,0:0|2:0,0:0:0:0:
126,363,139036,1,2,0:0:0:0:
126,363,139101,1,0,0:0:0:0:
126,363,139165,2,0,L|193:366,1,65.9999979858399,10|0,0:0|2:0,0:0:0:0:
163,208,139424,1,2,1:0:0:0:
65,247,139553,1,2,0:0:0:0:
141,89,139683,2,0,L|67:149,1,65.9999979858399,2|0,0:0|2:0,0:0:0:0:
308,179,139941,2,0,L|208:147,1,65.9999979858399,2|0,0:3|2:0,0:0:0:0:
360,355,140200,2,0,L|379:277,1,65.9999979858399,8|0,0:0|2:0,0:0:0:0:
191,251,140459,5,2,0:3:0:0:
168,348,140588,1,0,1:0:0:0:
87,222,140717,2,2,L|92:128,1,65.9999979858399,4|2,0:0|2:1,0:0:0:0:
302,154,140976,5,0,0:0:0:0:
279,251,141105,1,0,1:0:0:0:
198,125,141234,2,2,L|203:31,1,65.9999979858399,10|0,0:0|2:0,0:0:0:0:
361,208,141493,5,2,0:3:0:0:
384,111,141622,1,2,0:0:0:0:
465,237,141751,2,0,L|460:331,1,65.9999979858399,2|0,0:0|2:0,0:0:0:0:
297,361,142010,2,0,L|303:283,1,65.9999979858399,8|0,0:2|2:0,0:0:0:0:
112,245,142269,2,0,L|278:215,1,131.99999597168,8|8,0:0|0:2,0:0:0:0:
241,221,142657,1,8,0:2:0:0:
69,37,142786,5,4,0:0:0:0:
138,62,142915,1,4,0:2:0:0:
410,89,143174,5,0,1:0:0:0:
326,106,143303,1,8,0:0:0:0:
408,112,143433,1,0,0:0:0:0:
187,180,143691,5,0,0:0:0:0:
271,197,143820,1,2,0:3:0:0:
189,203,143950,1,0,2:0:0:0:
271,225,144079,2,0,L|265:301,1,65.9999979858399,4|0,0:2|2:0,0:0:0:0:
112,148,144338,2,0,L|116:59,1,65.9999979858399,8|0,0:0|2:0,0:0:0:0:
112,259,144597,2,0,L|109:341,1,65.9999979858399,4|0,0:2|2:0,0:0:0:0:
348,316,144855,5,4,0:0:0:0:
415,352,144984,1,4,0:2:0:0:
318,120,145243,5,0,1:0:0:0:
398,141,145372,1,8,0:0:0:0:
315,150,145502,1,0,0:0:0:0:
74,170,145760,5,0,0:0:0:0:
99,101,145890,1,2,0:3:0:0:
39,162,146019,1,8,0:2:0:0:
78,83,146148,2,0,L|111:-6,1,65.9999979858399,0|0,0:0|2:0,0:0:0:0:
172,201,146407,2,0,L|182:279,1,65.9999979858399,8|0,0:0|2:0,0:0:0:0:
24,200,146665,2,0,L|113:180,1,65.9999979858399,4|0,0:2|2:0,0:0:0:0:
290,353,146924,6,0,L|201:348,1,65.9999979858399,6|2,0:0|2:1,0:0:0:0:
381,244,147183,1,2,0:0:0:0:
478,286,147312,1,2,0:0:0:0:
340,135,147441,2,0,L|236:178,1,65.9999979858399,10|0,0:0|2:0,0:0:0:0:
361,36,147700,2,0,L|432:55,1,65.9999979858399,2|2,1:0|2:1,0:0:0:0:
112,109,147959,5,2,0:0:0:0:
143,255,148088,1,2,0:0:0:0:
259,199,148217,1,4,0:2:0:0:
227,56,148347,1,2,0:0:0:0:
142,125,148476,5,8,0:0:0:0:
167,192,148605,1,0,0:0:0:0:
234,166,148734,1,4,0:2:0:0:
211,103,148864,1,2,0:0:0:0:
46,286,148993,5,4,1:3:0:0:
46,286,149122,1,4,1:3:0:0:
126,312,149380,5,2,0:3:0:0:
126,312,149510,1,8,1:0:0:0:
126,312,149640,1,2,1:2:0:0:
205,340,149898,5,8,0:2:0:0:
205,340,150028,2,2,L|96:357,1,88,2|4,1:3|0:3,0:0:0:0:
321,201,150415,1,0,0:0:0:0:
321,201,150545,2,2,B|286:249|286:249|310:401,2,176,2|4|2,1:0|1:3|0:0,0:0:0:0:
471,93,152355,5,0,1:0:0:0:
471,93,152614,2,0,L|453:220,1,88,8|0,0:0|1:0,0:0:0:0:
350,48,153131,1,0,1:0:0:0:
350,48,153648,1,8,0:0:0:0:
350,48,154424,1,2,0:3:0:0:
126,174,154683,1,8,0:0:0:0:
284,342,154941,1,0,3:0:0:0:
287,178,155200,5,0,1:0:0:0:
256,192,155329,12,8,157786,0:0:0:0:
257,165,158303,6,0,L|248:214,1,49.4999984893799,2|0,0:0|3:0,0:0:0:0:
315,39,159079,1,0,1:0:0:0:
315,39,159144,1,0,1:0:0:0:
315,39,159209,1,0,1:0:0:0:
315,39,159273,1,0,1:0:0:0:
315,39,159338,6,0,B|261:72|261:72|188:49,1,115.49999647522,4|0,1:0|0:0,0:0:0:0:
181,34,159597,2,0,L|89:47,1,76.9999976501466,2|0,1:3|0:0,0:0:0:0:
39,183,159855,2,0,L|130:169,1,76.9999976501466,8|0,1:0|0:0,0:0:0:0:
249,153,160114,1,2,1:3:0:0:
191,234,160243,1,0,1:0:0:0:
427,192,160372,6,0,B|477:228|477:228|464:320,1,153.999995300293,4|2,1:3|0:3,0:0:0:0:
464,319,160760,1,0,1:0:0:0:
358,379,160890,2,0,P|357:336|353:290,1,76.9999976501466,8|0,1:0|0:0,0:0:0:0:
248,198,161148,2,0,P|253:243|257:294,1,76.9999976501466,2|0,1:3|1:0,0:0:0:0:
283,73,161407,5,4,1:0:0:0:
283,73,161665,1,2,1:3:0:0:
188,110,161795,1,0,1:0:0:0:
176,11,161924,1,8,1:0:0:0:
283,73,162183,5,2,1:3:0:0:
157,216,162312,1,0,1:0:0:0:
88,53,162441,2,0,L|173:90,1,76.9999976501466,4|0,1:3|0:0,0:0:0:0:
38,214,162700,2,0,L|27:121,1,76.9999976501466,2|0,1:3|0:0,0:0:0:0:
245,205,162959,2,0,B|272:252|272:252|238:384,1,153.999995300293,8|2,1:0|0:3,0:0:0:0:
247,348,163347,1,0,1:0:0:0:
156,350,163476,6,0,L|63:346,1,76.9999976501466,4|0,1:3|0:0,0:0:0:0:
23,246,163734,2,0,L|124:251,1,76.9999976501466,2|0,1:3|0:0,0:0:0:0:
224,59,163993,2,0,B|187:100|187:100|208:201,1,153.999995300293,8|2,1:0|0:3,0:0:0:0:
207,196,164381,1,0,1:0:0:0:
336,288,164510,1,4,1:3:0:0:
378,190,164640,1,0,1:0:0:0:
326,105,164769,2,0,L|341:217,1,76.9999976501466,2|0,1:3|0:0,0:0:0:0:
242,372,165028,2,0,L|232:288,1,76.9999976501466,8|0,1:0|0:0,0:0:0:0:
493,371,165286,5,4,0:3:0:0:
493,371,165545,2,2,B|466:348|466:348|311:363,1,176,4|8,1:3|0:0,0:0:0:0:
126,270,166321,2,0,B|152:288|152:288|258:273,1,132,2|4,0:3|1:3,0:0:0:0:
47,276,166967,1,0,1:0:0:0:
47,276,167097,2,2,L|70:370,1,88,8|2,1:2|0:0,0:0:0:0:
79,197,167614,6,0,B|55:148|55:148|85:65,1,115.49999647522,4|0,1:0|2:0,0:0:0:0:
94,56,167872,1,2,1:3:0:0:
229,99,168002,1,0,1:0:0:0:
240,232,168131,2,0,L|231:337,2,76.9999976501466,8|0|2,1:0|0:0|0:3,0:0:0:0:
151,320,168519,1,0,1:0:0:0:
306,139,168648,6,0,L|395:149,1,76.9999976501466,4|0,1:3|0:0,0:0:0:0:
405,240,168907,2,0,L|500:249,1,76.9999976501466,2|0,1:3|0:0,0:0:0:0:
421,62,169165,2,0,L|302:50,1,115.49999647522,8|0,1:0|2:0,0:0:0:0:
266,53,169424,1,2,1:3:0:0:
160,121,169553,1,0,1:0:0:0:
300,214,169683,6,0,B|323:259|323:259|295:369,1,153.999995300293,4|2,1:2|0:3,0:0:0:0:
203,175,170071,1,0,1:0:0:0:
203,175,170200,2,0,B|213:126|213:126|324:75,1,153.999995300293,8|2,1:0|0:3,0:0:0:0:
218,278,170588,1,0,1:0:0:0:
218,278,170717,2,0,B|176:305|176:305|60:290,1,153.999995300293,2|4,1:3|1:3,0:0:0:0:
72,291,171105,1,0,1:0:0:0:
248,365,171234,2,0,L|334:348,1,76.9999976501466,8|0,1:0|0:0,0:0:0:0:
466,246,171493,2,0,L|371:268,1,76.9999976501466,2|0,1:3|1:0,0:0:0:0:
220,193,171752,5,4,1:3:0:0:
220,193,172010,2,0,L|225:111,1,76.9999976501466,2|0,1:3|0:0,0:0:0:0:
123,245,172269,2,0,L|129:140,1,76.9999976501466,8|0,1:0|0:0,0:0:0:0:
190,358,172528,2,0,L|197:271,1,76.9999976501466,2|0,1:3|0:0,0:0:0:0:
56,37,172786,2,0,B|21:98|21:98|51:212,1,153.999995300293,4|2,1:3|0:3,0:0:0:0:
354,174,173174,1,0,1:0:0:0:
443,222,173303,2,0,B|478:283|478:283|448:397,1,153.999995300293,8|2,1:0|0:3,0:0:0:0:
252,32,173821,5,0,1:0:0:0:
252,32,173950,1,2,1:3:0:0:
247,163,174209,5,0,1:0:0:0:
247,163,174338,1,2,1:3:0:0:
247,163,174467,1,0,1:2:0:0:
244,294,174726,5,2,1:3:0:0:
244,294,174855,1,0,1:0:0:0:
244,294,174984,1,0,1:0:0:0:
244,294,175114,2,0,L|241:327,1,27.5,2|0,1:3|0:0,0:0:0:0:
206,384,175372,6,0,L|212:297,1,82.5,4|0,1:2|0:0,0:0:0:0:
332,164,175890,5,4,0:0:0:0:
332,164,176019,2,0,B|400:200|416:144|488:178,1,142.99999345398,4|0,0:2|0:0,0:0:0:0:
248,28,176407,1,8,0:0:0:0:
248,28,176536,2,0,B|216:80|212:132|236:192,1,142.99999345398,0|0,1:0|0:0,0:0:0:0:
56,240,176924,1,0,0:2:0:0:
56,240,177183,1,4,0:2:0:0:
48,136,177312,1,0,0:0:0:0:
144,200,177441,2,0,B|148:232|144:252|128:280,1,71.4999967269899,8|0,0:0|2:0,0:0:0:0:
48,360,177700,1,4,0:2:0:0:
48,360,177959,5,4,0:0:0:0:
144,320,178088,1,4,0:2:0:0:
236,280,178217,1,0,0:0:0:0:
436,360,178347,5,0,0:0:0:0:
332,336,178476,1,8,0:0:0:0:
444,324,178605,1,0,0:0:0:0:
340,300,178734,1,2,0:3:0:0:
184,180,178864,5,0,0:0:0:0:
288,156,178993,1,2,0:3:0:0:
176,144,179122,1,8,0:2:0:0:
280,120,179251,1,8,0:2:0:0:
92,216,179381,1,0,2:0:0:0:
116,32,179510,5,12,0:0:0:0:
400,208,179769,1,4,0:2:0:0:
180,352,180028,5,6,0:0:0:0:
180,352,180157,2,0,P|180:308|176:268,1,71.4999967269899,2|0,0:0|2:0,0:0:0:0:
72,224,180415,1,2,0:0:0:0:
72,224,180480,1,0,0:0:0:0:
72,224,180545,1,10,0:0:0:0:
72,224,180803,5,2,1:0:0:0:
124,136,180933,1,2,0:0:0:0:
12,44,181062,2,0,B|8:100|8:144|24:192,2,142.99999345398,2|2|8,0:0|0:3|0:0,0:0:0:0:
12,44,181838,5,2,0:3:0:0:
128,20,181967,1,0,0:0:0:0:
280,112,182097,2,2,P|276:148|268:184,1,71.4999967269899,4|2,0:0|2:1,0:0:0:0:
60,168,182355,5,0,0:0:0:0:
178,166,182484,1,0,1:0:0:0:
310,285,182614,2,2,P|297:322|284:353,1,71.4999967269899,10|0,0:0|2:0,0:0:0:0:
212,268,182872,5,2,0:3:0:0:
372,172,183002,1,2,0:0:0:0:
240,24,183131,2,0,P|240:64|248:120,1,71.4999967269899,2|0,0:0|2:0,0:0:0:0:
240,192,183390,5,8,0:2:0:0:
132,264,183519,1,0,0:0:0:0:
12,172,183648,1,8,0:0:0:0:
148,180,183907,5,8,0:2:0:0:
240,271,184036,1,8,0:2:0:0:
375,203,184165,1,4,0:0:0:0:
476,288,184295,2,0,P|470:331|460:384,1,71.4999967269899,4|0,0:2|2:0,0:0:0:0:
260,32,184553,5,0,1:0:0:0:
160,64,184683,1,8,0:0:0:0:
256,80,184812,2,0,P|248:120|244:176,1,71.4999967269899,0|2,0:0|2:3,0:0:0:0:
60,200,185071,5,0,0:0:0:0:
160,232,185201,1,2,0:3:0:0:
56,248,185329,1,0,0:0:0:0:
156,276,185459,2,0,P|152:316|144:372,1,71.4999967269899,4|0,0:2|2:0,0:0:0:0:
104,120,185717,2,0,P|101:82|100:24,1,71.4999967269899,8|0,0:0|2:0,0:0:0:0:
308,172,185976,2,0,P|264:180|208:184,1,71.4999967269899,4|0,0:2|2:0,0:0:0:0:
320,328,186234,5,4,0:0:0:0:
320,328,186364,2,0,B|384:332|408:336|468:352,1,142.99999345398,4|0,1:2|1:0,0:0:0:0:
352,168,186752,1,8,0:0:0:0:
352,168,186881,2,0,B|408:200|432:220|468:256,1,142.99999345398,0|0,0:0|0:0,0:0:0:0:
224,92,187269,5,2,0:3:0:0:
196,196,187398,1,8,0:2:0:0:
48,52,187528,1,0,0:0:0:0:
152,24,187657,1,0,0:0:0:0:
88,208,187786,6,0,P|60:176|32:144,1,71.4999967269899,8|0,0:0|2:0,0:0:0:0:
208,108,188045,2,0,P|194:146|184:192,1,71.4999967269899,4|0,0:2|2:0,0:0:0:0:
68,64,188303,2,0,P|100:56|152:40,1,71.4999967269899,6|2,0:0|2:0,0:0:0:0:
388,240,188562,5,2,0:0:0:0:
320,304,188691,1,2,0:0:0:0:
380,104,188821,5,10,0:0:0:0:
468,168,188950,1,2,0:0:0:0:
256,160,189079,5,2,1:0:0:0:
284,28,189209,1,2,0:0:0:0:
336,176,189338,5,2,0:0:0:0:
240,260,189467,1,0,0:0:0:0:
288,32,189597,1,4,0:2:0:0:
468,168,189726,1,2,0:0:0:0:
468,168,189984,1,2,0:0:0:0:
308,192,190114,2,0,B|336:180|336:180|384:188,1,71.4999967269899,4|0,0:2|2:0,0:0:0:0:
456,264,190372,5,4,1:3:0:0:
456,264,190502,1,4,1:3:0:0:
456,264,190631,2,0,L|400:284,1,55,4|0,1:2|2:0,0:0:0:0:
328,272,190890,2,0,L|300:344,1,55,8|0,0:2|2:0,0:0:0:0:
232,308,191148,2,0,L|212:376,1,55,4|0,1:2|1:0,0:0:0:0:
184,240,191407,5,0,1:0:0:0:
184,240,191536,1,2,1:3:0:0:
184,240,191665,2,0,L|192:168,1,55,4|0,1:3|2:0,0:0:0:0:
308,100,191924,5,8,0:0:0:0:
36,216,192183,1,4,0:3:0:0:
260,372,192441,5,4,0:0:0:0:
260,372,192571,2,0,P|257:327|252:288,1,71.4999967269899,4|0,0:2|2:0,0:0:0:0:
264,40,192829,1,0,0:0:0:0:
264,40,192959,1,8,0:0:0:0:
264,40,193088,2,0,P|256:88|256:116,1,71.4999967269899,0|0,1:0|2:0,0:0:0:0:
87,359,193346,5,0,0:0:0:0:
75,264,193475,1,0,0:2:0:0:
148,205,193604,1,0,0:0:0:0:
163,295,193734,1,4,0:2:0:0:
0,287,193864,1,0,0:0:0:0:
62,186,193993,2,0,B|82:154|82:154|66:90,1,71.4999967269899,8|0,0:0|2:0,0:0:0:0:
214,294,194252,2,0,B|194:326|194:326|210:390,1,71.4999967269899,4|0,0:2|2:0,0:0:0:0:
324,228,194510,5,4,0:0:0:0:
324,228,194640,2,0,B|364:276|408:272|468:244,1,142.99999345398,4|0,0:2|0:0,0:0:0:0:
268,104,195028,1,8,0:0:0:0:
184,212,195157,1,0,0:0:0:0:
184,212,195415,5,0,0:0:0:0:
172,28,195545,1,2,0:3:0:0:
284,76,195674,1,8,0:2:0:0:
284,172,195803,1,8,0:2:0:0:
200,120,195933,1,0,0:0:0:0:
364,40,196062,2,0,B|380:76|380:76|360:132,1,71.4999967269899,12|0,0:0|2:0,0:0:0:0:
216,284,196321,2,0,B|200:248|200:248|220:192,1,71.4999967269899,4|0,0:2|2:0,0:0:0:0:
28,356,196579,5,6,0:0:0:0:
28,356,196709,2,0,P|70:355|112:360,1,71.4999967269899,2|0,0:0|2:0,0:0:0:0:
44,196,196967,1,2,0:0:0:0:
44,196,197032,1,0,0:0:0:0:
44,196,197097,2,0,P|76:228|108:268,1,71.4999967269899,10|0,0:0|2:0,0:0:0:0:
300,364,197355,1,2,1:0:0:0:
264,224,197484,1,2,0:0:0:0:
192,304,197614,6,0,P|238:310|288:312,1,71.4999967269899,2|0,0:0|2:0,0:0:0:0:
144,132,197872,2,0,P|164:168|184:212,1,71.4999967269899,2|0,0:3|2:0,0:0:0:0:
256,16,198131,2,0,P|260:64|260:96,1,71.4999967269899,8|0,0:0|2:0,0:0:0:0:
464,288,198390,5,2,0:3:0:0:
420,168,198519,1,0,0:0:0:0:
268,244,198648,1,4,0:0:0:0:
268,244,198778,1,2,2:1:0:0:
352,216,198907,5,0,0:0:0:0:
308,96,199036,1,0,1:0:0:0:
160,176,199165,2,2,P|160:220|172:268,1,71.4999967269899,10|0,0:0|2:0,0:0:0:0:
236,140,199424,5,2,0:3:0:0:
192,20,199553,1,2,0:0:0:0:
44,100,199682,2,0,P|44:144|56:192,1,71.4999967269899,2|0,0:0|2:0,0:0:0:0:
316,224,199941,5,8,0:2:0:0:
221,281,200071,1,0,0:0:0:0:
425,384,200200,5,8,0:0:0:0:
308,328,200329,1,0,0:0:0:0:
454,277,200459,5,8,0:2:0:0:
168,376,200588,1,8,0:2:0:0:
264,104,200717,5,4,0:0:0:0:
264,104,200847,2,0,P|259:60|256:24,1,71.4999967269899,4|0,0:2|2:0,0:0:0:0:
136,212,201105,1,0,1:0:0:0:
136,212,201234,1,8,0:0:0:0:
136,212,201364,2,0,P|136:168|136:136,1,71.4999967269899,0|2,0:0|2:3,0:0:0:0:
328,272,201622,1,0,0:0:0:0:
328,272,201752,1,2,0:3:0:0:
328,272,201881,2,0,P|324:228|320:176,1,71.4999967269899,0|4,0:0|0:2,0:0:0:0:
176,296,202140,1,0,2:0:0:0:
264,360,202269,5,8,0:0:0:0:
176,112,202528,1,4,0:2:0:0:
20,348,202786,5,4,0:0:0:0:
20,348,202915,2,0,B|60:328|60:328|160:344,1,142.99999345398,4|0,1:2|1:0,0:0:0:0:
376,344,203303,1,8,0:0:0:0:
376,344,203433,2,0,B|331:347|331:347|244:295,1,142.99999345398,0|0,0:0|0:0,0:0:0:0:
240,104,203821,5,2,0:3:0:0:
184,180,203950,1,8,0:2:0:0:
200,20,204079,5,0,0:0:0:0:
268,212,204209,1,0,0:0:0:0:
96,160,204338,6,0,B|76:124|76:124|32:136,1,71.4999967269899,8|0,0:0|2:0,0:0:0:0:
216,76,204597,2,0,B|184:96|184:96|200:160,1,71.4999967269899,4|0,0:2|2:0,0:0:0:0:
304,336,204855,5,6,0:0:0:0:
304,336,204984,1,2,0:0:0:0:
368,220,205114,1,2,0:0:0:0:
268,232,205243,1,2,0:0:0:0:
472,152,205372,2,0,B|464:184|464:184|464:196|464:196|456:256,1,71.4999967269899,10|0,0:0|2:0,0:0:0:0:
244,128,205631,1,2,1:0:0:0:
348,80,205760,1,2,0:0:0:0:
148,32,205890,6,0,B|148:68|148:68|152:76|152:76|156:136,1,71.4999967269899,2|0,0:0|2:0,0:0:0:0:
120,288,206148,1,4,0:2:0:0:
16,240,206278,1,2,0:0:0:0:
248,276,206407,6,0,B|233:311|233:311|240:356,1,71.4999967269899,8|0,0:0|2:0,0:0:0:0:
316,132,206665,6,0,B|330:167|330:167|320:212,1,71.4999967269899,2|0,0:0|2:0,0:0:0:0:
232,24,206924,5,4,1:3:0:0:
232,24,207053,1,0,0:0:0:0:
256,192,207183,12,0,213131,0:0:0:0:
