osu file format v14

[General]
AudioFilename: audio.mp3
AudioLeadIn: 0
PreviewTime: 75933
Countdown: 0
SampleSet: Soft
StackLeniency: 0.7
Mode: 0
LetterboxInBreaks: 0
WidescreenStoryboard: 1

[Editor]
Bookmarks: 68303,126234,159338,167614,175890,184165,192441,200717
DistanceSpacing: 2.3
BeatDivisor: 8
GridSize: 32
TimelineZoom: 2.3

[Metadata]
Title:Shapeshifter (feat. Styles of Beyond)
TitleUnicode:Shapeshifter (feat. Styles of Beyond)
Artist:Celldweller
ArtistUnicode:Celldweller
Creator:PandaHero
Version:Collab Insane
Source:Need for Speed: Most Wanted
Tags:frey neko ds nfs mw nfsmw 2005 klayton 10 years anniversary deluxe edition death race 2 english rock nu industrial metal video game soundtrack ost fa featured artist
BeatmapID:2776049
BeatmapSetID:1124906

[Difficulty]
HPDrainRate:5
CircleSize:4
OverallDifficulty:7.8
ApproachRate:8.8
SliderMultiplier:2.4
SliderTickRate:1

[Events]
//Background and Video events
0,0,"street-922971_1920.jpg",0,0
//Break Periods
2,153131,154571
//Storyboard Layer 0 (Background)
//Storyboard Layer 1 (Fail)
//Storyboard Layer 2 (Pass)
//Storyboard Layer 3 (Foreground)
//Storyboard Layer 4 (Overlay)
//Storyboard Sound Samples

[TimingPoints]
2097,517.241379310345,4,2,0,65,1,0
2097,-133.333333333333,4,2,0,65,0,0
17614,-133.333333333333,4,1,1,65,0,0
18131,-100,4,1,0,65,0,0
18648,-83.3333333333333,4,1,1,80,0,0
33131,-100,4,2,0,70,0,0
35200,-100,4,2,1,70,0,0
51234,-100,4,1,1,65,0,0
51493,-100,4,2,1,70,0,0
68303,-133.333333333333,4,2,0,60,0,0
76062,-100,4,2,1,70,0,0
76579,-80,4,1,1,80,0,0
91062,-100,4,1,1,65,0,0
93131,-100,4,2,0,55,0,0
95200,-100,4,2,0,60,0,0
97269,-100,4,2,0,65,0,0
99338,-100,4,2,0,70,0,0
99855,-333.333333333333,4,2,0,65,0,0
101278,-100,4,2,0,60,0,0
101407,-100,4,2,1,70,0,0
105028,-90.9090909090909,4,2,1,70,0,0
105545,-100,4,2,1,70,0,0
109165,-125,4,2,1,70,0,0
109683,-100,4,2,1,70,0,0
117183,-100,4,1,1,70,0,0
117571,-100,4,2,1,70,0,0
117959,-100,4,2,1,75,0,0
126234,-133.333333333333,4,2,0,65,0,0
133476,-133.333333333333,4,3,0,65,0,0
134510,-80,4,1,1,80,0,0
148993,-100,4,1,1,65,0,0
150545,-133.333333333333,4,1,1,65,0,0
155200,-100,4,2,0,30,0,0
156234,-100,4,2,0,35,0,0
156752,-100,4,2,0,40,0,0
157269,-100,4,2,0,45,0,0
158303,-133.333333333333,4,2,1,45,0,0
159338,-80,4,2,1,75,0,0
165545,-100,4,2,0,70,0,0
166321,-100,4,2,1,70,0,0
166967,-100,4,2,0,70,0,0
167614,-80,4,2,1,75,0,0
173821,-100,4,2,1,55,0,0
175890,-80,4,1,1,85,0,0
190372,-100,4,1,1,70,0,0
191924,-100,4,1,1,75,0,0
192441,-80,4,1,1,85,0,0
206924,-100,4,1,1,70,0,0
207183,-100,4,2,1,25,0,0
213131,-100,4,2,1,5,0,0

[Colours]
Combo1 : 126,75,77
Combo2 : 117,119,83
Combo3 : 79,123,114
Combo4 : 109,77,125

[HitObjects]
44,292,2097,6,0,P|100:321|190:242,1,180.000006866455,0|8,1:0|0:2,0:0:0:0:
187,260,3390,1,0,1:0:0:0:
193,185,3648,1,8,0:0:0:0:
117,211,3907,1,0,0:0:0:0:
280,221,4165,6,0,P|278:146|258:70,1,135.000005149841,0|0,1:0|1:0,0:0:0:0:
265,60,4683,2,0,P|327:90|375:89,1,90.0000034332277,8|0,0:0|3:0,0:0:0:0:
424,61,5200,1,0,0:0:0:0:
367,9,5459,1,2,3:0:0:0:
367,9,5588,1,0,0:0:0:0:
367,9,5717,1,8,0:0:0:0:
437,50,5976,1,0,1:0:0:0:
468,128,6234,6,0,L|430:308,1,180.000006866455,0|8,1:0|0:0,0:0:0:0:
430,304,7528,1,0,1:0:0:0:
352,312,7786,1,8,0:0:0:0:
425,338,8045,1,0,3:0:0:0:
263,282,8303,5,0,0:0:0:0:
263,282,8821,1,0,3:0:0:0:
263,282,9338,1,0,0:0:0:0:
294,363,9597,1,2,3:0:0:0:
294,363,9726,1,0,0:0:0:0:
294,363,9855,1,8,0:0:0:0:
284,195,10114,1,0,1:0:0:0:
180,264,10372,6,0,L|66:267,1,90.0000034332277,4|0,1:0|1:0,0:0:0:0:
90,266,10760,1,0,1:0:0:0:
90,266,10890,1,8,0:0:0:0:
34,321,11148,1,2,0:0:0:0:
59,189,11407,2,0,L|82:84,1,90.0000034332277,0|0,0:0|1:0,0:0:0:0:
170,32,11924,2,0,L|183:144,1,90.0000034332277,8|0,0:0|1:0,0:0:0:0:
227,192,12441,6,0,P|293:197|313:118,1,135.000005149841,0|0,1:0|0:0,0:0:0:0:
322,115,12959,2,0,L|291:30,1,90.0000034332277,8|2,0:0|0:0,0:0:0:0:
439,146,13476,2,0,L|428:213,1,45.0000017166138,2|8,0:0|0:0,0:0:0:0:
375,238,13734,2,0,L|379:290,1,45.0000017166138,0|0,1:0|3:0,0:0:0:0:
448,323,13993,2,0,L|458:268,2,45.0000017166138,8|0|0,0:0|0:0|1:0,0:0:0:0:
286,349,14510,6,0,P|226:319|237:240,1,135.000005149841,0|0,1:0|1:0,0:0:0:0:
249,247,15028,2,0,L|147:241,1,90.0000034332277,8|0,0:0|1:0,0:0:0:0:
26,151,15545,2,0,L|123:157,1,90.0000034332277,8|2,0:0|0:0,0:0:0:0:
142,151,15933,1,0,3:0:0:0:
168,144,16062,1,0,1:0:0:0:
210,78,16321,1,0,1:0:0:0:
158,19,16579,5,2,3:0:0:0:
385,173,17097,1,0,1:0:0:0:
150,285,17614,1,0,1:0:0:0:
345,349,18131,5,0,1:0:0:0:
310,258,18390,1,0,0:0:0:0:
457,214,18648,5,4,0:0:0:0:
457,214,18778,2,0,P|477:295|463:374,1,143.999995605469,4|0,0:2|0:0,0:0:0:0:
380,330,19165,2,0,P|360:261|367:189,1,143.999995605469,8|4,0:0|0:2,0:0:0:0:
388,92,19553,1,0,0:0:0:0:
388,92,19683,2,0,P|348:106|300:120,1,71.9999978027344,0|0,0:2|0:0,0:0:0:0:
224,157,19941,5,4,0:2:0:0:
148,100,20071,1,0,2:0:0:0:
215,0,20200,2,0,L|225:111,1,71.9999978027344,8|0,0:0|0:0,0:0:0:0:
69,119,20459,2,0,L|54:18,1,71.9999978027344,0|0,0:0|0:0,0:0:0:0:
32,204,20717,5,4,0:0:0:0:
32,204,20847,2,0,P|100:248|185:236,1,143.999995605469,4|0,0:2|0:0,0:0:0:0:
281,307,21234,2,0,P|204:318|147:369,1,143.999995605469,8|2,0:0|0:3,0:0:0:0:
61,375,21622,1,0,0:0:0:0:
106,292,21752,1,2,0:3:0:0:
14,309,21881,1,8,0:2:0:0:
79,212,22010,2,0,L|-24:231,1,71.9999978027344,8|0,0:2|2:0,0:0:0:0:
69,123,22269,2,0,B|125:97|125:97|258:146,1,143.999995605469,12|0,0:0|0:0,0:0:0:0:
286,167,22657,1,0,0:0:0:0:
348,84,22786,6,0,L|338:-2,1,71.9999978027344,6|2,0:0|0:0,0:0:0:0:
453,224,23174,1,2,0:0:0:0:
453,224,23303,1,10,0:0:0:0:
453,224,23433,2,0,L|443:124,1,71.9999978027344,2|0,0:0|2:0,0:0:0:0:
353,241,23691,1,2,0:0:0:0:
353,241,23821,2,0,P|277:244|172:251,1,143.999995605469,2|4,0:0|0:2,0:0:0:0:
129,283,24209,1,0,0:0:0:0:
199,345,24338,1,8,0:0:0:0:
220,133,24597,1,4,0:2:0:0:
28,155,24855,6,2,P|104:144|107:18,1,215.999993408203,4|0,0:0|2:0,0:0:0:0:
52,69,25372,2,2,P|126:113|215:24,1,215.999993408203,8|0,0:0|0:0,0:0:0:0:
328,26,25890,2,0,P|316:59|304:114,1,71.9999978027344,2|0,0:3|0:0,0:0:0:0:
259,230,26148,2,0,P|250:195|238:161,1,71.9999978027344,8|8,0:2|0:2,0:0:0:0:
381,149,26407,5,8,0:0:0:0:
353,238,26536,1,8,0:2:0:0:
445,223,26665,5,8,0:2:0:0:
458,316,26795,1,8,0:2:0:0:
364,358,26924,5,4,0:0:0:0:
364,358,27053,2,0,L|385:185,1,143.999995605469,4|0,0:2|2:0,0:0:0:0:
297,90,27441,2,0,L|313:228,1,71.9999978027344,8|0,0:0|2:0,0:0:0:0:
205,102,27700,2,0,L|189:-36,1,71.9999978027344,2|0,0:3|0:0,0:0:0:0:
229,188,27959,2,0,L|245:326,1,71.9999978027344,2|0,0:3|2:0,0:0:0:0:
206,347,28217,1,4,0:2:0:0:
111,347,28347,1,0,0:0:0:0:
61,267,28476,2,0,L|148:246,1,71.9999978027344,8|0,0:0|0:0,0:0:0:0:
86,168,28734,2,0,L|-1:189,1,71.9999978027344,4|0,0:2|0:0,0:0:0:0:
34,72,28993,5,4,0:0:0:0:
34,72,29122,2,0,L|206:92,1,143.999995605469,4|0,0:2|2:0,0:0:0:0:
285,10,29510,2,0,L|185:-4,1,71.9999978027344,8|0,0:0|0:2,0:0:0:0:
297,93,29769,2,0,L|397:79,1,71.9999978027344,0|0,0:0|2:0,0:0:0:0:
478,162,30028,1,2,0:3:0:0:
394,183,30157,1,8,0:2:0:0:
357,261,30286,2,0,L|375:351,1,71.9999978027344,0|0,0:0|0:0,0:0:0:0:
283,367,30545,2,0,B|255:325|255:325|272:206,1,143.999995605469,8|4,0:0|0:2,0:0:0:0:
276,138,30933,1,0,2:0:0:0:
178,236,31062,5,6,0:0:0:0:
178,236,31191,2,0,P|86:270|18:272,1,143.999995605469,2|2,0:0|0:0,0:0:0:0:
27,180,31579,2,0,P|68:104|72:37,1,143.999995605469,10|2,0:0|2:3,0:0:0:0:
162,26,31967,1,2,0:0:0:0:
162,26,32097,2,0,P|167:71|174:115,1,71.9999978027344,2|0,0:0|2:0,0:0:0:0:
240,148,32355,1,4,0:2:0:0:
322,124,32484,1,0,0:0:0:0:
298,40,32614,1,8,0:0:0:0:
461,213,32872,1,4,0:2:0:0:
262,336,33131,5,4,1:3:0:0:
262,336,33260,1,4,1:3:0:0:
355,308,33519,1,2,0:3:0:0:
355,308,33648,1,8,1:0:0:0:
134,235,33907,1,0,3:0:0:0:
134,235,34036,1,8,0:2:0:0:
134,235,34165,2,2,L|114:393,2,120,2|4|8,1:3|0:3|1:3,0:0:0:0:
90,34,35200,6,0,L|175:34,1,60,4|0,1:0|0:0,0:0:0:0:
202,91,35459,2,0,L|284:87,1,60,0|0,1:0|0:0,0:0:0:0:
339,117,35717,1,8,0:0:0:0:
339,117,35847,2,0,P|333:169|328:254,1,120,2|0,0:2|0:0,0:0:0:0:
258,295,36234,2,0,P|247:232|232:155,2,120,2|0|8,0:0|1:0|0:0,0:0:0:0:
426,359,37010,6,0,P|467:298|472:267,1,60,0|0,1:0|0:0,0:0:0:0:
451,235,37269,2,0,P|412:233|375:240,1,60,0|0,1:0|0:0,0:0:0:0:
313,243,37528,1,2,1:0:0:0:
294,167,37657,1,2,1:2:0:0:
348,111,37786,2,0,L|383:44,2,60,10|2|0,0:0|1:0|1:0,0:0:0:0:
276,142,38174,1,0,0:0:0:0:
276,142,38303,2,0,P|211:120|195:62,1,120,2|0,0:3|1:0,0:0:0:0:
136,22,38691,1,0,0:0:0:0:
136,22,38821,2,0,L|51:36,1,60,8|0,0:0|0:0,0:0:0:0:
35,115,39079,2,0,L|108:99,1,60,2|0,1:0|0:0,0:0:0:0:
148,163,39338,6,0,L|114:327,1,120,4|0,1:0|0:0,0:0:0:0:
62,329,39726,1,0,1:0:0:0:
62,329,39855,2,0,L|31:258,1,60,8|0,0:0|0:0,0:0:0:0:
240,213,40243,1,0,1:0:0:0:
240,213,40372,2,0,L|226:288,1,60,2|0,0:0|0:0,0:0:0:0:
270,338,40631,1,0,1:0:0:0:
324,282,40760,1,0,1:0:0:0:
401,267,40890,2,2,L|498:278,1,60,8|0,0:0|0:0,0:0:0:0:
489,203,41148,2,0,L|418:195,1,60,0|0,1:0|0:0,0:0:0:0:
366,149,41407,5,0,1:0:0:0:
366,149,41536,2,0,P|308:179|215:186,1,120,2|0,0:0|1:0,0:0:0:0:
191,142,41924,1,8,0:0:0:0:
191,142,42053,2,0,L|208:9,1,120,0|0,1:0|1:0,0:0:0:0:
128,15,42441,2,0,P|64:24|-6:47,2,120,2|0|8,0:3|1:0|0:0,0:0:0:0:
305,88,43217,1,2,1:0:0:0:
217,256,43476,6,0,L|185:374,1,120,4|0,1:0|0:0,0:0:0:0:
113,363,43864,1,0,1:0:0:0:
113,363,43993,2,0,L|112:294,1,60,8|0,0:0|0:0,0:0:0:0:
41,268,44252,2,0,L|41:193,1,60,2|0,0:3|1:0,0:0:0:0:
79,140,44510,2,0,L|239:169,1,120,0|0,1:0|1:0,0:0:0:0:
268,129,44898,1,2,0:0:0:0:
268,129,45028,2,0,L|377:144,1,60,8|0,0:0|0:0,0:0:0:0:
376,77,45286,2,0,L|355:7,1,60,0|0,1:0|0:0,0:0:0:0:
470,88,45545,6,0,P|450:178|443:234,1,120,0|0,1:0|0:0,0:0:0:0:
367,212,45933,1,0,1:0:0:0:
367,212,46062,2,2,L|388:268,1,60,8|0,0:0|0:0,0:0:0:0:
420,348,46321,1,2,0:3:0:0:
420,348,46450,1,2,0:0:0:0:
420,348,46579,2,0,L|341:351,1,60,2|0,0:3|0:0,0:0:0:0:
243,309,46838,2,0,L|325:296,1,60,0|0,1:0|0:0,0:0:0:0:
252,217,47097,2,2,P|172:248|174:314,1,120,8|0,0:0|3:0,0:0:0:0:
39,364,47614,5,4,1:0:0:0:
39,364,47743,1,0,0:0:0:0:
39,364,47872,2,0,L|21:279,1,60,2|0,0:0|1:0,0:0:0:0:
85,253,48131,2,0,P|67:187|32:130,1,120,8|2,0:0|0:3,0:0:0:0:
18,70,48519,1,0,1:0:0:0:
18,70,48648,2,0,L|94:83,1,60,0|0,1:0|0:0,0:0:0:0:
165,117,48907,2,0,P|152:74|138:-5,2,120,0|8|0,1:0|0:0|1:0,0:0:0:0:
239,154,49553,5,0,0:0:0:0:
239,154,49683,2,0,P|311:124|314:83,1,120,0|2,1:0|0:0,0:0:0:0:
393,108,50071,1,0,1:0:0:0:
393,108,50200,2,2,L|365:249,1,140,8|0,0:0|0:0,0:0:0:0:
365,245,51234,5,8,0:0:0:0:
136,218,51493,1,0,1:0:0:0:
207,249,51622,1,8,0:0:0:0:
176,322,51752,6,0,L|155:391,1,60,4|0,1:0|0:0,0:0:0:0:
80,381,52010,2,0,L|103:302,1,60,0|0,1:0|1:0,0:0:0:0:
115,247,52269,2,0,P|47:255|-19:261,1,120,8|2,0:0|0:3,0:0:0:0:
17,184,52657,1,0,1:0:0:0:
17,184,52786,2,0,L|97:173,1,60,2|0,0:3|0:0,0:0:0:0:
125,117,53045,2,0,L|195:129,1,60,4|0,1:3|0:0,0:0:0:0:
263,141,53303,2,0,L|237:-1,1,120,8|4,0:0|1:3,0:0:0:0:
382,205,53821,5,2,1:0:0:0:
382,205,53950,1,0,0:0:0:0:
261,326,54209,1,2,1:0:0:0:
261,326,54338,1,8,0:0:0:0:
446,362,54597,2,0,L|427:295,1,60,2|0,0:3|1:0,0:0:0:0:
358,271,54855,2,0,L|355:358,2,60,2|0|4,0:3|0:0|1:3,0:0:0:0:
380,198,55243,1,0,0:0:0:0:
380,198,55372,2,2,L|499:221,1,120,8|0,0:0|0:0,0:1:0:0:
482,143,55760,1,0,0:0:0:0:
411,109,55890,6,0,L|305:128,1,60,4|0,1:0|0:0,0:0:0:0:
283,82,56148,2,0,L|300:14,1,60,0|0,1:0|1:0,0:0:0:0:
190,83,56407,1,8,0:0:0:0:
225,152,56536,1,0,0:0:0:0:
209,228,56665,2,0,L|189:309,1,60,2|0,0:3|1:0,0:0:0:0:
116,279,56924,2,0,L|109:211,2,60,2|0|4,0:0|0:0|1:3,0:0:0:0:
147,356,57312,1,0,0:0:0:0:
147,356,57441,2,0,P|241:358|257:320,1,120,8|4,0:0|1:3,0:0:0:0:
286,278,57829,1,0,0:0:0:0:
364,305,57959,5,0,1:0:0:0:
364,305,58088,2,0,L|345:384,1,60,2|2,1:0|0:3,0:0:0:0:
437,231,58347,1,2,1:0:0:0:
437,231,58476,2,0,L|452:310,1,60,8|2,0:0|0:0,0:0:0:0:
363,150,58734,2,0,L|347:239,1,60,0|4,1:0|0:3,0:0:0:0:
279,237,58993,6,0,P|198:239|202:97,1,240,0|8,1:2|0:0,0:0:0:0:
184,106,59769,1,0,1:0:0:0:
421,25,60028,6,0,L|483:30,1,60,4|0,1:0|0:0,0:0:0:0:
420,114,60286,1,2,0:3:0:0:
420,114,60415,1,0,1:0:0:0:
420,114,60545,2,0,P|346:102|286:91,1,120,8|2,0:0|0:3,0:0:0:0:
231,59,60933,1,0,1:0:0:0:
231,59,61062,2,0,L|79:93,1,120,2|4,0:3|1:3,0:0:0:0:
44,121,61450,1,2,0:0:0:0:
111,158,61579,2,0,L|95:224,1,60,8|0,0:0|0:0,0:0:0:0:
28,255,61838,2,0,L|19:195,1,60,4|0,1:3|0:0,0:0:0:0:
103,297,62097,5,2,1:0:0:0:
103,297,62226,2,0,P|188:307|231:277,1,120,0|2,0:0|1:0,0:0:0:0:
251,222,62614,2,0,L|201:177,2,60,8|0|2,0:0|0:0|0:3,0:0:0:0:
324,250,63002,1,0,0:0:0:0:
324,250,63131,2,0,L|406:244,1,60,2|0,1:3|0:0,0:0:0:0:
450,286,63390,1,4,1:3:0:0:
387,328,63519,1,0,1:0:0:0:
461,358,63648,2,2,L|465:167,1,180,8|0,0:0|0:0,0:1:0:0:
383,138,64165,5,4,1:0:0:0:
325,191,64295,2,2,P|263:227|181:246,1,120,2|0,1:0|0:0,0:0:0:0:
142,221,64683,2,0,L|151:148,1,60,8|2,0:0|0:0,0:0:0:0:
226,98,64941,2,0,L|220:162,1,60,2|0,0:3|1:0,0:0:0:0:
128,88,65200,2,0,P|44:96|5:86,1,120,0|4,1:0|1:3,0:0:0:0:
19,9,65588,1,2,0:0:0:0:
19,9,65717,2,0,L|96:13,1,60,8|0,0:0|0:0,0:0:0:0:
152,39,65976,1,4,1:3:0:0:
227,19,66105,1,0,1:0:0:0:
286,77,66234,5,0,1:0:0:0:
286,77,66364,2,0,L|206:104,1,60,2|2,0:0|0:3,0:0:0:0:
338,146,66622,1,4,1:3:0:0:
338,146,66752,1,8,0:0:0:0:
338,146,66881,2,0,L|420:116,1,60,0|2,0:0|0:3,0:0:0:0:
285,206,67140,1,2,0:0:0:0:
285,206,67269,2,0,L|146:257,1,120,2|4,0:3|1:3,0:0:0:0:
172,247,67657,1,0,0:0:0:0:
285,308,67786,6,2,B|366:282|366:282|466:353,1,180,8|0,0:0|0:0,0:1:0:0:
498,284,68303,6,0,L|510:165,1,90.0000034332277,0|2,1:0|0:0,0:0:0:0:
433,138,68821,1,8,0:0:0:0:
433,138,69338,1,0,3:0:0:0:
433,138,69855,5,8,0:0:0:0:
346,168,70114,1,0,1:0:0:0:
361,33,70372,2,0,L|344:182,1,135.000005149841,0|0,1:0|0:0,0:0:0:0:
252,133,70890,1,8,0:0:0:0:
258,225,71148,1,2,0:0:0:0:
144,237,71407,6,0,L|195:201,1,45.0000017166138,0|0,3:0|0:0,0:0:0:0:
258,225,71665,2,0,L|306:253,1,45.0000017166138,0|0,1:0|3:0,0:0:0:0:
323,322,71924,2,0,L|305:368,2,45.0000017166138,8|0|0,0:0|0:0|1:0,0:0:0:0:
323,157,72441,6,0,P|318:83|302:8,1,135.000005149841,0|0,1:0|0:0,0:0:0:0:
329,36,72959,2,0,L|422:49,1,90.0000034332277,8|2,0:0|0:0,0:0:0:0:
487,168,73476,2,0,L|382:189,1,90.0000034332277,8|2,0:0|0:0,0:0:0:0:
244,100,73993,1,0,1:0:0:0:
340,121,74252,1,2,0:0:0:0:
448,250,74510,6,0,P|434:311|429:350,1,90.0000034332277,2|0,0:3|3:0,0:0:0:0:
404,345,74898,1,0,0:0:0:0:
378,353,75028,1,0,1:0:0:0:
290,318,75286,1,2,0:0:0:0:
292,223,75545,1,0,1:0:0:0:
292,223,76062,5,2,1:0:0:0:
290,318,76321,1,2,1:0:0:0:
81,338,76579,6,0,P|74:267|49:193,1,150,4|0,0:0|0:0,0:0:0:0:
6,131,76967,1,0,0:0:0:0:
129,174,77097,2,0,L|155:17,1,150,8|4,0:0|0:2,0:0:0:0:
182,232,77614,5,0,0:2:0:0:
253,264,77743,1,0,0:0:0:0:
301,205,77872,1,4,0:2:0:0:
301,205,78002,1,0,2:0:0:0:
275,337,78131,2,0,P|358:328|393:329,1,75,8|0,0:0|2:0,0:0:0:0:
197,319,78390,2,0,P|159:321|122:327,1,75,0|0,0:0|2:0,0:0:0:0:
253,264,78648,6,0,P|264:182|254:107,1,150,4|0,0:0|0:0,0:0:0:0:
221,48,79036,1,0,0:0:0:0:
336,99,79165,2,0,P|420:120|486:238,1,225,8|0,0:0|0:0,0:0:0:0:
409,248,79683,1,2,0:3:0:0:
336,263,79812,1,8,0:2:0:0:
409,285,79941,2,0,L|428:364,1,75,8|0,0:2|2:0,0:0:0:0:
278,214,80200,6,0,P|288:176|311:113,1,75,12|0,0:0|2:0,0:0:0:0:
209,167,80459,2,0,P|199:129|176:66,1,75,0|0,0:0|2:0,0:0:0:0:
233,278,80717,5,6,0:0:0:0:
233,278,80847,2,0,P|145:291|83:315,1,150,2|2,0:0|0:0,0:0:0:0:
88,312,81234,2,0,L|100:227,1,75,10|0,0:0|2:0,0:0:0:0:
23,186,81493,1,2,1:0:0:0:
109,159,81622,1,2,0:0:0:0:
6,260,81752,2,0,L|16:343,1,75,2|0,0:0|0:0,0:0:0:0:
98,238,82010,2,0,L|110:159,1,75,2|2,0:3|0:1,0:0:0:0:
41,52,82269,1,8,0:0:0:0:
177,213,82528,1,2,0:3:0:0:
319,92,82786,5,4,0:0:0:0:
239,50,82915,1,2,0:0:0:0:
318,19,83045,1,0,0:0:0:0:
208,11,83174,1,0,1:0:0:0:
250,123,83303,2,2,P|265:161|277:203,1,75,10|0,0:0|2:0,0:0:0:0:
361,233,83562,1,2,0:3:0:0:
361,233,83691,1,2,0:0:0:0:
283,283,83821,6,0,P|257:314|227:346,1,75,2|0,0:0|2:0,0:0:0:0:
134,221,84079,2,0,P|174:227|216:237,1,75,8|0,0:2|2:0,0:0:0:0:
81,327,84338,2,0,P|66:289|53:247,1,75,8|0,0:0|2:0,0:0:0:0:
58,161,84597,1,8,0:2:0:0:
142,120,84726,1,8,0:2:0:0:
233,144,84855,6,0,P|306:113|378:65,1,150,4|0,0:0|0:0,0:0:0:0:
342,2,85243,1,0,1:0:0:0:
218,49,85372,2,0,P|186:144|179:217,1,150,8|2,0:0|0:3,0:0:0:0:
323,335,85890,5,2,0:3:0:0:
364,272,86019,1,0,2:0:0:0:
303,229,86148,2,0,L|219:254,1,75,4|0,0:2|0:0,0:0:0:0:
350,152,86407,1,8,0:0:0:0:
153,264,86665,1,4,0:2:0:0:
364,272,86924,6,0,P|444:272|526:278,1,150,4|0,0:0|0:0,0:0:0:0:
500,201,87312,1,0,1:0:0:0:
374,186,87441,2,0,P|301:217|224:247,1,150,8|0,0:0|0:0,0:0:0:0:
90,172,87959,1,2,0:3:0:0:
120,98,88088,1,8,0:2:0:0:
168,160,88217,2,0,L|156:247,1,75,0|0,0:0|0:0,0:0:0:0:
47,307,88476,6,0,P|29:223|16:192,1,75,8|0,0:0|2:0,0:0:0:0:
186,303,88734,2,0,P|176:339|171:376,1,75,4|0,0:2|2:0,0:0:0:0:
270,297,88993,5,6,0:0:0:0:
270,297,89122,1,2,0:0:0:0:
334,258,89252,2,0,P|328:220|319:184,1,75,2|2,0:0|0:0,0:0:0:0:
446,89,89510,2,0,P|462:43|484:3,2,75,10|0|2,0:0|0:0|1:0,0:0:0:0:
382,41,89898,1,2,0:0:0:0:
308,65,90028,2,0,L|220:73,1,75,2|0,0:0|2:0,0:0:0:0:
180,18,90286,1,4,0:2:0:0:
69,45,90415,5,0,0:0:0:0:
128,153,90545,2,0,L|137:65,1,75,8|0,0:0|0:0,0:0:0:0:
26,196,90803,2,0,L|41:277,1,75,4|0,0:2|2:0,0:0:0:0:
56,364,91062,5,4,1:3:0:0:
53,349,91191,1,4,1:3:0:0:
165,291,91450,1,2,0:3:0:0:
165,291,91579,1,8,1:0:0:0:
352,259,92097,1,2,1:3:0:0:
273,356,92355,1,4,0:3:0:0:
252,235,92614,2,0,P|243:174|275:-8,1,240,8|4,1:3|1:3,0:0:0:0:
271,0,94683,5,8,0:0:0:0:
326,58,94941,1,0,1:0:0:0:
275,170,95200,1,4,1:3:0:0:
275,170,96752,5,8,0:0:0:0:
256,94,97010,1,2,0:0:0:0:
410,154,97269,1,4,1:3:0:0:
410,154,98821,5,8,0:0:0:0:
344,195,99079,1,0,1:0:0:0:
132,189,99338,1,4,1:3:0:0:
132,189,99855,6,0,B|115:285|115:285|45:209,1,197.99999395752,8|0,0:0|1:0,0:0:0:0:
32,218,101407,6,0,P|26:148|36:85,1,120,4|0,1:0|1:0,0:0:0:0:
90,44,101795,1,0,0:0:0:0:
166,65,101924,2,0,L|239:78,2,60,8|2|0,0:0|1:2|0:0,0:0:0:0:
124,128,102312,1,0,1:0:0:0:
166,197,102441,2,0,P|233:222|260:268,1,120,2|0,1:2|1:0,0:0:0:0:
216,325,102829,1,2,0:0:0:0:
293,334,102959,2,0,P|349:317|384:270,2,120,8|0|0,0:0|0:0|1:0,0:0:0:0:
323,214,103734,5,0,1:0:0:0:
323,214,103864,1,2,1:2:0:0:
394,183,103993,2,0,P|406:155|413:126,1,60,8|0,0:0|0:0,0:0:0:0:
401,50,104252,1,0,1:0:0:0:
328,24,104381,1,2,0:0:0:0:
264,70,104510,2,0,P|272:102|283:126,2,60,2|0|0,0:3|1:0|1:0,0:0:0:0:
186,54,104898,1,2,1:2:0:0:
185,62,105028,2,0,P|196:146|191:277,1,198.000006042481,8|0,0:0|0:0,0:0:0:0:
127,299,105545,5,4,1:0:0:0:
326,255,105803,2,0,L|264:267,1,60,0|0,1:0|1:0,0:0:0:0:
225,334,106062,2,0,P|294:347|344:372,1,120,8|0,0:0|0:0,0:0:0:0:
193,258,106579,6,0,P|200:194|186:127,2,120,2|0|8,0:0|1:0|0:0,0:0:0:0:
55,132,107355,1,0,1:0:0:0:
213,0,107614,5,0,1:0:0:0:
260,61,107743,1,0,0:0:0:0:
235,134,107872,2,0,L|178:153,1,60,2|0,1:2|1:0,0:0:0:0:
128,91,108131,2,0,B|156:75|156:75|193:69,1,60,8|0,0:0|0:0,0:0:0:0:
260,61,108390,6,0,P|326:94|384:96,1,120,2|2,0:3|0:3,0:0:0:0:
335,169,108778,2,0,P|282:198|246:202,2,60,2|0|2,0:0|1:0|0:0,0:0:0:0:
235,134,109165,2,0,B|203:162|203:162|200:282,1,144,8|0,0:0|0:0,0:0:0:0:
198,341,109683,6,0,L|94:363,1,60,4|0,1:0|0:0,0:0:0:0:
266,302,109941,2,0,B|299:296|299:296|339:307,1,60,2|0,0:3|1:0,0:0:0:0:
384,352,110200,1,8,0:0:0:0:
431,298,110329,1,0,0:0:0:0:
431,298,110459,2,0,L|441:226,1,60,2|0,1:3|1:0,0:0:0:0:
375,192,110717,6,0,L|409:119,1,60,0|0,1:0|1:0,0:0:0:0:
288,70,110976,2,0,L|306:143,1,60,4|0,1:3|0:0,0:0:0:0:
371,66,111234,2,0,P|296:26|184:92,1,180,8|2,0:0|0:3,0:0:0:0:
141,91,111752,5,0,1:0:0:0:
375,192,112140,1,0,1:0:0:0:
375,192,112269,1,8,1:2:0:0:
161,245,112528,1,2,0:3:0:0:
161,245,112657,1,2,0:0:0:0:
161,245,112786,2,0,L|137:174,2,60,2|0|0,1:3|1:0|1:0,0:0:0:0:
9,112,113303,2,2,B|63:145|63:145|50:284,1,180,8|0,0:0|0:0,0:1:0:0:
42,270,113821,6,0,P|91:279|164:311,1,120,4|2,1:0|1:2,0:0:0:0:
213,357,114209,1,0,1:0:0:0:
249,290,114338,2,0,L|255:217,1,60,8|0,1:2|0:0,0:0:0:0:
204,169,114597,1,2,1:3:0:0:
341,243,114855,5,0,1:0:0:0:
401,286,114984,1,0,1:0:0:0:
450,230,115114,2,2,L|445:170,1,60,0|0,1:0|1:0,0:0:0:0:
390,121,115372,2,2,P|335:86|325:29,1,120,8|0,0:0|1:0,0:0:0:0:
454,19,115890,5,0,1:0:0:0:
454,19,116019,1,0,1:0:0:0:
478,106,116278,1,0,1:0:0:0:
478,106,116407,1,8,1:2:0:0:
321,149,116665,2,2,L|316:98,4,30,2|0|0|0|2,1:0|0:0|0:0|0:0|0:0,0:0:0:0:
409,155,117183,1,0,1:0:0:0:
243,198,117441,2,2,P|237:264|240:327,1,120,8|2,0:0|0:3,0:1:0:0:
311,351,117829,1,0,1:0:0:0:
154,292,117959,6,0,L|142:223,1,60,4|0,1:0|0:0,0:0:0:0:
253,138,118217,2,0,L|242:197,1,60,2|0,1:3|1:0,0:0:0:0:
171,161,118476,1,8,0:0:0:0:
171,161,118605,1,0,0:0:0:0:
332,183,118864,1,0,1:0:0:0:
332,183,118993,1,2,1:3:0:0:
202,79,119252,5,4,1:3:0:0:
300,258,119510,1,8,1:2:0:0:
421,72,119769,1,2,1:3:0:0:
291,108,120028,6,0,L|365:112,1,60,2|2,1:0|1:0,0:0:0:0:
123,96,120415,2,0,L|63:99,1,60,2|8,1:0|0:0,0:0:0:0:
239,169,120803,1,2,0:3:0:0:
239,169,120933,1,0,1:0:0:0:
239,169,121062,2,0,P|253:241|245:303,1,120,2|2,1:2|1:3,0:0:0:0:
182,327,121450,1,0,1:0:0:0:
182,327,121579,2,2,P|85:326|-4:363,1,180,8|0,0:0|0:0,0:1:0:0:
8,359,122097,6,0,L|22:280,1,60,4|0,1:0|0:0,0:0:0:0:
161,234,122355,2,0,L|152:169,1,60,2|0,1:0|1:0,0:0:0:0:
71,114,122614,1,8,1:2:0:0:
71,114,122743,1,0,1:0:0:0:
71,114,122872,2,0,L|73:36,1,60,2|0,1:3|1:0,0:0:0:0:
5,17,123131,2,2,P|-14:90|-13:122,1,60,0|0,1:0|0:0,0:0:0:0:
155,68,123390,2,0,P|148:38|137:10,1,60,4|2,1:3|1:3,0:0:0:0:
72,54,123648,1,8,1:2:0:0:
290,87,123907,1,4,1:3:0:0:
99,167,124165,6,0,P|85:235|90:306,1,120,0|2,1:0|0:3,0:0:0:0:
147,335,124553,1,2,1:0:0:0:
210,296,124683,2,0,P|277:288|355:300,1,120,8|2,0:0|1:3,0:0:0:0:
147,335,125200,5,0,0:0:0:0:
148,262,125329,1,2,0:0:0:0:
149,187,125459,2,2,L|80:210,1,60,4|2,0:0|1:0,0:0:0:0:
218,217,125717,2,2,P|238:147|206:41,1,180,8|0,0:0|0:0,0:1:0:0:
276,4,126234,5,0,1:0:0:0:
276,4,126364,2,0,P|359:50|400:42,1,135.000005149841,0|8,1:0|0:0,0:0:0:0:
469,15,127010,1,0,1:0:0:0:
463,93,127269,2,0,L|457:149,1,45.0000017166138,0|0,3:0|1:0,0:0:0:0:
394,181,127528,1,0,1:0:0:0:
394,181,127786,2,0,L|405:244,1,45.0000017166138,8|0,0:0|0:0,0:0:0:0:
307,183,128045,2,0,L|310:130,1,45.0000017166138,0|0,1:0|0:0,0:0:0:0:
230,229,128303,6,0,L|87:229,1,135.000005149841,0|0,1:0|0:0,0:0:0:0:
71,243,128821,1,8,0:0:0:0:
33,311,129079,2,0,L|59:356,1,45.0000017166138,2|0,0:0|0:0,0:0:0:0:
133,361,129338,2,0,L|167:311,1,45.0000017166138,0|0,3:0|0:0,0:0:0:0:
235,298,129597,1,0,1:0:0:0:
235,298,129726,1,0,3:0:0:0:
235,298,129855,2,0,P|267:325|312:353,1,90.0000034332277,8|0,0:0|1:0,0:0:0:0:
334,352,130243,1,0,0:0:0:0:
360,347,130372,6,0,L|411:337,1,45.0000017166138,0|0,1:0|0:0,0:0:0:0:
473,227,130760,1,0,0:0:0:0:
473,227,130890,2,0,L|401:244,1,45.0000017166138,8|0,0:0|0:0,0:0:0:0:
349,240,131148,2,0,L|358:151,2,90.0000034332277,2|8|2,0:0|0:0|0:0,0:0:0:0:
285,32,131924,5,0,1:0:0:0:
100,153,132183,1,2,0:0:0:0:
252,136,132441,2,0,L|171:89,1,90.0000034332277,2|0,0:3|3:0,0:0:0:0:
148,82,132829,1,0,0:0:0:0:
121,76,132959,1,0,1:0:0:0:
22,223,133217,1,2,0:0:0:0:
171,275,133476,1,0,1:0:0:0:
171,275,133993,5,0,1:0:0:0:
22,223,134252,1,0,0:0:0:0:
170,120,134510,6,0,B|293:79|264:182|409:134,1,225,4|0,0:0|0:0,0:0:0:0:
451,93,135028,2,0,P|439:57|416:4,1,75,8|0,0:0|1:0,0:0:0:0:
390,162,135286,1,0,0:0:0:0:
427,251,135415,1,0,1:0:0:0:
493,178,135545,1,0,0:2:0:0:
298,291,135803,1,4,0:2:0:0:
477,365,136062,1,8,0:0:0:0:
327,209,136321,6,0,P|289:203|233:206,1,75,0|0,0:0|2:0,0:0:0:0:
159,230,136579,1,4,0:0:0:0:
159,230,136709,2,0,P|163:279|183:393,1,150,4|0,0:2|0:0,0:0:0:0:
88,342,137097,2,0,P|81:293|78:246,1,75,8|0,0:0|2:0,0:0:0:0:
77,102,137355,2,0,P|84:151|87:198,1,75,2|0,0:3|0:0,0:0:0:0:
8,46,137614,1,2,0:3:0:0:
100,17,137743,1,8,0:2:0:0:
184,64,137872,2,0,P|223:68|259:61,1,75,8|0,0:2|2:0,0:0:0:0:
399,124,138131,2,0,P|299:149|248:186,1,150,12|0,0:0|0:0,0:0:0:0:
229,267,138519,1,0,2:0:0:0:
309,330,138648,5,6,0:0:0:0:
309,330,138778,2,0,P|376:363|434:369,1,75,2|0,0:0|2:0,0:0:0:0:
457,309,139035,1,2,0:0:0:0:
457,309,139165,2,0,P|448:263|431:206,1,75,10|0,0:0|2:0,0:0:0:0:
357,184,139424,1,2,1:0:0:0:
281,245,139553,1,2,0:0:0:0:
185,223,139683,2,0,L|110:202,1,75,2|0,0:0|2:0,0:0:0:0:
92,107,139941,2,0,L|167:128,1,75,2|0,0:3|2:0,0:0:0:0:
258,152,140200,2,0,P|232:61|194:15,1,150,8|2,0:0|0:3,0:0:0:0:
198,18,140588,1,0,1:0:0:0:
96,23,140717,5,4,0:0:0:0:
8,63,140847,1,2,2:1:0:0:
92,107,140976,2,0,L|82:195,1,75,0|0,0:0|1:0,0:0:0:0:
165,233,141234,2,2,P|94:213|3:252,1,150,10|2,0:0|0:3,0:0:0:0:
46,334,141622,1,2,0:0:0:0:
46,334,141752,2,0,P|88:340|139:336,1,75,2|0,0:0|2:0,0:0:0:0:
217,349,142010,1,8,0:2:0:0:
241,254,142140,1,0,2:0:0:0:
337,243,142269,2,0,L|350:337,1,75,8|0,0:0|0:0,0:0:0:0:
433,364,142528,2,0,L|443:289,1,75,8|8,0:2|0:2,0:0:0:0:
471,180,142786,6,0,P|380:209|315:164,1,150,4|0,0:0|0:0,0:0:0:0:
270,113,143174,1,0,1:0:0:0:
270,113,143303,2,0,P|279:60|291:-9,2,75,8|0|0,0:0|0:0|0:0,0:0:0:0:
188,165,143691,1,0,0:0:0:0:
188,165,143821,2,0,L|91:149,1,75,2|0,0:3|2:0,0:0:0:0:
50,226,144079,2,0,L|66:319,1,75,4|0,0:2|2:0,0:0:0:0:
129,371,144338,2,0,B|164:325|164:325|143:229,1,150,8|4,0:0|0:2,0:0:0:0:
144,234,144726,1,0,2:0:0:0:
110,143,144855,5,4,0:0:0:0:
21,183,144984,1,4,0:2:0:0:
38,86,145114,1,0,0:0:0:0:
133,56,145243,1,0,1:0:0:0:
133,56,145372,2,0,P|227:65|291:44,1,150,8|0,0:0|0:0,0:0:0:0:
279,49,145760,1,0,0:0:0:0:
376,60,145890,2,0,P|355:100|326:169,1,75,2|8,0:3|0:2,0:0:0:0:
392,210,146148,2,0,P|447:192|476:189,1,75,0|0,0:0|2:0,0:0:0:0:
287,215,146407,2,0,P|333:296|335:387,1,150,8|4,0:0|0:2,0:0:0:0:
339,351,146795,1,0,2:0:0:0:
223,368,146924,6,0,L|137:355,1,75,6|2,0:0|2:1,0:0:0:0:
68,300,147183,2,0,L|164:263,1,75,2|2,0:0|0:0,0:0:0:0:
204,202,147441,2,0,L|226:293,2,75,10|0|2,0:0|2:0|1:0,0:0:0:0:
122,133,147829,1,2,2:1:0:0:
122,133,147959,2,0,L|108:227,1,75,2|2,0:0|0:0,0:0:0:0:
41,93,148217,1,4,0:2:0:0:
126,45,148347,1,2,0:0:0:0:
221,60,148476,2,0,L|321:46,1,75,8|0,0:0|0:0,0:0:0:0:
411,113,148734,2,0,L|331:131,1,75,4|2,0:2|0:0,0:0:0:0:
243,223,148993,5,4,1:3:0:0:
243,223,149122,1,4,1:3:0:0:
336,361,149381,1,2,0:3:0:0:
336,361,149510,2,0,B|363:328|360:292|348:225,1,120,8|0,1:0|0:0,0:0:0:0:
128,242,150028,2,2,B|119:287|116:323|143:356,1,120,2|4,1:3|0:3,0:0:0:0:
243,223,150545,2,2,L|245:10,1,180.000006866455,2|4,1:0|1:3,0:0:0:0:
256,192,155200,12,8,157786,0:0:0:0:
241,126,158303,6,0,L|261:263,2,135.000005149841,2|0|0,0:0|3:0|1:0,0:0:0:0:
241,126,159338,5,4,1:0:0:0:
156,146,159467,1,0,0:0:0:0:
70,115,159597,2,0,P|81:156|82:194,1,75,2|0,1:3|0:0,0:0:0:0:
11,295,159855,2,0,P|42:313|75:338,3,75,8|0|2|0,1:0|0:0|1:3|1:0,0:0:0:0:
132,258,160372,6,0,P|213:243|317:248,1,150,4|2,1:3|0:3,0:0:0:0:
358,300,160760,1,0,1:0:0:0:
424,177,160890,2,0,P|392:194|354:210,1,75,8|0,1:0|0:0,0:0:0:0:
291,167,161148,1,2,1:3:0:0:
306,78,161278,1,0,1:0:0:0:
390,40,161407,6,0,L|473:50,1,75,4|0,1:0|0:0,0:0:0:0:
231,86,161665,2,0,L|305:77,1,75,2|0,1:3|1:0,0:0:0:0:
68,84,161924,2,0,P|88:52|102:13,2,75,8|0|2,1:0|0:0|1:3,0:0:0:0:
137,118,162312,1,0,1:0:0:0:
111,192,162441,2,0,B|84:239|84:239|119:351,1,150,4|2,1:3|1:3,0:0:0:0:
201,213,162829,1,0,0:0:0:0:
256,159,162958,2,0,B|282:206|282:206|254:297,1,150,8|2,1:0|0:3,0:0:0:0:
191,342,163347,1,0,1:0:0:0:
266,322,163476,6,0,L|360:340,1,75,4|0,1:3|0:0,0:0:0:0:
471,250,163734,2,0,L|397:264,1,75,2|0,1:3|0:0,0:0:0:0:
419,175,163993,2,0,B|431:153|431:153|424:94,3,75,8|0|2|0,1:0|0:0|0:3|1:0,0:0:0:0:
348,207,164510,6,0,P|261:175|237:111,1,150,4|2,1:3|1:3,0:0:0:0:
276,42,164898,1,0,0:0:0:0:
369,52,165028,2,0,L|429:107,1,75,8|0,1:0|0:0,0:0:0:0:
196,61,165286,1,4,0:3:0:0:
481,25,165545,5,4,1:3:0:0:
481,25,165803,1,0,0:0:0:0:
481,25,165933,1,2,1:3:0:0:
481,25,166062,1,8,1:2:0:0:
196,61,166321,1,2,0:3:0:0:
348,207,166709,1,4,1:3:0:0:
273,177,166967,1,0,1:0:0:0:
273,177,167097,2,2,B|266:180|266:180|259:180|259:180|251:183|251:183|245:187|245:187|236:187|236:187|231:191|231:191|225:191|225:191|211:197,1,60,8|0,1:2|0:0,0:1:0:0:
143,218,167355,2,2,B|136:221|136:221|129:221|129:221|121:224|121:224|115:228|115:228|106:228|106:228|101:232|101:232|95:232|95:232|81:238,1,60,2|0,0:0|0:0,0:1:0:0:
31,172,167614,6,0,P|53:78|85:15,1,150,4|2,1:0|1:3,0:0:0:0:
150,19,168002,1,0,1:0:0:0:
193,80,168131,2,0,L|167:165,1,75,8|0,1:0|0:0,0:0:0:0:
231,208,168390,2,0,L|260:126,1,75,2|0,0:3|1:0,0:0:0:0:
327,113,168648,5,4,1:3:0:0:
396,142,168778,1,0,0:0:0:0:
390,67,168907,2,0,L|294:66,1,75,2|0,1:3|0:0,0:0:0:0:
415,158,169165,2,0,L|499:158,1,75,8|0,1:0|0:0,0:0:0:0:
427,271,169424,1,2,1:3:0:0:
365,313,169553,1,0,1:0:0:0:
292,292,169683,6,0,P|235:225|264:159,1,150,4|2,1:2|0:3,0:0:0:0:
268,99,170071,1,0,1:0:0:0:
140,146,170200,2,0,P|85:153|42:147,1,75,8|0,1:0|0:0,0:0:0:0:
20,253,170459,2,0,P|75:246|118:252,1,75,2|0,0:3|1:0,0:0:0:0:
163,274,170717,1,2,1:3:0:0:
174,348,170847,1,0,0:0:0:0:
192,273,170976,2,0,P|187:234|193:185,1,75,4|0,1:3|1:0,0:0:0:0:
323,221,171234,2,0,P|329:305|327:384,1,150,8|2,1:0|1:3,0:0:0:0:
327,370,171622,1,0,1:0:0:0:
431,320,171752,5,4,1:3:0:0:
431,320,172010,2,0,P|476:303|507:288,1,75,2|0,1:3|0:0,0:0:0:0:
473,181,172269,2,0,P|437:213|414:239,1,75,8|0,1:0|0:0,0:0:0:0:
323,221,172528,2,0,P|336:186|353:152,1,75,2|0,1:3|0:0,0:0:0:0:
395,68,172786,5,4,1:3:0:0:
395,68,173045,2,0,L|479:95,1,75,2|0,0:3|1:0,0:0:0:0:
296,24,173303,2,0,P|222:76|267:171,1,150,8|2,1:0|0:3,0:0:0:0:
249,198,173691,1,0,0:0:0:0:
204,263,173821,6,0,L|125:258,1,60,0|2,1:0|1:3,0:0:0:0:
324,371,174209,1,0,1:0:0:0:
324,371,174338,1,2,1:3:0:0:
324,371,174467,2,0,L|403:376,1,60,0|0,1:2|0:0,0:0:0:0:
447,304,174726,1,2,1:3:0:0:
447,304,174855,2,0,L|368:299,1,60,0|0,1:0|1:0,0:0:0:0:
322,261,175114,2,0,L|331:167,1,60,2|0,1:3|0:0,0:0:0:0:
167,262,175372,2,0,B|206:300|206:300|187:400,1,120,4|0,1:2|0:0,0:0:0:0:
193,364,175760,1,0,0:0:0:0:
91,360,175890,6,0,L|76:200,1,150,4|0,0:0|0:0,0:0:0:0:
65,54,176278,1,0,0:0:0:0:
134,124,176407,2,0,B|215:148|215:148|241:217,1,150,8|0,0:0|0:0,0:0:0:0:
26,137,176924,1,0,0:2:0:0:
76,210,177053,1,0,0:0:0:0:
17,329,177183,2,0,L|3:244,1,75,4|0,0:2|0:0,0:0:0:0:
163,281,177441,2,0,L|142:359,1,75,8|0,0:0|2:0,0:0:0:0:
76,210,177700,2,0,P|110:122|144:93,1,75,4|0,0:2|0:0,0:0:0:0:
151,85,177959,5,4,0:0:0:0:
151,85,178088,2,0,P|225:54|312:51,1,150,4|0,0:2|0:0,0:0:0:0:
360,88,178476,2,0,B|331:166|331:166|351:250,1,150,8|2,0:0|0:3,0:0:0:0:
428,279,178864,1,0,0:0:0:0:
428,279,178993,5,2,0:3:0:0:
417,200,179122,1,8,0:2:0:0:
276,273,179252,2,0,P|306:305|328:336,1,75,8|0,0:2|2:0,0:0:0:0:
275,196,179510,2,0,P|232:205|120:195,1,150,12|4,0:0|0:2,0:0:0:0:
77,141,179898,1,0,0:0:0:0:
148,284,180028,6,0,L|109:358,1,75,6|2,0:0|0:0,0:0:0:0:
77,141,180415,1,2,0:0:0:0:
77,141,180545,2,0,L|111:207,1,75,10|0,0:0|0:0,0:0:0:0:
56,280,180803,1,2,1:0:0:0:
148,284,180933,1,2,0:0:0:0:
212,354,181062,6,0,P|269:303|310:288,1,75,2|0,0:0|0:0,0:0:0:0:
304,145,181321,2,0,P|319:219|312:262,1,75,2|2,0:3|0:1,0:0:0:0:
436,331,181579,2,0,P|363:307|329:279,1,75,8|0,0:0|0:0,0:0:0:0:
395,216,181838,2,0,P|431:223|465:239,1,75,2|0,0:3|0:0,0:0:0:0:
243,230,182097,5,4,0:0:0:0:
176,188,182226,1,2,2:1:0:0:
146,278,182355,1,0,0:0:0:0:
22,242,182484,1,0,1:0:0:0:
22,242,182614,6,2,L|28:137,1,75,10|0,0:0|2:0,0:0:0:0:
70,300,182872,1,2,0:3:0:0:
3,366,183002,1,2,0:0:0:0:
22,242,183131,6,0,L|31:77,1,150,2|8,0:0|0:2,0:0:0:0:
176,188,183519,1,0,0:0:0:0:
176,188,183648,1,8,0:0:0:0:
73,26,183907,1,8,0:2:0:0:
150,45,184036,1,8,0:2:0:0:
220,6,184165,5,4,0:0:0:0:
280,51,184295,2,0,P|337:91|307:186,1,150,4|0,0:2|1:0,0:0:0:0:
259,188,184683,1,8,0:0:0:0:
383,250,184812,2,0,P|326:290|356:385,1,150,0|0,0:0|0:0,0:0:0:0:
245,378,185200,1,2,0:3:0:0:
245,378,185459,2,0,L|171:350,1,75,4|0,0:2|2:0,0:0:0:0:
29,289,185717,2,0,B|110:311|189:229,1,150,8|4,0:0|0:2,0:0:0:0:
243,197,186105,1,0,2:0:0:0:
218,110,186234,5,4,0:0:0:0:
345,229,186364,2,0,P|372:146|348:66,1,150,4|0,1:2|1:0,0:0:0:0:
324,19,186752,1,8,0:0:0:0:
252,40,186881,1,0,0:0:0:0:
279,109,187010,2,0,L|256:205,1,75,0|0,0:0|0:0,0:0:0:0:
176,231,187269,2,0,L|154:144,2,75,2|8|0,0:3|0:2|0:0,0:0:0:0:
222,308,187657,1,0,0:0:0:0:
222,308,187786,2,0,L|330:290,1,75,8|0,0:0|2:0,0:0:0:0:
416,348,188045,2,0,L|308:366,1,75,4|0,0:2|2:0,0:0:0:0:
379,235,188303,5,6,0:0:0:0:
464,264,188433,1,2,1:2:0:0:
462,174,188562,2,0,L|451:84,1,75,2|2,0:0|0:0,0:0:0:0:
382,42,188821,2,0,L|368:140,1,75,10|2,0:0|0:0,0:0:0:0:
299,170,189079,2,0,L|279:69,1,75,2|2,1:0|0:0,0:0:0:0:
249,29,189338,1,2,0:0:0:0:
204,95,189467,1,0,0:0:0:0:
221,21,189597,1,4,0:2:0:0:
162,160,189726,2,0,P|85:176|23:120,1,150,2|2,0:0|0:0,0:0:0:0:
39,273,190114,2,0,P|81:271|135:280,1,75,4|0,0:2|2:0,0:0:0:0:
206,340,190372,5,4,1:3:0:0:
206,340,190502,1,4,1:3:0:0:
206,340,190631,2,0,L|234:257,1,60,4|0,1:2|2:0,0:0:0:0:
299,240,190890,2,0,P|312:312|362:370,1,120,8|4,0:2|1:2,0:0:0:0:
415,358,191278,1,0,1:0:0:0:
477,311,191407,2,0,P|472:260|431:182,2,120,0|4|8,1:0|1:3|0:0,0:0:0:0:
365,130,192183,1,4,0:3:0:0:
441,124,192441,6,0,P|384:187|376:258,1,150,4|0,0:0|2:0,0:0:0:0:
312,297,192829,1,0,0:0:0:0:
203,225,192959,2,0,B|237:293|237:293|221:369,1,150,8|0,0:0|2:0,0:0:0:0:
33,287,193476,5,0,0:2:0:0:
101,252,193605,1,0,0:0:0:0:
153,308,193734,2,0,L|127:381,1,75,4|0,0:2|0:0,0:0:0:0:
203,225,193993,2,0,P|254:162|248:91,1,150,8|4,0:0|0:2,0:0:0:0:
190,47,194381,1,0,2:0:0:0:
29,41,194510,5,4,0:0:0:0:
29,41,194640,2,0,P|50:87|78:194,1,150,4|0,0:2|0:0,0:0:0:0:
27,278,195028,2,0,P|113:246|176:237,1,150,8|0,0:0|0:0,0:0:0:0:
372,299,195545,5,2,0:3:0:0:
296,283,195674,1,8,0:2:0:0:
248,222,195803,2,0,P|285:209|337:181,1,75,8|0,0:2|0:0,0:0:0:0:
375,137,196062,6,0,L|403:61,1,75,12|0,0:0|2:0,0:0:0:0:
474,222,196321,2,0,L|465:136,1,75,4|0,0:2|2:0,0:0:0:0:
298,120,196579,5,6,0:0:0:0:
298,120,196709,1,2,0:0:0:0:
467,31,196967,1,2,0:0:0:0:
400,66,197097,2,0,L|379:146,1,75,10|0,0:0|2:0,0:0:0:0:
249,187,197355,1,2,1:0:0:0:
328,193,197484,1,2,0:0:0:0:
180,227,197614,2,0,L|160:154,1,75,2|0,0:0|2:0,0:0:0:0:
199,87,197872,1,2,0:3:0:0:
199,87,198002,1,2,1:1:0:0:
90,217,198131,6,0,B|66:248|66:248|54:282,1,75,8|0,0:0|2:0,0:0:0:0:
294,320,198390,2,0,B|282:286|282:286|258:256,1,75,2|0,0:3|0:0,0:0:0:0:
130,331,198648,5,4,0:0:0:0:
189,279,198778,1,2,2:1:0:0:
174,202,198907,1,0,0:0:0:0:
200,182,199036,1,0,1:0:0:0:
282,68,199165,6,2,P|261:112|258:150,1,75,10|0,0:0|2:0,0:0:0:0:
304,194,199424,1,2,0:3:0:0:
415,174,199553,5,2,0:0:0:0:
478,219,199683,2,0,P|494:251|502:288,1,75,2|0,0:0|2:0,0:0:0:0:
320,299,199941,5,8,0:2:0:0:
366,239,200071,1,0,0:0:0:0:
428,281,200200,1,8,0:0:0:0:
381,341,200330,5,0,0:0:0:0:
246,318,200459,1,8,0:2:0:0:
304,194,200588,1,8,0:2:0:0:
257,137,200717,5,4,0:0:0:0:
185,166,200847,2,0,P|75:169|14:142,1,150,4|0,0:2|1:0,0:0:0:0:
16,80,201234,2,0,P|56:63|98:56,2,75,8|0|2,0:0|0:0|2:3,0:0:0:0:
163,95,201622,1,0,0:0:0:0:
163,95,201752,2,0,P|212:86|274:64,1,75,2|0,0:3|0:0,0:0:0:0:
302,118,202010,2,0,P|292:154|285:191,1,75,4|0,0:2|2:0,0:0:0:0:
345,261,202269,2,0,P|405:178|455:140,1,150,8|4,0:0|0:2,0:0:0:0:
441,148,202657,1,0,0:0:0:0:
493,82,202786,5,4,0:0:0:0:
412,32,202915,2,0,P|341:46|244:51,1,150,4|0,1:2|1:0,0:0:0:0:
193,78,203303,1,8,0:0:0:0:
267,141,203433,1,0,0:0:0:0:
178,119,203562,2,0,L|191:31,1,75,0|0,0:0|0:0,0:0:0:0:
96,176,203821,5,2,0:3:0:0:
158,216,203950,1,8,0:2:0:0:
176,288,204079,2,0,L|134:382,1,75,0|0,0:0|0:0,0:0:0:0:
70,348,204338,2,0,B|43:309|43:309|78:196,1,150,8|4,0:0|0:2,0:0:0:0:
391,188,204855,6,0,L|356:306,1,75,6|2,0:0|0:0,0:0:0:0:
458,309,205114,2,0,L|479:237,1,75,2|2,0:0|0:0,0:0:0:0:
395,363,205372,2,0,L|300:335,1,75,10|0,0:0|2:0,0:0:0:0:
206,281,205631,2,0,L|303:256,1,75,2|2,1:0|0:0,0:0:0:0:
319,170,205890,1,2,0:0:0:0:
287,85,206019,1,2,1:0:0:0:
197,77,206148,1,4,1:2:0:0:
142,149,206278,1,2,1:0:0:0:
57,117,206407,6,0,L|46:22,1,75,8|0,0:0|2:0,0:0:0:0:
194,117,206665,2,0,L|185:191,1,75,2|0,0:0|2:0,0:0:0:0:
82,264,206924,1,4,1:3:0:0:
82,264,207053,1,0,0:0:0:0:
256,192,207183,12,0,213131,0:0:0:0:
