osu file format v14

[General]
AudioFilename: audio.mp3
AudioLeadIn: 0
PreviewTime: 45165
Countdown: 0
SampleSet: Soft
StackLeniency: 0.6
Mode: 0
LetterboxInBreaks: 0
WidescreenStoryboard: 1

[Editor]
Bookmarks: 11676,22839,34002,39583,41676,43769,45165,55107,67490,87025,94176,105339
DistanceSpacing: 1
BeatDivisor: 8
GridSize: 4
TimelineZoom: 2.3

[Metadata]
Title:Pulsar
TitleUnicode:Pulsar
Artist:Celldweller
ArtistUnicode:Celldweller
Creator:Pachiru
Version:Normal
Source:osu!
Tags:instrumental electronic rock klayton circle of dust scandroid soundtrack for the voices in my head vol. volume 02 fa featured artist mg mappers' guild daycore
BeatmapID:2277394
BeatmapSetID:1081119

[Difficulty]
HPDrainRate:3
CircleSize:3
OverallDifficulty:4
ApproachRate:5
SliderMultiplier:1.8
SliderTickRate:1

[Events]
//Background and Video events
0,0,"galaxy-3608029_1920.jpg",0,0
//Break Periods
2,87225,88616
//Storyboard Layer 0 (Background)
//Storyboard Layer 1 (Fail)
//Storyboard Layer 2 (Pass)
//Storyboard Layer 3 (Foreground)
//Storyboard Layer 4 (Overlay)
//Storyboard Sound Samples

[TimingPoints]
514,697.674418604651,4,2,1,30,1,0
11676,-100,4,2,1,50,0,0
22839,-100,4,2,2,70,0,0
34002,-100,4,2,3,40,0,0
41676,-100,4,2,3,50,0,0
42374,-100,4,2,3,52,0,0
42548,-100,4,2,3,54,0,0
42723,-100,4,2,3,56,0,0
42897,-100,4,2,3,58,0,0
43072,-100,4,2,3,60,0,0
43420,-100,4,2,3,65,0,0
43769,-100,4,2,3,70,0,0
44118,-100,4,2,3,5,0,0
45165,-100,4,2,1,90,0,1
56327,-100,4,2,1,80,0,0
67490,-100,4,2,1,70,0,0
87025,-100,4,2,1,60,0,0
89816,-100,4,2,1,85,0,0
95397,-100,4,2,1,90,0,1
106560,-100,4,2,1,80,0,0

[Colours]
Combo1 : 0,121,242
Combo2 : 0,0,185
Combo3 : 143,62,234
Combo4 : 187,61,0

[HitObjects]
424,336,514,5,0,0:0:0:0:
424,336,862,2,0,P|420:295|366:214,1,135,2|2,0:0|0:0,0:0:0:0:
404,86,1909,2,0,P|362:82|273:121,1,135,2|2,0:0|0:0,0:0:0:0:
198,227,2955,2,0,L|203:286,2,45,2|2|0,0:0|0:0|0:0,0:0:0:0:
147,152,3653,2,0,B|72:147|94:192|20:182,2,135,2|2|2,0:0|0:0|0:0,0:0:0:0:
147,152,6095,5,0,0:0:0:0:
147,152,6444,2,0,P|187:204|196:270,1,135,2|2,0:0|0:0,0:0:0:0:
296,360,7490,2,0,P|304:293|345:241,1,135,2|2,0:0|0:0,0:0:0:0:
452,159,8537,2,0,L|512:166,2,45,2|2|0,0:0|0:0|0:0,0:0:0:0:
379,106,9234,2,0,B|334:90|334:90|235:120,2,135,2|2|2,0:0|0:0|0:0,0:0:0:0:
379,106,11676,5,2,0:0:0:0:
301,60,12025,2,0,P|234:58|178:94,1,135,2|2,0:0|0:0,0:0:0:0:
67,171,13072,2,0,P|113:218|178:232,1,135,2|2,0:0|0:0,0:0:0:0:
278,142,14118,2,0,L|274:90,2,45,2|2|0,0:0|0:0|0:0,0:0:0:0:
344,202,14816,2,0,B|318:243|318:243|330:333,1,135,2|2,0:0|0:0,0:0:0:0:
195,343,15862,2,0,B|185:257|185:257|150:223,1,135,2|2,0:0|0:0,0:0:0:0:
49,133,16909,6,0,L|6:145,2,45,2|2|2,0:0|0:0|0:0,0:0:0:0:
102,60,17607,2,0,P|138:92|231:90,1,135,2|2,0:0|0:0,0:0:0:0:
347,45,18653,2,0,P|411:31|470:61,1,135,2|2,0:0|0:0,0:0:0:0:
397,174,19700,2,0,L|388:231,2,45,2|2|0,0:0|0:0|0:0,0:0:0:0:
308,159,20397,2,0,L|290:293,1,135,2|2,0:0|0:0,0:0:0:0:
182,374,21444,2,0,L|164:240,1,135,2|2,0:0|0:0,0:0:0:0:
215,115,22490,2,0,L|205:57,1,45,2|2,0:0|0:0,0:0:0:0:
200,25,22839,6,0,P|153:20|110:44,2,90,4|2|8,0:3|0:3|0:0,0:0:0:0:
284,57,23886,1,2,0:3:0:0:
372,39,24234,2,0,L|364:-21,2,45,2|4|4,0:0|0:3|0:3,0:0:0:0:
386,129,24932,1,8,0:0:0:0:
334,202,25281,1,2,0:3:0:0:
392,270,25630,6,0,P|428:294|485:290,2,90,4|2|8,0:3|0:3|0:0,0:0:0:0:
342,341,26676,1,2,0:3:0:0:
266,292,27025,2,0,L|271:234,1,45,2|4,0:0|0:3,0:0:0:0:
181,229,27548,2,0,L|169:168,1,45,0|8,0:0|0:0,0:0:0:0:
226,112,28072,1,2,0:3:0:0:
154,59,28420,6,0,B|120:43|120:43|61:52,2,90,4|2|8,0:3|0:3|0:0,0:0:0:0:
226,112,29467,1,2,0:3:0:0:
172,184,29816,2,0,L|117:179,2,45,2|4|4,0:0|0:3|0:3,0:0:0:0:
244,237,30513,1,8,0:0:0:0:
302,168,30862,1,2,0:3:0:0:
381,209,31211,6,0,P|393:180|371:112,2,90,4|2|8,0:3|0:3|0:0,0:0:0:0:
324,279,32258,1,2,0:3:0:0:
244,237,32607,2,0,L|251:179,2,45,2|4|4,0:0|0:3|0:3,0:0:0:0:
236,326,33304,1,8,0:0:0:0:
236,326,33653,1,2,0:3:0:0:
159,278,34002,6,0,P|121:263|56:270,1,90,6|0,0:3|0:0,0:0:0:0:
86,175,34700,2,0,P|45:179|-8:216,1,90,6|0,0:3|0:0,0:0:0:0:
72,264,35397,6,0,P|110:262|155:233,1,90,6|0,0:3|0:0,0:0:0:0:
194,315,36095,2,0,P|223:291|242:241,1,90,6|0,0:3|0:0,0:0:0:0:
247,153,36793,6,0,B|210:136|210:136|148:143,2,90,6|0|6,0:3|0:0|0:3,0:0:0:0:
321,203,37839,1,0,0:0:0:0:
384,138,38188,2,0,L|377:86,1,45,14|0,0:3|0:0,0:0:0:0:
467,81,38711,2,0,L|473:125,1,45,0|6,0:0|0:3,0:0:0:0:
442,210,39234,1,0,0:0:0:0:
353,228,39583,6,0,B|324:234|324:234|304:251|304:251|268:259,1,90,4|4,0:3|0:3,0:0:0:0:
213,328,40281,2,0,B|179:320|179:320|159:303|159:303|130:297,1,90,4|4,0:3|0:3,0:0:0:0:
107,210,40979,2,0,P|112:182|133:159,1,45,4|0,0:3|0:0,0:0:0:0:
208,145,41502,2,0,P|233:156|251:181,1,45,0|0,0:0|1:0,0:0:0:0:
292,245,42025,1,0,1:0:0:0:
236,316,42374,5,0,1:0:0:0:
236,316,42723,1,0,1:0:0:0:
157,272,43072,1,0,1:0:0:0:
157,272,43420,1,0,1:0:0:0:
76,312,43769,5,4,2:0:0:0:
106,112,45165,6,0,P|85:74|32:43,2,90,4|4|0,0:0|0:3|1:0,0:0:0:0:
116,155,46037,1,4,0:3:0:0:
89,240,46386,2,0,P|133:244|184:211,1,90,4|4,0:3|0:3,0:0:0:0:
202,190,46909,1,4,0:3:0:0:
286,221,47258,1,0,1:0:0:0:
431,114,47955,6,0,P|420:68|433:23,2,90,4|4|0,0:3|0:3|1:0,0:0:0:0:
457,150,48827,1,4,0:3:0:0:
402,222,49176,2,0,B|354:211|354:211|304:226,1,90,4|4,0:3|0:3,0:0:0:0:
272,239,49700,1,4,0:3:0:0:
188,206,50048,2,0,P|172:222|166:243,2,45,0|8|8,1:0|0:3|0:3,0:0:0:0:
219,121,50746,6,0,B|163:133|185:104|116:120,2,90,4|4|0,0:0|0:3|1:0,0:0:0:0:
260,102,51618,1,4,0:3:0:0:
335,151,51967,2,0,P|306:187|294:245,1,90,4|4,0:3|0:3,0:0:0:0:
291,273,52490,1,4,0:3:0:0:
207,238,52839,1,0,1:0:0:0:
63,342,53537,6,0,P|29:314|22:256,2,90,4|4|0,0:3|0:3|1:0,0:0:0:0:
105,357,54409,1,4,0:3:0:0:
173,298,54758,2,0,L|166:198,1,90,4|0,0:3|1:0,0:0:0:0:
164,163,55281,1,0,1:0:0:0:
215,89,55630,2,0,P|238:80|268:83,1,45,0|0,1:0|1:0,0:0:0:0:
299,98,55979,2,0,P|321:97|342:89,1,45,12|12,0:3|0:3,0:0:0:0:
376,59,56327,5,4,0:0:0:0:
278,210,57025,2,0,P|214:184|139:195,2,135,4|4|4,1:3|1:3|1:3,0:0:0:0:
387,130,58595,2,2,P|413:191|413:258,1,135,0|4,1:3|1:2,0:0:0:0:
250,335,59816,6,0,B|204:312|204:312|118:325,2,135,4|4|4,1:3|1:3|1:3,0:0:0:0:
375,285,61386,2,2,P|375:215|414:156,1,135,2|4,1:3|1:2,0:0:0:0:
286,28,62607,6,0,B|326:24|349:45|349:45|371:63|416:58,2,135,4|4|4,1:3|1:3|1:3,0:0:0:0:
171,99,64176,2,2,P|136:80|176:11,1,135,2|0,1:3|1:2,0:0:0:0:
215,185,65397,6,0,B|248:206|256:239|256:239|261:207|305:177,1,135,0|4,1:0|1:3,0:0:0:0:
174,253,67490,6,0,P|154:228|86:207,2,90,4|4|0,0:0|0:3|1:0,0:0:0:0:
185,296,68362,1,4,0:3:0:0:
285,205,68886,2,0,P|253:153|186:104,2,135,4|4|0,0:3|0:3|1:0,0:0:0:0:
342,274,70281,6,0,B|378:301|378:301|436:292,2,90,4|4|0,0:3|0:3|1:0,0:0:0:0:
305,247,71153,1,4,0:3:0:0:
200,332,71676,2,0,B|163:336|143:310|143:310|120:278|67:286,2,135,4|4|0,0:3|0:3|1:0,0:0:0:0:
268,273,73072,6,0,L|259:162,2,90,4|4|0,0:3|0:3|1:0,0:0:0:0:
295,308,73944,1,4,0:3:0:0:
415,247,74467,2,0,P|457:276|483:364,2,135,4|4|0,0:3|0:3|1:0,0:0:0:0:
402,157,75862,6,0,P|364:165|324:217,2,90,4|4|0,0:3|0:3|1:0,0:0:0:0:
447,160,76734,1,4,0:3:0:0:
351,63,77258,2,0,P|414:55|489:77,2,135,4|4|0,0:3|0:3|1:0,0:0:0:0:
262,78,78653,6,0,P|264:43|302:-6,2,90,4|4|0,0:3|0:3|1:0,0:0:0:0:
271,122,79525,1,4,0:3:0:0:
329,243,80048,2,0,B|371:260|371:260|466:245,2,135,4|4|0,0:3|0:3|1:0,0:0:0:0:
246,205,81444,6,0,P|232:239|231:302,2,90,4|4|0,0:3|0:3|1:0,0:0:0:0:
270,166,82316,1,4,0:3:0:0:
170,74,82839,2,0,P|128:99|41:110,2,135,4|4|0,0:3|0:3|1:0,0:0:0:0:
251,111,84234,6,0,P|260:75|244:24,2,90,4|4|0,0:3|0:3|1:0,0:0:0:0:
231,152,85107,1,4,0:3:0:0:
112,216,85630,2,0,B|151:205|180:230|180:230|209:252|247:241,2,135,4|4|0,0:3|0:3|1:0,0:0:0:0:
35,263,87025,5,0,0:0:0:0:
35,263,89816,6,0,P|82:262|128:240,1,90,0|0,1:0|1:0,0:0:0:0:
192,190,90513,2,0,P|241:195|275:219,1,90,0|0,1:0|1:0,0:0:0:0:
336,282,91211,1,0,1:0:0:0:
336,282,91560,1,0,1:0:0:0:
414,235,91909,1,0,1:0:0:0:
414,235,92258,1,0,1:0:0:0:
375,153,92607,6,0,P|357:113|356:66,1,90,0|0,1:0|1:0,0:0:0:0:
441,41,93304,2,0,P|471:73|487:115,1,90,0|0,1:0|1:0,0:0:0:0:
456,199,94002,1,0,1:0:0:0:
375,153,94351,1,0,1:0:0:0:
317,222,94700,2,0,P|304:230|274:240,2,45,0|0|8,1:0|1:0|0:3,0:0:0:0:
261,151,95397,6,0,P|248:119|245:47,2,90,4|4|0,0:0|0:3|1:0,0:0:0:0:
279,192,96269,1,4,0:3:0:0:
366,169,96618,2,0,P|409:171|451:211,1,90,4|4,0:3|0:3,0:0:0:0:
467,238,97141,1,4,0:3:0:0:
410,308,97490,1,0,1:0:0:0:
247,230,98188,6,0,L|149:238,2,90,4|4|0,0:3|0:3|1:0,0:0:0:0:
279,198,99060,1,4,0:3:0:0:
363,229,99409,2,0,P|389:260|404:323,1,90,4|0,0:3|1:0,0:0:0:0:
411,351,99932,1,0,1:0:0:0:
490,309,100281,2,0,L|497:258,1,45,0|0,1:0|1:0,0:0:0:0:
474,224,100630,2,0,L|467:173,1,45,4|4,0:3|0:3,0:0:0:0:
441,142,100979,6,0,B|459:108|459:108|444:41,2,90,4|4|0,0:0|0:3|1:0,0:0:0:0:
418,181,101851,1,4,0:3:0:0:
339,136,102200,2,0,B|244:148,1,90,4|4,0:3|0:3,0:0:0:0:
208,157,102723,1,4,0:3:0:0:
137,100,103072,1,0,1:0:0:0:
47,256,103769,6,0,P|21:236|5:173,2,90,4|4|0,0:3|0:3|1:0,0:0:0:0:
90,268,104641,1,4,0:3:0:0:
155,206,104990,2,0,P|173:232|179:293,1,90,4|0,0:3|1:0,0:0:0:0:
173,333,105513,1,8,0:3:0:0:
260,310,105862,1,8,0:3:0:0:
332,363,106211,1,8,0:3:0:0:
381,287,106560,5,4,0:0:0:0:
262,151,107258,2,0,B|301:142|329:164|329:164|357:187|397:177,2,135,4|4|4,1:3|1:3|1:3,0:0:0:0:
147,222,108827,2,2,P|108:211|142:132,1,135,0|4,1:3|1:2,0:0:0:0:
251,261,110048,6,0,P|226:289|201:383,2,135,4|4|4,1:3|1:3|1:3,0:0:0:0:
352,171,111618,2,2,P|328:128|251:76,1,135,2|4,1:3|1:2,0:0:0:0:
96,155,112839,6,0,B|71:111|71:111|100:21,2,135,4|4|4,1:3|1:3|1:3,0:0:0:0:
174,265,114409,2,2,B|213:255|241:278|241:278|273:301|309:288,1,135,0|4,1:3|1:3,0:0:0:0:
423,158,115630,5,4,1:3:0:0:
332,57,116153,1,4,1:3:0:0:
321,191,116676,1,4,1:3:0:0:
227,92,117200,1,0,1:3:0:0:
212,226,117723,1,4,1:3:0:0:
57,134,118420,6,0,B|69:176|69:176|55:220|55:220|67:263,1,135,4|4,1:3|1:3,0:0:0:0:
