osu file format v14

[General]
AudioFilename: audio.mp3
AudioLeadIn: 0
PreviewTime: 45165
Countdown: 0
SampleSet: Soft
StackLeniency: 0.2
Mode: 0
LetterboxInBreaks: 0
WidescreenStoryboard: 0

[Editor]
Bookmarks: 22839,34002,39583,41676,43769,45165,55107,67490,87025,94176,105339
DistanceSpacing: 0.8
BeatDivisor: 8
GridSize: 4
TimelineZoom: 2.3

[Metadata]
Title:Pulsar
TitleUnicode:Pulsar
Artist:Celldweller
ArtistUnicode:Celldweller
Creator:Pachiru
Version:Insane
Source:osu!
Tags:instrumental electronic rock klayton circle of dust scandroid soundtrack for the voices in my head vol. volume 02 fa featured artist mg mappers' guild daycore
BeatmapID:2261710
BeatmapSetID:1081119

[Difficulty]
HPDrainRate:6
CircleSize:4
OverallDifficulty:7.5
ApproachRate:9
SliderMultiplier:2.6
SliderTickRate:1

[Events]
//Background and Video events
0,0,"galaxy-3608029_1920.jpg",0,0
//Break Periods
//Storyboard Layer 0 (Background)
//Storyboard Layer 1 (Fail)
//Storyboard Layer 2 (Pass)
//Storyboard Layer 3 (Foreground)
//Storyboard Layer 4 (Overlay)
//Storyboard Sound Samples

[TimingPoints]
514,697.674418604651,4,2,1,30,1,0
514,-133.333333333333,4,2,1,30,0,0
11676,-100,4,2,1,50,0,0
22839,-100,4,2,2,70,0,0
34002,-100,4,2,3,40,0,0
41676,-100,4,2,3,50,0,0
42374,-100,4,2,3,52,0,0
42548,-100,4,2,3,54,0,0
42723,-100,4,2,3,56,0,0
42897,-100,4,2,3,58,0,0
43072,-100,4,2,3,60,0,0
43420,-100,4,2,3,65,0,0
43769,-100,4,2,3,70,0,0
44118,-100,4,2,3,5,0,0
45165,-66.6666666666667,4,2,1,90,0,1
47432,-57.1428571428571,4,2,1,90,0,1
47955,-66.6666666666667,4,2,1,90,0,1
53013,-57.1428571428571,4,2,1,90,0,1
53537,-66.6666666666667,4,2,1,90,0,1
56327,-80,4,2,1,80,0,0
67490,-100,4,2,1,70,0,0
87025,-133.333333333333,4,2,1,60,0,0
89816,-66.6666666666667,4,2,1,85,0,0
95397,-66.6666666666667,4,2,1,90,0,1
97665,-57.1428571428571,4,2,1,90,0,1
98188,-66.6666666666667,4,2,1,90,0,1
103246,-57.1428571428571,4,2,1,90,0,1
103769,-66.6666666666667,4,2,1,90,0,1
106560,-80,4,2,1,80,0,0

[Colours]
Combo1 : 0,121,242
Combo2 : 0,0,185
Combo3 : 143,62,234
Combo4 : 187,61,0

[HitObjects]
454,340,514,5,0,0:0:0:0:
322,327,862,2,0,B|362:328|386:297|386:297|408:261|456:261,2,146.250005578995,2|2|2,0:0|0:0|0:0,0:0:0:0:
159,227,2258,1,0,0:0:0:0:
184,256,2432,2,0,P|214:301|217:354,1,97.50000371933,2|0,0:0|0:0,0:0:0:0:
276,245,2955,2,0,P|293:193|304:181,1,48.750001859665,2|2,0:0|0:0,0:0:0:0:
328,135,3304,5,0,0:0:0:0:
178,88,3653,2,0,P|196:35|277:52,2,146.250005578995,2|2|2,0:0|0:0|0:0,0:0:0:0:
409,51,6095,5,0,0:0:0:0:
318,167,6444,2,0,P|375:137|462:135,2,146.250005578995,2|2|2,0:0|0:0|0:0,0:0:0:0:
261,286,7839,1,0,0:0:0:0:
286,314,8013,2,0,P|329:318|383:296,1,97.50000371933,2|0,0:0|0:0,0:0:0:0:
251,209,8537,2,0,P|220:217|198:240,1,48.750001859665,2|2,0:0|0:0,0:0:0:0:
157,285,8886,5,0,0:0:0:0:
336,215,9234,2,0,B|344:162|344:162|335:127|335:127|344:65,2,146.250005578995,2|2|2,0:0|0:0|0:0,0:0:0:0:
56,69,11676,6,0,B|135:49|101:103|201:78,1,130,2|2,0:0|0:0,0:0:0:0:
77,148,12374,1,2,0:0:0:0:
282,79,12548,2,0,P|252:137|276:227,1,130,2|0,0:0|0:0,0:0:0:0:
369,145,13072,2,0,P|304:155|247:229,1,130,2|0,0:0|0:0,0:0:0:0:
367,256,13595,2,0,P|320:210|227:206,1,130,2|0,0:0|0:0,0:0:0:0:
155,287,14118,1,2,0:0:0:0:
204,344,14293,2,0,P|257:372|336:354,1,130,2|0,0:0|0:0,0:0:0:0:
452,268,14816,6,0,B|370:281|400:223|314:241,1,130,2|0,0:0|0:0,0:0:0:0:
208,187,15339,2,0,B|283:195|258:148|336:152,1,130,2|0,0:0|0:0,0:0:0:0:
442,101,15862,2,0,B|377:105|399:56|320:65,1,130,2|0,0:0|0:0,0:0:0:0:
247,81,16386,2,0,P|231:19|284:0,1,130,2|0,0:0|0:0,0:0:0:0:
321,64,16909,1,2,0:0:0:0:
321,64,17083,1,2,0:0:0:0:
179,252,17258,6,0,B|213:284|213:284|299:267,1,130,2|2,0:0|0:0,0:0:0:0:
491,242,17955,1,2,0:0:0:0:
367,158,18130,2,0,L|231:185,1,130,2|0,0:0|0:0,0:0:0:0:
335,31,18653,2,0,L|369:165,1,130,2|0,0:0|0:0,0:0:0:0:
207,56,19176,2,0,L|334:30,1,130,2|0,0:0|0:0,0:0:0:0:
411,15,19700,1,2,0:0:0:0:
411,15,19874,1,2,0:0:0:0:
467,188,20048,6,0,P|507:152|461:112,1,130,0|2,0:0|0:0,0:0:0:0:
276,175,20746,1,0,0:0:0:0:
380,293,20920,2,0,B|409:227|350:231|377:160,1,130,2|0,0:0|0:0,0:0:0:0:
294,309,21444,2,0,B|323:243|264:247|291:176,1,130,2|0,0:0|0:0,0:0:0:0:
185,96,21967,2,0,B|160:159|219:155|190:221,1,130,2|0,0:0|0:0,0:0:0:0:
120,188,22490,1,2,0:0:0:0:
120,188,22665,1,2,0:0:0:0:
217,320,22839,6,0,B|256:303|256:303|346:321,2,130,4|2|8,0:3|0:3|0:0,0:0:0:0:
217,320,23886,1,2,0:3:0:0:
155,171,24060,1,4,0:3:0:0:
125,333,24234,5,2,0:0:0:0:
156,253,24409,1,4,0:3:0:0:
231,230,24583,1,4,0:3:0:0:
450,344,24932,2,0,L|436:210,1,130,8|2,0:0|0:3,0:0:0:0:
428,136,25455,1,0,0:0:0:0:
288,265,25630,6,0,B|252:275|227:255|227:255|202:229|157:239,2,130,4|2|8,0:3|0:3|0:0,0:0:0:0:
174,314,26502,1,0,0:0:0:0:
100,284,26676,1,2,0:3:0:0:
94,209,26851,1,4,0:3:0:0:
35,328,27025,5,2,0:0:0:0:
166,237,27200,2,0,P|166:178|96:133,1,130,4|0,0:3|0:0,0:0:0:0:
174,314,27723,2,0,B|253:301|230:352|304:336,1,130,8|2,0:0|0:3,0:0:0:0:
366,303,28246,1,0,0:0:0:0:
284,142,28420,6,0,B|314:87|314:87|365:131,2,130,4|2|8,0:3|0:3|0:0,0:0:0:0:
284,142,29467,1,2,0:3:0:0:
135,48,29641,1,4,0:3:0:0:
158,201,29816,5,2,0:0:0:0:
146,123,29990,1,4,0:3:0:0:
135,48,30165,1,4,0:3:0:0:
84,249,30513,2,0,P|144:290|201:278,1,130,8|2,0:0|0:3,0:0:0:0:
258,238,31037,1,0,0:0:0:0:
441,351,31211,6,0,B|380:318|380:318|273:349,2,130,4|2|8,0:3|0:3|0:0,0:0:0:0:
403,229,32083,1,0,0:0:0:0:
330,249,32258,1,2,0:3:0:0:
258,269,32432,1,4,0:3:0:0:
341,168,32607,5,2,0:0:0:0:
321,334,32781,2,0,L|197:374,1,130,4|0,0:3|0:0,0:0:0:0:
58,255,33304,2,0,L|182:295,1,130,8|2,0:0|0:3,0:0:0:0:
257,321,33827,1,0,0:0:0:0:
232,142,34002,6,0,B|145:142|194:104|106:104,2,130,6|0|6,0:3|0:0|0:3,0:0:0:0:
296,98,34874,2,0,P|268:33|190:20,1,130
111,152,35397,2,0,P|180:140|212:68,1,130,6|0,0:3|0:0,0:0:0:0:
150,49,35920,1,0,0:0:0:0:
38,173,36095,2,0,L|49:246,1,65,6|0,0:3|0:0,0:0:0:0:
24,96,36444,1,0,0:0:0:0:
24,96,36618,1,0,0:0:0:0:
156,243,36793,6,0,B|171:297|172:379,2,130,6|0|6,0:3|0:0|0:3,0:0:0:0:
267,123,37665,1,0,0:0:0:0:
213,182,37839,1,0,0:0:0:0:
135,169,38013,1,0,0:0:0:0:
244,260,38188,5,14,0:3:0:0:
184,103,38362,2,0,P|126:70|51:67,1,130
267,123,38886,2,0,P|249:58|198:3,1,130,6|0,0:3|0:0,0:0:0:0:
209,11,39409,1,0,0:0:0:0:
213,182,39583,5,4,0:3:0:0:
242,255,39932,1,4,0:3:0:0:
289,153,40281,1,4,0:3:0:0:
318,226,40630,1,4,0:3:0:0:
213,182,40979,1,4,0:3:0:0:
242,255,41328,1,4,0:3:0:0:
227,82,41676,5,0,1:0:0:0:
118,175,41851,1,0,1:0:0:0:
139,96,42025,1,0,1:0:0:0:
100,253,42200,1,0,1:0:0:0:
12,119,42374,5,0,1:0:0:0:
51,315,42548,1,0,1:0:0:0:
118,175,42723,1,0,1:0:0:0:
158,347,42897,1,0,1:0:0:0:
28,210,43072,5,0,1:0:0:0:
204,271,43246,1,0,1:0:0:0:
76,45,43420,1,0,1:0:0:0:
252,106,43594,1,0,1:0:0:0:
77,323,43769,5,4,2:0:0:0:
238,158,45165,6,0,B|327:140|290:197|383:186,1,146.250005578995,4|0,0:0|0:0,0:0:0:0:
361,109,45513,1,4,0:3:0:0:
263,234,45688,1,0,0:0:0:0:
414,353,45862,1,0,1:0:0:0:
459,273,46037,2,0,P|385:263|322:327,1,146.250005578995,4|0,0:3|0:0,0:0:0:0:
303,374,46386,5,4,0:3:0:0:
303,374,46560,1,0,0:0:0:0:
225,316,46734,1,4,0:3:0:0:
48,365,46909,2,0,P|4:332|47:270,1,146.250005578995,4|0,0:3|0:0,0:0:0:0:
111,316,47258,1,0,1:0:0:0:
303,374,47432,6,2,B|329:332|304:282|304:282|283:238|305:190|305:190|327:137|300:88,1,284.375002712011,2|0,0:0|0:0,0:1:0:0:
254,48,47955,6,0,P|202:44|166:121,1,146.250005578995,4|0,0:3|0:0,0:0:0:0:
237,141,48304,1,4,0:3:0:0:
344,30,48479,1,0,0:0:0:0:
378,238,48653,1,0,1:0:0:0:
437,160,48827,2,0,P|400:124|300:117,1,146.250005578995,4|0,0:3|0:0,0:0:0:0:
237,141,49176,5,4,0:3:0:0:
237,141,49351,1,0,0:0:0:0:
151,94,49525,1,4,0:3:0:0:
24,190,49700,2,0,P|43:236|52:339,1,146.250005578995,4|0,0:3|0:0,0:0:0:0:
50,379,50048,1,0,1:0:0:0:
216,214,50223,5,8,0:3:0:0:
249,249,50310,1,8,0:3:0:0:
256,297,50397,1,8,0:3:0:0:
228,336,50484,1,8,0:3:0:0:
179,344,50572,1,8,0:3:0:0:
138,317,50659,1,8,0:3:0:0:
191,279,50746,6,0,B|238:268|238:268|345:302,1,146.250005578995,4|0,0:0|0:0,0:0:0:0:
400,324,51095,1,4,0:3:0:0:
360,204,51269,1,0,0:0:0:0:
240,359,51444,1,0,1:0:0:0:
191,279,51618,2,0,P|171:234|195:140,1,146.250005578995,4|0,0:3|0:0,0:0:0:0:
241,87,51967,5,4,0:3:0:0:
241,87,52141,1,0,0:0:0:0:
188,4,52316,1,4,0:3:0:0:
264,157,52490,2,0,B|309:145|337:172|337:172|363:198|411:184,1,146.250005578995,4|0,0:3|0:0,0:0:0:0:
469,157,52839,1,0,1:0:0:0:
387,309,53013,6,2,B|339:322|298:284|298:284|261:252|209:260|209:260|152:266|112:227,1,284.375002712011,2|0,0:0|0:0,0:1:0:0:
80,175,53537,6,0,P|66:132|116:45,1,146.250005578995,4|0,0:3|0:0,0:0:0:0:
176,14,53886,1,4,0:3:0:0:
244,118,54060,1,0,0:0:0:0:
384,22,54234,1,0,1:0:0:0:
173,92,54409,2,0,P|202:141|214:266,1,146.250005578995,4|0,0:3|0:0,0:0:0:0:
217,303,54758,5,4,0:3:0:0:
217,303,54932,1,0,0:0:0:0:
329,169,55107,5,0,1:0:0:0:
280,353,55281,1,0,1:0:0:0:
306,259,55455,1,4,0:3:0:0:
152,344,55630,5,0,1:0:0:0:
372,316,55804,1,0,1:0:0:0:
206,278,55979,1,12,0:3:0:0:
306,259,56153,1,12,0:3:0:0:
146,110,56327,6,0,P|149:59|310:102,1,284.375,4|0,0:0|0:0,0:0:0:0:
280,158,57025,5,4,1:3:0:0:
256,191,57200,1,0,0:0:0:0:
257,231,57374,1,0,0:0:0:0:
405,272,57548,5,4,1:3:0:0:
385,235,57723,1,0,0:0:0:0:
349,219,57897,1,0,0:0:0:0:
235,321,58072,5,4,1:3:0:0:
273,329,58246,1,0,0:0:0:0:
311,311,58421,1,0,0:0:0:0:
180,132,58595,6,2,B|170:181|205:222|205:222|240:257|234:319,1,203.125,0|0,1:3|0:0,0:0:0:0:
234,320,59118,6,0,B|223:249|272:201|272:201|331:144|302:47,1,284.375,4|0,1:2|0:0,0:0:0:0:
249,13,59816,5,4,1:3:0:0:
209,22,59990,1,0,0:0:0:0:
168,29,60165,1,0,0:0:0:0:
26,96,60339,5,4,1:3:0:0:
66,105,60513,1,0,0:0:0:0:
107,112,60688,1,0,0:0:0:0:
256,159,60862,5,4,1:3:0:0:
216,168,61036,1,0,0:0:0:0:
175,175,61211,1,0,0:0:0:0:
33,242,61386,6,2,P|127:265|166:359,1,203.125,2|0,1:3|0:0,0:0:0:0:
166,356,61909,6,0,B|206:308|177:223|177:223|213:307|294:320,1,284.375,4|0,1:2|0:0,0:0:0:0:
392,315,62607,5,4,1:3:0:0:
353,327,62781,1,0,0:0:0:0:
359,290,62955,1,0,0:0:0:0:
409,182,63130,5,4,1:3:0:0:
434,149,63304,1,0,0:0:0:0:
445,189,63478,1,0,0:0:0:0:
298,191,63653,5,4,1:3:0:0:
257,193,63827,1,0,0:0:0:0:
279,158,64001,1,0,0:0:0:0:
213,306,64176,6,2,B|164:301|164:301|77:337|77:337|5:331,1,203.125,2|0,1:3|0:0,0:0:0:0:
63,246,64700,5,0,1:2:0:0:
63,246,65397,2,0,B|95:212|140:214|140:214|106:198|104:157|104:157|116:130|107:103,1,203.125,0|0,1:0|0:0,0:0:0:0:
101,76,65920,1,4,1:3:0:0:
357,192,67490,6,0,P|395:189|462:111,2,130,4|4|0,0:0|0:3|1:0,0:0:0:0:
310,137,68362,1,4,0:3:0:0:
310,137,68886,5,4,0:3:0:0:
358,192,69060,1,2,0:3:0:0:
354,264,69234,1,0,0:0:0:0:
288,144,69409,5,4,0:3:0:0:
336,199,69583,1,0,0:0:0:0:
332,271,69757,1,4,0:3:0:0:
210,154,69932,6,0,P|210:128|237:89,1,65,0|4,1:0|0:3,0:0:0:0:
156,291,70281,6,0,B|117:301|91:282|91:282|65:261|18:272,2,130,4|4|0,0:3|0:3|1:0,0:0:0:0:
224,260,71153,1,4,0:3:0:0:
224,260,71676,5,4,0:3:0:0:
284,216,71851,1,2,0:3:0:0:
358,225,72025,1,0,0:0:0:0:
230,284,72200,5,4,0:3:0:0:
290,240,72375,1,0,0:0:0:0:
364,249,72549,1,4,0:3:0:0:
322,384,72723,6,0,P|309:358|309:321,1,65,0|4,1:0|0:3,0:0:0:0:
359,153,73072,6,0,B|379:112|379:112|350:23,2,130,4|4|0,0:3|0:3|1:0,0:0:0:0:
325,220,73944,1,4,0:3:0:0:
325,220,74467,5,4,0:3:0:0:
269,172,74641,1,2,0:3:0:0:
291,102,74816,1,0,0:0:0:0:
307,225,74990,5,4,0:3:0:0:
251,177,75164,1,0,0:0:0:0:
273,107,75339,1,4,0:3:0:0:
387,200,75513,6,0,B|398:232|398:232|375:280,1,65,0|4,1:0|0:3,0:0:0:0:
390,81,75862,6,0,P|460:81|504:138,2,130,4|4|0,0:3|0:3|1:0,0:0:0:0:
325,113,76734,1,4,0:3:0:0:
325,113,77258,5,4,0:3:0:0:
270,67,77432,1,2,0:3:0:0:
195,70,77607,1,0,0:0:0:0:
315,140,77781,5,4,0:3:0:0:
260,94,77955,1,0,0:0:0:0:
185,97,78130,1,4,0:3:0:0:
191,229,78304,6,0,P|219:206|229:165,1,65,0|4,1:0|0:3,0:0:0:0:
57,158,78653,6,0,L|72:308,2,130,4|4|0,0:3|0:3|1:0,0:0:0:0:
50,85,79525,1,4,0:3:0:0:
50,85,80048,5,4,0:3:0:0:
126,77,80223,1,2,0:3:0:0:
199,71,80397,1,0,0:0:0:0:
48,54,80572,5,4,0:3:0:0:
124,46,80747,1,0,0:0:0:0:
197,40,80921,1,4,0:3:0:0:
357,107,81095,6,0,L|292:113,1,65,0|4,1:0|0:3,0:0:0:0:
471,163,81444,6,0,B|482:118|482:118|469:77|469:77|483:19,2,130,4|4|0,0:3|0:3|1:0,0:0:0:0:
452,232,82316,1,4,0:3:0:0:
452,232,82839,5,4,0:3:0:0:
381,212,83013,1,2,0:3:0:0:
398,282,83188,1,0,0:0:0:0:
458,214,83362,5,4,0:3:0:0:
387,194,83536,1,0,0:0:0:0:
404,264,83711,1,4,0:3:0:0:
390,112,83886,6,0,B|353:108|353:108|317:145,1,65,0|4,1:0|0:3,0:0:0:0:
266,259,84234,6,0,B|241:288|241:288|150:279,2,130,4|4|0,0:3|0:3|1:0,0:0:0:0:
303,196,85107,1,4,0:3:0:0:
303,196,85630,5,4,0:3:0:0:
359,242,85804,1,2,0:3:0:0:
332,309,85979,1,0,0:0:0:0:
322,196,86153,5,4,0:3:0:0:
378,242,86327,1,0,0:0:0:0:
351,309,86502,1,4,0:3:0:0:
256,158,86676,6,0,P|280:130|316:121,1,65,0|4,1:0|0:3,0:0:0:0:
381,117,87025,5,0,0:0:0:0:
381,117,87200,1,0,0:0:0:0:
381,117,87374,2,0,P|386:90|405:65,2,48.750001859665,2|0|2,0:0|0:0|0:0,0:0:0:0:
380,141,87897,2,0,P|410:183|464:199,1,97.50000371933,2|0,0:0|0:0,0:0:0:0:
475,203,88420,2,0,B|460:235|480:270|480:270|498:300|481:346,2,146.250005578995,2|2|2,0:0|0:0|0:0,0:0:0:0:
486,181,89641,1,2,0:0:0:0:
365,314,89816,5,0,1:0:0:0:
251,182,89990,1,4,0:3:0:0:
296,351,90165,2,0,P|288:299|311:258,1,97.50000371933,0|4,1:0|0:3,0:0:0:0:
406,166,90513,5,0,1:0:0:0:
220,251,90688,1,4,0:3:0:0:
266,65,90862,2,0,B|291:108|291:108|267:154,1,97.50000371933,0|4,1:0|0:3,0:0:0:0:
148,308,91211,5,0,1:0:0:0:
186,117,91386,1,4,0:3:0:0:
304,281,91560,2,0,P|278:321|225:338,1,97.50000371933,0|4,1:0|0:3,0:0:0:0:
100,230,91909,5,0,1:0:0:0:
332,197,92083,1,4,0:3:0:0:
196,62,92258,2,0,B|136:72|173:94|100:109,1,97.50000371933,0|4,1:0|0:3,0:0:0:0:
182,289,92607,5,0,1:0:0:0:
238,143,92781,1,4,0:3:0:0:
292,354,92955,1,0,1:0:0:0:
210,217,93130,1,4,0:3:0:0:
156,364,93304,5,0,1:0:0:0:
311,279,93479,1,4,0:3:0:0:
162,205,93653,1,0,1:0:0:0:
307,113,93827,1,4,0:3:0:0:
212,286,94002,5,0,1:0:0:0:
99,96,94263,1,4,0:3:0:0:
99,96,94351,1,0,1:0:0:0:
27,201,94525,1,4,0:3:0:0:
218,129,94700,5,0,1:0:0:0:
258,124,94787,1,0,1:0:0:0:
296,131,94874,1,0,1:0:0:0:
325,156,94961,1,0,1:0:0:0:
345,189,95048,1,8,0:3:0:0:
373,217,95136,1,8,0:3:0:0:
408,233,95223,1,4,0:3:0:0:
446,236,95310,1,4,0:3:0:0:
484,234,95397,6,0,B|441:224|419:256|419:256|395:285|349:278,1,146.250005578995,4|0,0:0|0:0,0:0:0:0:
284,249,95746,1,4,0:3:0:0:
314,348,95920,1,0,0:0:0:0:
112,309,96095,1,0,1:0:0:0:
177,376,96269,2,0,P|201:326|151:226,1,146.250005578995,4|0,0:3|0:0,0:0:0:0:
117,194,96618,5,4,0:3:0:0:
117,194,96793,1,0,0:0:0:0:
16,246,96967,1,4,0:3:0:0:
110,94,97141,2,0,B|198:80|158:134|257:118,1,146.250005578995,4|0,0:3|0:0,0:0:0:0:
321,96,97490,1,0,1:0:0:0:
460,308,97665,6,2,B|372:328|326:265|326:265|286:207|207:216,1,284.375002712011,2|0,0:0|0:0,0:1:0:0:
145,261,98188,6,0,P|124:309|187:369,1,146.250005578995,4|0,0:3|0:0,0:0:0:0:
254,351,98537,1,4,0:3:0:0:
208,216,98711,1,0,0:0:0:0:
23,317,98886,1,0,1:0:0:0:
57,217,99060,2,0,L|99:76,1,146.250005578995,4|0,0:3|0:0,0:0:0:0:
120,7,99409,5,4,0:3:0:0:
120,7,99583,1,0,0:0:0:0:
278,111,99758,5,0,1:0:0:0:
72,87,99932,1,0,1:0:0:0:
200,58,100107,1,4,0:3:0:0:
31,168,100281,5,0,1:0:0:0:
120,7,100455,1,0,1:0:0:0:
195,136,100630,1,4,0:3:0:0:
124,201,100804,1,4,0:3:0:0:
302,31,100979,6,0,P|362:44|404:118,1,146.250005578995,4|0,0:0|0:0,0:0:0:0:
398,192,101327,1,4,0:3:0:0:
308,124,101502,1,0,0:0:0:0:
362,308,101676,1,0,1:0:0:0:
277,248,101851,2,0,P|223:245|153:303,1,146.250005578995,4|0,0:3|0:0,0:0:0:0:
125,372,102200,5,4,0:3:0:0:
125,372,102374,1,0,0:0:0:0:
68,265,102548,1,4,0:3:0:0:
241,333,102723,2,0,B|288:322|316:346|316:346|347:371|389:361,1,146.250005578995,4|0,0:3|0:0,0:0:0:0:
449,325,103072,1,0,1:0:0:0:
326,197,103246,6,2,B|364:136|334:61|334:61|364:141|451:158,1,284.375002712011,2|0,0:0|0:0,0:1:0:0:
480,241,103769,6,0,P|420:240|351:312,1,146.250005578995,4|0,0:3|0:0,0:0:0:0:
334,363,104118,1,4,0:3:0:0:
231,256,104293,1,0,0:0:0:0:
67,362,104467,1,0,1:0:0:0:
32,269,104641,2,0,B|16:221|16:221|59:128,1,146.250005578995,4|0,0:3|0:0,0:0:0:0:
90,68,104990,1,4,0:3:0:0:
90,68,105165,1,0,0:0:0:0:
181,172,105339,5,0,1:0:0:0:
217,158,105426,1,0,1:0:0:0:
255,161,105513,1,8,0:3:0:0:
290,179,105600,1,8,0:3:0:0:
322,201,105687,1,0,1:0:0:0:
359,213,105775,1,0,1:0:0:0:
397,210,105862,1,8,0:3:0:0:
433,196,105949,5,8,0:3:0:0:
418,232,106036,1,8,0:3:0:0:
397,264,106123,1,8,0:3:0:0:
390,302,106211,1,8,0:3:0:0:
397,340,106298,1,8,0:3:0:0:
361,323,106385,1,4,0:3:0:0:
322,323,106472,1,4,0:3:0:0:
275,341,106560,6,0,B|183:350|165:262|165:262|94:216|29:272,1,284.375,4|0,0:0|0:0,0:0:0:0:
72,338,107258,5,4,1:3:0:0:
98,315,107432,1,0,0:0:0:0:
104,280,107607,1,0,0:0:0:0:
40,152,107781,5,4,1:3:0:0:
46,117,107956,1,0,0:0:0:0:
72,94,108130,1,0,0:0:0:0:
211,175,108304,5,4,1:3:0:0:
178,187,108478,1,0,0:0:0:0:
144,176,108653,1,0,0:0:0:0:
304,70,108827,6,2,P|342:106|349:249,1,203.125,0|0,1:3|0:0,0:0:0:0:
349,248,109351,6,0,P|413:184|286:76,1,284.375,4|0,1:2|0:0,0:0:0:0:
234,96,110048,5,4,1:3:0:0:
211,120,110223,1,0,0:0:0:0:
206,152,110397,1,0,0:0:0:0:
332,231,110572,5,4,1:3:0:0:
303,211,110747,1,0,0:0:0:0:
269,212,110921,1,0,0:0:0:0:
100,250,111095,5,4,1:3:0:0:
134,251,111269,1,0,0:0:0:0:
163,231,111444,1,0,0:0:0:0:
151,342,111618,6,2,B|211:323|248:359|248:359|292:397|359:372,1,203.125,2|0,1:3|0:0,0:0:0:0:
361,339,112141,6,0,B|302:371|241:318|241:318|181:277|117:325,1,243.75,4|0,1:2|0:0,0:0:0:0:
63,342,112839,5,4,1:3:0:0:
39,319,113013,1,0,0:0:0:0:
61,295,113187,1,0,0:0:0:0:
169,195,113362,5,4,1:3:0:0:
188,167,113536,1,0,0:0:0:0:
161,148,113710,1,0,0:0:0:0:
46,55,113886,5,4,1:3:0:0:
22,32,114060,1,0,0:0:0:0:
44,8,114234,1,0,0:0:0:0:
188,167,114409,6,2,P|250:158|300:308,1,243.75,0|4,1:3|1:3,0:0:0:0:
306,299,115630,6,0,B|243:270|187:320|187:320|138:363|64:335,1,243.75,4|4,1:3|1:3,0:0:0:0:
79,340,116676,1,4,1:3:0:0:
257,46,117200,2,2,B|241:98|241:98|270:231|270:231|255:283,1,243.75,0|4,1:3|1:3,0:0:0:0:
255,282,118420,5,4,1:3:0:0:
257,46,118944,1,4,1:3:0:0:
