osu file format v14

[General]
AudioFilename: Celldweller - Pulsar.mp3
AudioLeadIn: 0
PreviewTime: 44986
Countdown: 0
SampleSet: Soft
StackLeniency: 0.7
Mode: 0
LetterboxInBreaks: 0
WidescreenStoryboard: 0

[Editor]
DistanceSpacing: 1.6
BeatDivisor: 4
GridSize: 4
TimelineZoom: 1.5

[Metadata]
Title:Pulsar
TitleUnicode:Pulsar
Artist:Celldweller
ArtistUnicode:Celldweller
Creator:-Kanzaki
Version:Normal
Source:
Tags:Electronic rock instrumental arcwinolivirus [_S_a_k_u_r_a_] Shiro Odaril DakeDekaane neonat _Gezo_ The Voices In My Head
BeatmapID:636579
BeatmapSetID:272785

[Difficulty]
HPDrainRate:4
CircleSize:3
OverallDifficulty:4
ApproachRate:5
SliderMultiplier:1
SliderTickRate:1

[Events]
//Background and Video events
0,0,"BG.png",0,0
//Break Periods
2,67315,77274
//Storyboard Layer 0 (Background)
//Storyboard Layer 1 (Fail)
//Storyboard Layer 2 (Pass)
//Storyboard Layer 3 (Foreground)
//Storyboard Sound Samples

[TimingPoints]
335,697.674418604651,4,2,1,50,1,0
5218,-100,4,2,2,5,0,0
5393,-100,4,2,1,70,0,0
10800,-100,4,2,2,5,0,0
10974,-100,4,2,1,70,0,0
11497,-100,4,2,1,70,0,0
43590,-100,4,2,1,70,0,1
43765,-100,4,2,1,70,0,0
44986,-76.9230769230769,4,2,1,85,0,1
56148,-100,4,2,1,75,0,0
89637,-76.9230769230769,4,2,1,85,0,1
106381,-100,4,2,1,75,0,0

[Colours]
Combo1 : 85,85,85
Combo2 : 30,131,1
Combo3 : 94,18,197
Combo4 : 142,0,0
Combo5 : 174,122,2
Combo6 : 234,0,0

[HitObjects]
256,128,335,6,0,L|256:196,1,50
295,322,1207,2,0,P|255:326|205:316,2,75
427,251,2776,1,0,0:0:0:0:
383,161,3125,5,0,0:0:0:0:
411,65,3474,2,0,L|335:53,1,75
196,108,4521,2,0,P|124:124|82:112,1,100
12,300,5916,5,0,0:0:0:0:
112,300,6265,2,0,L|148:384,1,75
292,356,7311,2,0,P|336:364|384:352,2,75
332,264,8707,5,0,0:0:0:0:
344,164,9055,2,0,P|309:150|272:145,1,75
140,76,10102,2,0,P|124:120|129:189,1,100
324,156,11497,5,2,0:0:0:0:
280,244,11846,2,0,L|268:300,1,50
288,340,12369,1,0,0:0:0:0:
419,267,12893,2,0,P|440:313|432:352,2,75,2|0|0,0:0|0:0|0:0,0:0:0:0:
338,326,14288,5,0,0:0:0:0:
241,353,14637,2,0,L|173:357,1,50,0|2,0:0|0:0,0:0:0:0:
148,329,15160,1,0,0:0:0:0:
44,224,15683,1,2,0:0:0:0:
24,128,16032,1,0,0:0:0:0:
60,92,16207,2,0,P|64:52|56:4,1,75,2|0,0:0|0:0,0:0:0:0:
150,62,17079,5,2,0:0:0:0:
226,126,17428,2,0,L|286:130,1,50,0|2,0:0|0:0,0:0:0:0:
323,112,17951,1,0,0:0:0:0:
463,59,18474,5,2,0:2:0:0:
466,158,18823,1,0,0:0:0:0:
460,207,18997,2,0,P|452:243|430:285,1,75,2|0,0:0|0:0,0:0:0:0:
392,304,19695,1,0,0:0:0:0:
248,264,20218,5,0,0:0:0:0:
139,366,20741,1,0,0:0:0:0:
67,233,21265,2,0,P|71:201|63:157,2,75,2|0|0,0:0|0:0|0:0,0:0:0:0:
158,272,22660,6,0,P|214:284|266:276,1,100,4|2,3:0|3:0,0:0:0:0:
299,188,23707,1,0,0:0:0:0:
231,114,24055,2,0,P|191:114|139:94,1,75,4|0,3:0|3:0,0:0:0:0:
112,82,24753,2,0,L|66:131,1,50,2|0,3:0|0:0,0:0:0:0:
57,165,25276,1,0,0:0:0:0:
66,214,25451,6,0,P|102:222|178:198,1,100,4|2,3:0|3:0,0:0:0:0:
250,159,26497,1,0,0:0:0:0:
329,98,26846,2,0,P|349:83|412:74,2,75,2|0|0,0:0|0:0|0:0,0:0:0:0:
393,174,28241,5,4,3:0:0:0:
318,240,28590,1,0,0:0:0:0:
223,205,28939,2,0,P|229:177|231:141,1,50,2|0,3:0|0:0,0:0:0:0:
276,66,29637,2,0,P|316:54|368:62,1,75,2|0,0:0|3:0,0:0:0:0:
389,85,30334,2,0,L|429:145,1,50,2|0,3:0|0:0,0:0:0:0:
430,175,30858,1,0,0:0:0:0:
426,224,31032,6,0,L|420:289,1,50,4|0,3:0|0:0,0:0:0:0:
340,333,31730,1,2,3:0:0:0:
247,294,32079,1,0,0:0:0:0:
159,343,32428,2,0,P|131:328|97:290,1,75,2|0,0:0|0:0,0:0:0:0:
95,247,33125,2,0,L|107:194,1,50,2|0,3:0|0:0,0:0:0:0:
136,158,33648,1,0,0:0:0:0:
181,136,33823,5,4,3:0:0:0:
280,128,34172,1,0,0:0:0:0:
274,227,34521,2,0,L|254:287,1,50,4|0,3:0|0:0,0:0:0:0:
162,303,35218,2,0,P|130:282|100:241,2,75,4|0|0,3:0|0:0|0:0,0:0:0:0:
236,370,36614,5,4,3:0:0:0:
329,335,36962,1,0,0:0:0:0:
390,255,37311,2,0,P|384:227|362:192,1,50,4|0,3:0|0:0,0:0:0:0:
278,180,38009,2,0,P|282:208|265:260,2,75,4|0|0,3:0|0:0|0:0,0:0:0:0:
210,106,39404,6,0,L|170:58,2,50,4|4|4,3:0|3:0|3:0,3:0:0:0:
184,203,40451,1,4,3:0:0:0:
232,290,40800,2,0,P|268:298|296:298,1,50,4|4,3:0|3:0,3:0:0:0:
372,258,41497,2,4,P|401:247|424:245,1,50,4|4,3:0|3:0,3:0:0:0:
502,312,42195,5,4,3:0:0:0:
415,362,42544,1,4,3:0:0:0:
317,338,42893,2,4,P|292:341|267:342,1,50,4|4,3:0|3:0,3:0:0:0:
198,268,43590,1,4,3:1:0:0:
164,81,44986,5,4,0:0:0:0:
127,178,45334,1,0,0:0:0:0:
216,231,45683,2,0,P|272:235|300:227,1,64.9999970245363,10|0,0:0|0:0,0:0:0:0:
320,199,46207,2,0,P|376:195|404:203,1,64.9999970245363,4|0,0:0|0:0,0:0:0:0:
428,224,46730,1,2,0:0:0:0:
476,132,47079,2,0,P|480:96|441:30,1,97.4999955368044,10|0,0:0|0:0,0:0:0:0:
380,104,47776,5,4,0:0:0:0:
315,186,48125,1,0,0:0:0:0:
223,135,48474,2,0,P|189:124|165:102,1,64.9999970245363,10|0,0:0|0:0,0:0:0:0:
130,68,48997,2,0,P|96:79|72:101,1,64.9999970245363,4|0,0:0|0:0,0:0:0:0:
50,144,49521,1,2,0:0:0:0:
51,247,49869,2,0,L|30:300,2,32.4999985122681,6|0|0,3:0|0:0|0:0,0:0:0:0:
149,211,50567,5,4,0:0:0:0:
254,223,50916,1,0,0:0:0:0:
335,158,51265,2,0,P|324:116|325:88,1,64.9999970245363,10|0,0:0|0:0,0:0:0:0:
295,50,51788,2,0,P|263:22|240:15,1,64.9999970245363,4|0,0:0|0:0,0:0:0:0:
194,37,52311,1,0,0:0:0:0:
135,122,52660,2,0,P|139:174|123:234,1,97.4999955368044,10|0,0:0|0:0,0:0:0:0:
125,270,53358,5,4,0:0:0:0:
206,334,53707,1,0,0:0:0:0:
270,252,54055,2,0,L|341:265,1,64.9999970245363,10|0,0:0|0:0,0:0:0:0:
379,241,54579,1,4,0:0:0:0:
411,142,54928,6,0,L|391:98,1,32.4999985122681,4|4,3:0|3:0,0:0:0:0:
295,91,55451,2,4,L|259:67,2,32.4999985122681,6|0|0,1:3|1:3|1:3,1:3:0:0:
296,191,56148,5,4,3:0:0:0:
48,208,56846,2,4,P|41:244|51:280,1,75,4|4,3:0|3:0,3:0:0:0:
185,347,57893,1,4,3:0:0:0:
323,288,58416,1,4,0:0:0:0:
304,140,58939,6,0,P|256:144|200:132,1,100,4|4,0:0|3:0,0:0:0:0:
56,128,60160,2,0,P|72:164|68:212,1,75,0|4,3:0|3:0,0:0:0:0:
188,296,61207,1,4,0:0:0:0:
316,216,61730,6,0,P|364:232|416:236,1,100,6|4,0:0|0:0,0:0:0:0:
310,126,62951,2,4,P|274:132|242:155,2,75
385,256,64521,6,0,P|337:276|273:268,1,100,4|4,0:0|0:0,0:0:0:0:
149,221,65741,1,4,0:0:0:0:
128,67,78474,5,4,3:0:0:0:
226,83,78823,1,4,3:0:0:0:
166,163,79172,1,2,3:0:0:0:
164,212,79346,2,0,P|176:248|200:279,1,75,4|0,3:0|3:0,3:0:0:0:
303,169,80393,2,0,P|291:133|267:102,1,75
181,54,81265,5,4,3:0:0:0:
122,135,81614,1,0,3:0:0:0:
160,227,81962,1,2,3:0:0:0:
205,247,82137,2,4,P|257:233|284:217,1,75,4|4,3:0|3:0,3:0:0:0:
233,78,83183,2,0,L|221:154,1,75,4|2,3:0|3:0,0:0:0:0:
159,230,84055,6,0,L|170:279,2,50,4|0|2,3:0|3:0|3:0,3:0:0:0:
111,214,84928,1,4,3:0:0:0:
40,81,85451,2,0,B|4:57|-4:9,2,75,4|4|2,3:0|3:0|3:0,3:0:0:0:
108,153,86846,5,4,3:0:0:0:
205,131,87195,1,0,3:0:0:0:
315,233,87718,2,0,P|358:228|383:221,1,50,4|2,3:0|3:0,0:0:0:0:
390,183,88241,2,0,P|389:120|380:87,2,75,6|2|6,3:0|3:0|3:0,0:0:0:0:
452,266,89637,5,0,0:0:0:0:
381,342,89986,1,8,0:0:0:0:
279,319,90334,2,0,P|237:287|221:261,1,64.9999970245363,2|8,0:0|0:0,0:0:0:0:
285,189,91032,1,2,0:0:0:0:
388,178,91381,2,0,P|430:210|446:236,1,64.9999970245363,8|8,0:0|0:0,0:0:0:0:
352,280,92079,1,8,0:0:0:0:
262,333,92428,6,0,L|175:332,1,64.9999970245363,4|8,0:0|0:0,0:0:0:0:
107,273,93125,1,2,0:0:0:0:
125,170,93474,1,8,0:0:0:0:
63,85,93824,2,0,L|15:41,2,64.9999970245363,4|8|2,0:0|0:0|0:0,0:0:0:0:
143,132,94869,1,8,0:0:0:0:
233,184,95218,6,0,P|273:200|301:200,1,64.9999970245363,4|0,0:0|0:0,0:0:0:0:
384,147,95916,2,0,P|424:142|470:161,1,64.9999970245363,4|0,0:0|0:0,0:0:0:0:
472,194,96439,2,0,L|452:314,1,97.4999955368044,0|0,3:0|0:0,0:0:0:0:
362,336,97311,2,0,L|261:340,1,97.4999955368044,4|0,0:0|0:0,0:0:0:0:
216,320,98009,6,0,P|183:309|149:281,1,64.9999970245363,6|0,0:0|0:0,0:0:0:0:
230,215,98707,1,4,0:0:0:0:
337,101,99230,2,0,L|376:152,1,64.9999970245363,0|2,3:0|3:0,0:0:0:0:
371,204,99753,1,2,3:0:0:0:
321,295,100102,2,0,L|325:356,2,32.4999985122681,2|2|2,3:0|3:0|3:0,3:0:0:0:
238,231,100800,6,0,L|212:156,1,64.9999970245363,6|0,0:0|0:0,0:0:0:0:
278,85,101497,2,0,P|313:64|339:28,1,64.9999970245363,4|2,0:0|0:0,0:0:0:0:
380,40,102021,2,0,L|471:108,1,97.4999955368044,0|4,3:0|3:0,3:0:0:0:
434,199,102893,2,0,L|458:303,1,97.4999955368044,4|0,0:0|0:0,0:0:0:0:
421,332,103590,6,0,P|388:331|356:327,1,64.9999970245363,6|0,0:0|0:0,0:0:0:0:
310,233,104288,2,0,L|333:190,2,32.4999985122681,4|0|0,0:0|0:0|0:0,0:0:0:0:
258,238,104811,1,0,0:0:0:0:
256,192,105160,12,4,106381,0:0:0:0:
135,61,107079,5,4,3:0:0:0:
272,120,107602,1,4,3:0:0:0:
322,259,108125,1,4,3:0:0:0:
194,337,108648,2,4,P|158:353|113:351,1,75,4|6,0:0|0:0,3:0:0:0:
14,185,109869,5,4,3:0:0:0:
64,43,110393,1,0,0:0:0:0:
210,74,110916,1,0,0:0:0:0:
226,222,111439,2,0,P|264:217|285:195,1,50,4|0,0:0|0:0,0:0:0:0:
299,168,111962,6,4,P|351:172|403:204,1,100,4|4,1:0|1:0,0:0:0:0:
493,305,113183,1,4,1:0:0:0:
347,343,113707,1,4,1:0:0:0:
254,225,114230,2,4,P|242:197|197:153,1,75,4|6,1:0|0:0,0:0:0:0:
38,66,115451,6,4,L|2:142,2,75
188,59,117021,2,4,P|228:67|275:62,1,75
430,172,118241,5,4,0:0:0:0:
303,252,118765,1,4,0:0:0:0:
