osu file format v14

[General]
AudioFilename: Celldweller - Pulsar.mp3
AudioLeadIn: 0
PreviewTime: 44986
Countdown: 0
SampleSet: Soft
StackLeniency: 0.7
Mode: 0
LetterboxInBreaks: 0
WidescreenStoryboard: 0

[Editor]
DistanceSpacing: 1.8
BeatDivisor: 8
GridSize: 4
TimelineZoom: 1.4

[Metadata]
Title:Pulsar
TitleUnicode:Pulsar
Artist:Celldweller
ArtistUnicode:Celldweller
Creator:-Kanzaki
Version:Hard
Source:
Tags:Electronic rock instrumental arcwinolivirus [_S_a_k_u_r_a_] Shiro Odaril DakeDekaane neonat _Gezo_ The Voices In My Head
BeatmapID:709553
BeatmapSetID:272785

[Difficulty]
HPDrainRate:5.3
CircleSize:4
OverallDifficulty:6.3
ApproachRate:8
SliderMultiplier:1.4
SliderTickRate:1

[Events]
//Background and Video events
0,0,"BG.png",0,0
//Break Periods
//Storyboard Layer 0 (Background)
//Storyboard Layer 1 (Fail)
//Storyboard Layer 2 (Pass)
//Storyboard Layer 3 (Foreground)
//Storyboard Sound Samples

[TimingPoints]
335,697.674418604651,4,2,1,50,1,0
5218,-100,4,2,2,5,0,0
5393,-100,4,2,1,50,0,0
10800,-100,4,2,2,5,0,0
10974,-100,4,2,1,50,0,0
22544,-100,4,2,1,50,0,0
23474,-100,4,2,1,50,0,0
25334,-100,4,2,1,50,0,0
26265,-100,4,2,1,50,0,0
28823,-100,4,2,1,50,0,0
29114,-100,4,2,1,50,0,0
30858,-100,4,2,1,50,0,0
32428,-100,4,2,1,50,0,0
33823,-100,4,2,1,50,0,0
39317,-100,4,2,1,50,0,0
41323,-100,4,2,1,65,0,0
43590,-100,4,2,1,65,0,1
43765,-100,4,2,1,65,0,0
44811,-100,4,1,1,60,0,0
44986,-66.6666666666667,4,1,1,60,0,1
54840,-66.6666666666667,4,1,1,60,0,1
56061,-66.6666666666667,4,1,1,60,0,1
56323,-66.6666666666667,4,1,1,65,0,0
61643,-66.6666666666667,4,1,1,75,0,0
63823,-100,4,1,1,40,0,0
67137,-83.3333333333333,4,1,1,50,0,0
67572,-100,4,1,1,50,0,0
67921,-100,4,1,1,50,0,0
68618,-100,4,1,1,50,0,0
69142,-100,4,1,1,50,0,0
69665,-100,4,1,1,50,0,0
69839,-100,4,1,1,50,0,0
70014,-100,4,1,1,50,0,0
70363,-100,4,1,1,50,0,0
70711,-100,4,1,1,50,0,0
71409,-100,4,1,1,50,0,0
71932,-100,4,1,1,50,0,0
72456,-100,4,1,1,50,0,0
72804,-100,4,1,1,50,0,0
73153,-100,4,1,1,50,0,0
73502,-100,4,1,1,50,0,0
74200,-100,4,1,1,50,0,0
74723,-100,4,1,1,50,0,0
75246,-100,4,1,1,50,0,0
75421,-100,4,1,1,50,0,0
75595,-100,4,1,1,50,0,0
75944,-100,4,1,1,50,0,0
76293,-100,4,1,1,50,0,0
76991,-100,4,1,1,50,0,0
77514,-100,4,1,1,50,0,0
78037,-100,4,1,1,50,0,0
78386,-100,4,1,1,50,0,0
78735,-100,4,1,1,50,0,0
78909,-100,4,1,1,50,0,0
79084,-100,4,1,1,50,0,0
79781,-100,4,1,1,50,0,0
80304,-100,4,1,1,50,0,0
80479,-100,4,1,1,50,0,0
80828,-100,4,1,1,50,0,0
81177,-100,4,1,1,50,0,0
81525,-100,4,1,1,50,0,0
81700,-100,4,1,1,50,0,0
81874,-100,4,1,1,50,0,0
82572,-100,4,1,1,50,0,0
83095,-100,4,1,1,50,0,0
83270,-100,4,1,1,50,0,0
83618,-100,4,1,1,50,0,0
83967,-100,4,1,1,50,0,0
84316,-100,4,1,1,50,0,0
84491,-100,4,1,1,50,0,0
84665,-100,4,1,1,50,0,0
85363,-100,4,1,1,50,0,0
85886,-100,4,1,1,50,0,0
86060,-100,4,1,1,50,0,0
86409,-100,4,1,1,50,0,0
86584,-100,4,1,1,50,0,0
86758,-100,4,1,1,50,0,0
86759,-100,4,1,1,60,0,0
89550,-100,4,1,1,50,0,0
89637,-52.6315789473684,4,1,1,50,0,1
93736,-52.6315789473684,4,1,1,57,0,1
95175,-52.6315789473684,4,1,1,60,0,1
95217,-66.6666666666667,4,1,1,60,0,1
99491,-66.6666666666667,4,1,1,60,0,1
100712,-66.6666666666667,4,1,1,50,0,1
102805,-66.6666666666667,4,1,1,60,0,1
106381,-66.6666666666667,4,1,1,60,0,0
106991,-66.6666666666667,4,1,1,65,0,0
111875,-66.6666666666667,4,1,1,75,0,0
114055,-100,4,1,1,60,0,0

[Colours]
Combo1 : 85,85,85
Combo2 : 30,131,1
Combo3 : 94,18,197
Combo4 : 142,0,0
Combo5 : 174,122,2
Combo6 : 234,0,0

[HitObjects]
400,212,335,5,0,0:0:0:0:
302,134,683,2,0,P|275:180|280:242,2,105
466,229,2253,1,0,0:0:0:0:
268,360,2776,1,0,0:0:0:0:
268,360,2951,1,0,0:0:0:0:
205,354,3125,6,0,P|164:332|146:297,1,70
287,180,3997,1,0,0:0:0:0:
470,131,4521,2,0,P|474:224|435:283,1,140
204,305,5916,5,0,0:0:0:0:
78,318,6265,2,0,P|73:265|108:221,1,105
262,324,7311,1,0,0:0:0:0:
167,160,7834,1,0,0:0:0:0:
322,52,8358,1,0,0:0:0:0:
322,52,8532,1,0,0:0:0:0:
382,35,8707,6,0,P|423:34|461:56,1,70
376,220,9579,1,0,0:0:0:0:
196,279,10102,2,0,P|174:212|209:149,1,140
448,93,11497,5,2,0:0:0:0:
392,206,11846,1,0,0:0:0:0:
282,143,12195,1,2,0:0:0:0:
282,143,12369,1,0,0:0:0:0:
110,62,12893,1,2,0:0:0:0:
22,229,13416,5,0,0:0:0:0:
22,229,13590,1,2,0:0:0:0:
207,241,13939,2,0,L|255:268,1,35
269,307,14288,1,2,0:0:0:0:
393,324,14637,5,0,0:0:0:0:
340,209,14986,1,2,0:0:0:0:
340,209,15160,1,0,0:0:0:0:
209,345,15683,1,2,0:0:0:0:
260,163,16207,1,0,0:0:0:0:
260,163,16381,1,2,0:0:0:0:
372,218,16730,1,0,0:0:0:0:
399,341,17079,6,0,B|363:352|326:331,1,70,2|2,0:0|0:0,0:0:0:0:
230,248,17776,1,2,0:0:0:0:
230,248,17951,1,0,0:0:0:0:
365,116,18474,1,2,0:0:0:0:
506,240,18997,1,0,0:0:0:0:
506,240,19172,1,2,0:0:0:0:
408,319,19521,2,0,L|353:317,1,35
321,284,19869,1,2,0:0:0:0:
407,192,20218,5,0,0:0:0:0:
341,84,20567,1,2,0:0:0:0:
341,84,20741,1,0,0:0:0:0:
315,271,21265,2,0,P|263:269|226:233,2,105,2|2|0,0:0|0:0|0:0,0:0:0:0:
312,144,22660,5,4,3:0:0:0:
197,90,23009,1,0,0:0:0:0:
209,215,23358,1,6,3:0:0:0:
94,267,23707,1,0,0:0:0:0:
193,343,24055,2,0,P|246:362|287:356,1,70,2|0,0:0|0:0,0:0:0:0:
320,346,24579,2,0,P|356:305|383:295,1,70,2|0,0:0|0:0,0:0:0:0:
431,289,25102,2,0,L|455:237,1,35,2|0,0:0|0:0,0:0:0:0:
432,182,25451,5,4,3:0:0:0:
311,146,25800,1,0,0:0:0:0:
236,244,26148,1,6,3:0:0:0:
144,168,26497,1,0,0:0:0:0:
115,290,26846,2,0,P|72:318|20:319,2,105,2|2|2,0:0|0:0|0:0,0:0:0:0:
39,188,28241,5,4,3:0:0:0:
94,74,28590,1,0,0:0:0:0:
187,158,28939,1,6,3:0:0:0:
240,43,29288,1,0,0:0:0:0:
330,130,29637,2,0,P|331:181|313:219,1,70,2|0,0:0|0:0,0:0:0:0:
277,239,30160,2,0,P|303:289|336:305,1,70,2|0,0:0|0:0,0:0:0:0:
373,314,30683,2,0,L|367:364,1,35,2|0,0:0|0:0,0:0:0:0:
312,377,31032,5,4,3:0:0:0:
188,352,31381,1,0,3:0:0:0:
161,228,31730,1,6,3:0:0:0:
267,160,32079,1,0,0:0:0:0:
302,280,32428,2,0,P|360:245|374:183,2,105,2|2|2,0:0|0:0|0:0,0:0:0:0:
261,160,33823,5,4,3:0:0:0:
236,36,34172,1,0,0:0:0:0:
112,58,34521,2,0,L|84:114,1,35,4|0,3:0|0:0,0:0:0:0:
68,276,35218,6,0,P|111:284|152:264,1,70,4|0,3:0|3:0,0:0:0:0:
186,238,35741,2,0,P|229:231|270:250,1,70,4|0,3:0|3:0,0:0:0:0:
303,278,36265,2,0,L|339:254,1,35,4|0,3:0|0:0,0:0:0:0:
395,256,36614,5,4,3:0:0:0:
453,144,36962,1,2,0:0:0:0:
352,68,37311,1,4,3:0:0:0:
352,68,37486,1,0,0:0:0:0:
170,118,38009,2,4,P|132:148|108:218,2,105,4|4|4,3:0|3:0|3:0,3:0:0:0:
221,220,39404,5,4,3:0:0:0:
136,323,39753,1,4,3:0:0:0:
256,360,40102,1,4,3:0:0:0:
376,323,40451,1,4,3:0:0:0:
300,222,40800,1,4,3:0:0:0:
255,104,41148,1,4,3:0:0:0:
212,222,41497,6,0,L|156:234,3,35,8|8|8|8,3:0|3:0|3:0|3:0,0:0:0:0:
114,223,42195,2,0,L|94:163,3,35,8|8|8|8,3:0|3:0|3:0|3:0,0:0:0:0:
99,126,42893,2,8,L|103:78,1,35,8|8,3:0|3:0,3:0:0:0:
162,75,43241,2,8,L|186:31,1,35,8|8,3:0|3:0,3:0:0:0:
241,34,43590,1,4,0:0:0:0:
72,40,44986,5,4,0:0:0:0:
20,208,45334,1,4,0:0:0:0:
207,187,45683,1,12,0:0:0:0:
292,146,45858,2,0,L|335:90,1,52.5000020027161
418,99,46207,2,0,L|487:123,1,52.5000020027161
508,201,46555,1,0,0:0:0:0:
508,201,46730,2,0,L|500:277,1,52.5000020027161
429,316,47079,5,12,0:0:0:0:
429,316,47253,2,0,P|389:345|320:340,1,105.000004005432
355,253,47776,5,4,0:0:0:0:
468,108,48125,1,4,0:0:0:0:
289,45,48474,1,12,0:0:0:0:
203,84,48648,2,0,L|168:135,1,52.5000020027161
212,213,48997,2,0,L|241:256,1,52.5000020027161
329,292,49346,2,0,L|327:236,1,52.5000020027161
470,229,49869,5,8,0:0:0:0:
497,142,50044,2,4,L|509:98,6,26.2500010013581,4|4|4|4|4|4|4,3:0|3:0|3:0|3:0|3:0|3:0|1:0,3:0:0:0:
415,312,50916,5,4,0:0:0:0:
298,163,51265,1,12,0:0:0:0:
248,82,51439,2,0,L|196:90,1,52.5000020027161
101,92,51788,2,0,L|89:149,1,52.5000020027161
53,230,52137,1,0,0:0:0:0:
53,230,52311,2,0,L|108:256,1,52.5000020027161
183,308,52660,5,12,0:0:0:0:
183,308,52834,2,0,P|232:303|272:259,1,105.000004005432,0|0,0:0|0:0,2:0:0:0:
191,209,53358,5,4,0:0:0:0:
52,80,53707,1,4,0:0:0:0:
234,105,54055,1,12,0:0:0:0:
294,178,54230,2,0,L|334:243,1,52.5000020027161
350,313,54579,1,0,0:0:0:0:
350,313,54928,5,6,3:0:0:0:
286,374,55102,1,6,3:0:0:0:
258,288,55276,1,6,3:0:0:0:
346,306,55451,1,6,3:0:0:0:
295,377,55625,1,6,3:0:0:0:
258,297,55800,1,6,3:0:0:0:
231,211,55974,1,6,3:0:0:0:
205,125,56148,5,4,3:1:0:0:
44,162,56846,6,0,L|60:218,1,52.5000020027161,6|0,3:0|3:0,0:0:0:0:
103,295,57195,1,0,3:0:0:0:
103,295,57369,6,0,L|149:245,1,52.5000020027161,6|0,3:0|3:0,0:0:0:0:
218,204,57718,1,0,3:0:0:0:
218,204,57893,6,0,L|239:261,1,52.5000020027161,6|0,3:0|3:0,0:0:0:0:
312,308,58241,1,0,3:0:0:0:
448,367,58416,6,0,P|467:319|455:265,1,105.000004005432,4|8,0:0|0:3,0:3:0:0:
436,175,58939,6,0,L|459:92,1,52.5000020027161,6|0,3:0|3:0,0:0:0:0:
430,31,59288,1,0,3:0:0:0:
342,45,59462,1,0,3:0:0:0:
342,45,59637,6,0,L|285:74,1,52.5000020027161,6|0,3:0|3:0,0:0:0:0:
210,110,59986,1,0,3:0:0:0:
210,110,60160,6,0,L|166:68,1,52.5000020027161,6|0,3:0|3:0,0:0:0:0:
92,22,60509,1,0,3:0:0:0:
92,22,60683,6,0,L|74:71,1,52.5000020027161,6|0,3:0|3:0,0:0:0:0:
36,158,61032,1,0,3:0:0:0:
7,297,61207,6,0,P|50:301|115:270,1,105.000004005432,4|0,2:0|2:0,2:0:0:0:
148,193,61730,6,0,P|164:164|184:151,1,52.5000020027161,6|0,0:3|3:0,0:0:0:0:
274,144,62079,1,0,3:0:0:0:
349,200,62253,1,0,3:0:0:0:
368,292,62428,6,0,P|351:320|331:333,1,52.5000020027161,6|0,0:3|3:0,0:0:0:0:
241,323,62777,1,0,3:0:0:0:
154,286,62951,6,0,P|170:257|190:244,1,52.5000020027161,6|0,0:3|3:0,0:0:0:0:
271,205,63300,1,0,3:0:0:0:
353,158,63474,6,0,P|349:125|336:105,1,52.5000020027161,6|0,0:3|3:0,0:0:0:0:
258,61,63823,1,0,3:0:0:0:
154,19,63997,6,4,L|154:149,1,105
83,341,65218,54,4,B|55:330|55:330|36:257,1,105
408,88,67311,5,0,0:0:0:0:
299,135,67660,2,0,L|255:175,1,35
236,208,68009,1,8,0:0:0:0:
236,272,68183,1,0,0:0:0:0:
420,312,68707,5,0,0:0:0:0:
242,375,69230,1,0,0:0:0:0:
258,186,69753,2,0,L|256:134,1,35,8|0,0:0|0:0,0:0:0:0:
234,91,70102,5,0,0:0:0:0:
120,36,70451,2,0,L|68:77,1,35
59,111,70800,1,8,0:0:0:0:
71,172,70974,1,0,0:0:0:0:
258,151,71497,5,0,0:0:0:0:
404,31,72021,1,0,0:0:0:0:
471,207,72544,2,0,L|445:266,1,35,8|0,0:0|0:0,0:0:0:0:
403,273,72893,5,0,0:0:0:0:
287,323,73241,2,0,L|251:301,1,35
222,252,73590,1,8,0:0:0:0:
216,189,73765,1,0,0:0:0:0:
404,182,74288,5,0,0:0:0:0:
257,63,74811,1,0,0:0:0:0:
111,183,75334,2,0,L|89:233,1,35,8|0,0:0|0:0,0:0:0:0:
117,274,75683,5,0,0:0:0:0:
235,318,76032,2,0,L|275:302,1,35
311,260,76381,1,8,0:0:0:0:
328,199,76555,1,0,0:0:0:0:
144,154,77079,6,0,P|96:128|41:121,2,105,0|0|8,0:0|0:0|0:0,2:0:0:0:
65,252,78474,5,0,0:0:0:0:
184,293,78823,2,0,L|237:274,1,35
267,243,79172,1,8,0:0:0:0:
283,182,79346,1,0,0:0:0:0:
113,97,79869,6,0,P|97:146|100:199,2,105,0|0|8,0:0|0:0|0:0,2:0:0:0:
216,169,81265,1,0,0:0:0:0:
332,217,81614,2,0,L|364:273,1,35
363,304,81962,1,8,0:0:0:0:
355,364,82137,1,0,0:0:0:0:
185,281,82660,5,0,0:0:0:0:
57,141,83183,1,0,0:0:0:0:
208,27,83707,2,0,L|256:37,1,35,8|0,0:0|0:0,0:0:0:0:
288,77,84055,5,0,0:0:0:0:
306,201,84404,2,0,L|280:236,1,35
241,274,84753,1,8,0:0:0:0:
180,292,84928,1,0,0:0:0:0:
158,104,85451,5,0,0:0:0:0:
337,46,85974,1,0,0:0:0:0:
362,233,86497,2,0,L|303:252,1,35,8|0,0:0|0:0,0:0:0:0:
212,232,86846,6,0,L|161:226,3,35,4|4|4|0,3:0|3:0|3:0|3:0,0:0:0:0:
115,214,87544,1,0,3:0:0:0:
65,176,87718,2,0,L|33:108,1,70,4|8,3:0|3:0,0:0:0:0:
63,55,88241,2,0,L|135:11,1,70,4|8,3:0|3:0,0:0:0:0:
186,22,88765,2,0,L|230:82,1,70,4|8,3:0|3:0,0:0:0:0:
257,133,89288,2,0,L|233:165,1,35,12|12,3:0|3:0,0:0:0:0:
172,260,89637,6,0,L|204:328,1,66.4999982242585,4|0,2:0|2:0,0:0:0:0:
310,345,89986,2,0,L|274:269,1,66.4999982242585,4|0,2:0|2:0,0:0:0:0:
332,180,90334,2,0,L|368:256,1,66.4999982242585,4|0,2:0|2:0,0:0:0:0:
468,272,90683,2,0,L|428:188,1,66.4999982242585,4|0,2:0|2:0,0:0:0:0:
396,108,91032,5,4,2:0:0:0:
312,32,91207,1,0,2:0:0:0:
384,118,91381,2,0,L|312:110,1,66.4999982242585,4|0,2:0|2:0,0:0:0:0:
204,121,91730,1,4,2:0:0:0:
263,216,91904,1,0,2:0:0:0:
187,131,92079,2,0,L|131:215,1,66.4999982242585,4|0,2:0|2:0,0:0:0:0:
72,269,92428,6,0,L|104:365,1,66.4999982242585,4|0,2:0|2:0,0:0:0:0:
202,357,92776,2,0,L|170:265,1,66.4999982242585,4|0,2:0|2:0,0:0:0:0:
255,209,93125,1,4,2:0:0:0:
356,259,93300,1,0,2:0:0:0:
264,192,93474,2,0,L|174:216,1,66.4999982242585,4|0,2:0|2:0,0:0:0:0:
89,183,93823,5,8,0:0:0:0:
126,69,93997,2,8,L|82:51,2,33.2499991121292,8|8|8,3:0|3:0|3:0,3:0:0:0:
240,31,94346,1,4,3:0:0:0:
319,121,94521,2,0,L|349:107,3,33.2499991121292,12|12|12|12,3:0|3:0|3:0|3:0,0:0:0:0:
388,61,94869,2,0,L|439:55,3,33.2499991121292,12|12|0|0,3:0|3:0|0:0|0:0,0:0:0:0:
467,66,95218,5,0,0:0:0:0:
432,251,95567,1,12,0:0:0:0:
282,134,95916,1,4,0:0:0:0:
202,184,96090,2,0,L|192:253,1,52.5000020027161
146,317,96439,2,0,L|100:268,1,52.5000020027161
43,211,96788,1,0,0:0:0:0:
43,211,96962,2,0,L|72:151,1,52.5000020027161
35,73,97311,5,12,0:0:0:0:
35,73,97486,2,0,P|84:68|144:112,1,105.000004005432
189,169,98009,5,4,0:0:0:0:
366,234,98358,1,4,0:0:0:0:
317,341,98707,1,12,0:0:0:0:
222,338,98881,2,0,L|180:295,1,52.5000020027161
153,211,99230,1,0,0:0:0:0:
344,200,99579,5,6,3:0:0:0:
404,134,99753,1,6,3:0:0:0:
320,102,99928,1,6,3:0:0:0:
352,185,100102,1,6,3:0:0:0:
400,110,100276,1,6,3:0:0:0:
310,117,100451,1,6,3:0:0:0:
240,172,100625,1,6,3:0:0:0:
278,253,100800,5,6,3:0:0:0:
113,183,101148,1,4,0:0:0:0:
95,360,101497,1,12,0:0:0:0:
187,341,101672,2,0,L|246:323,1,52.5000020027161
332,325,102021,2,0,L|391:343,1,52.5000020027161
466,297,102369,1,0,0:0:0:0:
466,297,102544,2,0,L|475:232,1,52.5000020027161
403,180,102893,5,12,0:0:0:0:
403,180,103067,2,0,P|400:244|364:277,1,105.000004005432
310,201,103590,5,4,0:0:0:0:
165,314,103939,1,4,0:0:0:0:
103,135,104288,1,12,0:0:0:0:
103,135,104462,2,0,L|157:93,1,52.5000020027161
267,63,104811,1,0,0:0:0:0:
417,159,105160,6,0,L|431:115,5,26.2500010013581,12|12|12|12|12|12,3:0|3:0|3:0|3:0|3:0|3:0,0:0:0:0:
462,109,105683,2,0,L|454:63,6,26.2500010013581,12|12|12|12|12|12|12,3:0|3:0|3:0|3:0|3:0|3:0|3:0,0:0:0:0:
460,34,106381,5,4,3:1:0:0:
258,329,107079,6,0,L|234:275,1,52.5000020027161,6|0,3:0|3:0,0:0:0:0:
238,191,107428,1,0,3:0:0:0:
238,191,107602,6,0,L|182:157,1,52.5000020027161,6|0,3:0|3:0,0:0:0:0:
141,90,107951,1,0,3:0:0:0:
141,90,108125,6,0,L|204:32,1,52.5000020027161,6|0,3:0|3:0,0:0:0:0:
269,50,108474,1,0,3:0:0:0:
352,167,108648,6,0,P|368:197|370:273,1,105.000004005432,4|0,0:0|0:0,0:0:0:0:
306,329,109172,6,0,L|283:274,1,52.5000020027161,6|0,3:0|3:0,0:0:0:0:
225,214,109521,1,0,3:0:0:0:
218,125,109695,1,0,3:0:0:0:
218,125,109869,6,0,L|285:133,1,52.5000020027161,6|0,3:0|3:0,0:0:0:0:
358,111,110219,1,0,3:0:0:0:
358,111,110393,6,0,L|333:42,1,52.5000020027161,6|0,3:0|3:0,0:0:0:0:
256,28,110742,1,0,3:0:0:0:
256,28,110916,6,0,L|184:43,1,52.5000020027161,6|0,3:0|3:0,0:0:0:0:
149,109,111265,1,0,3:0:0:0:
134,239,111439,6,0,P|83:223|46:180,1,105.000004005432,4|0,0:0|0:0,0:0:0:0:
32,92,111962,6,0,P|48:63|68:50,1,52.5000020027161,6|0,0:3|3:0,0:0:0:0:
158,53,112311,1,0,3:0:0:0:
196,139,112486,1,0,3:0:0:0:
176,231,112660,6,0,P|202:248|227:251,1,52.5000020027161,6|0,0:3|3:0,0:0:0:0:
310,217,113009,1,0,3:0:0:0:
399,188,113183,6,0,P|419:204|431:227,1,52.5000020027161,6|0,0:3|3:0,0:0:0:0:
435,322,113533,1,0,3:0:0:0:
349,360,113707,6,0,P|328:343|316:320,1,52.5000020027161,6|0,0:3|3:0,0:0:0:0:
283,224,114055,1,0,3:0:0:0:
195,328,114230,6,4,B|157:318|145:272|85:276,1,105
248,24,115451,6,4,P|288:24|322:42,1,70,4|0,0:0|0:0,0:0:0:0:
352,86,115974,1,4,0:0:0:0:
229,212,116497,1,4,0:0:0:0:
67,136,117021,6,4,P|91:92|115:80,1,70
166,83,117544,1,4,0:0:0:0:
331,253,118241,1,4,0:0:0:0:
331,253,118765,1,4,0:0:0:0:
