osu file format v14

[General]
AudioFilename: Celldweller - Pulsar.mp3
AudioLeadIn: 0
PreviewTime: 44986
Countdown: 0
SampleSet: Soft
StackLeniency: 0.7
Mode: 0
LetterboxInBreaks: 0
WidescreenStoryboard: 1

[Editor]
DistanceSpacing: 1.8
BeatDivisor: 4
GridSize: 4
TimelineZoom: 0.7999998

[Metadata]
Title:Pulsar
TitleUnicode:Pulsar
Artist:Celldweller
ArtistUnicode:Celldweller
Creator:-Kanzaki
Version:Easy
Source:
Tags:Electronic rock instrumental arcwinolivirus [_S_a_k_u_r_a_] Shiro Odaril DakeDekaane neonat _Gezo_ The Voices In My Head
BeatmapID:931902
BeatmapSetID:272785

[Difficulty]
HPDrainRate:2
CircleSize:2.5
OverallDifficulty:2
ApproachRate:3
SliderMultiplier:1
SliderTickRate:1

[Events]
//Background and Video events
0,0,"BG.png",0,0
//Break Periods
2,86697,88197
//Storyboard Layer 0 (Background)
//Storyboard Layer 1 (Fail)
//Storyboard Layer 2 (Pass)
//Storyboard Layer 3 (Foreground)
//Storyboard Sound Samples

[TimingPoints]
335,697.674418604651,4,2,1,50,1,0
11497,-100,4,2,1,70,0,0
22486,-100,4,1,1,70,0,0
43590,-100,4,1,1,70,0,1
43765,-100,4,1,1,70,0,0
44986,-100,4,2,1,85,0,1
56148,-100,4,2,1,75,0,0
67137,-100,4,1,1,75,0,0
89637,-100,4,1,1,75,0,1
95218,-100,4,2,1,75,0,1
106381,-100,4,2,1,75,0,0

[Colours]
Combo1 : 85,85,85
Combo2 : 30,131,1
Combo3 : 94,18,197
Combo4 : 142,0,0
Combo5 : 174,122,2
Combo6 : 234,0,0

[HitObjects]
88,211,335,6,0,P|120:159|195:147,1,125
205,275,1730,1,0,0:0:0:0:
424,211,3125,6,0,P|392:159|323:149,1,125
306,278,4520,1,0,0:0:0:0:
208,64,5916,6,0,P|268:59|327:106,1,125
231,196,7311,1,0,0:0:0:0:
208,320,8707,6,0,P|268:325|325:278,1,125
230,186,10102,1,0,0:0:0:0:
92,97,11497,6,0,P|64:197|96:289,1,200,2|2,0:0|0:0,0:0:0:0:
272,308,13590,1,2,0:0:0:0:
404,186,14288,2,0,L|364:74,1,100,2|2,0:0|0:0,0:0:0:0:
204,22,15683,2,0,P|178:70|159:133,1,100,2|2,0:0|0:0,0:0:0:0:
111,285,17079,6,0,P|47:225|35:85,1,200,2|2,0:0|0:0,0:0:0:0:
182,28,19172,1,2,0:0:0:0:
359,55,19869,2,0,L|315:171,1,100,2|2,0:0|0:0,0:0:0:0:
260,317,21265,2,0,P|316:307|372:253,1,100,2|2,0:0|0:0,0:0:0:0:
440,124,22660,6,0,P|408:88|356:68,1,100,0|8,0:0|0:0,0:0:0:0:
288,233,24055,1,0,0:0:0:0:
132,323,24753,1,8,0:0:0:0:
46,164,25451,2,0,P|94:141|154:144,1,100,0|8,0:0|0:0,0:0:0:0:
319,154,26846,1,0,0:0:0:0:
417,304,27544,1,8,0:0:0:0:
236,340,28241,6,0,L|172:256,1,100,0|8,0:0|0:0,0:0:0:0:
216,84,29637,1,0,0:0:0:0:
396,64,30334,1,8,0:0:0:0:
452,236,31032,2,0,P|450:285|411:325,1,100,0|8,0:0|0:0,0:0:0:0:
283,200,32428,1,0,0:0:0:0:
134,98,33125,1,8,0:0:0:0:
64,264,33823,6,0,L|168:288,1,100
264,140,35218,1,0,0:0:0:0:
420,52,35916,1,0,0:0:0:0:
456,228,36614,2,0,P|446:276|415:315,1,100
288,188,38009,2,0,P|308:142|343:107,1,100
460,243,39404,5,4,3:0:0:0:
293,311,40102,1,4,3:0:0:0:
143,210,40800,1,4,3:0:0:0:
300,112,41497,2,12,P|335:78|343:29,2,100,12|12|12,3:0|3:0|3:0,3:0:0:0:
151,9,43590,1,4,0:0:0:0:
376,293,44986,6,0,P|403:230|400:154,1,100,4|10,0:0|0:0,0:0:0:0:
254,102,46381,1,4,0:0:0:0:
164,258,47079,1,10,0:0:0:0:
15,156,47776,2,0,P|17:110|53:56,1,100,4|10,0:0|0:0,0:0:0:0:
193,165,49172,1,4,0:0:0:0:
314,297,49869,2,0,L|334:251,1,50,10|4,0:0|0:0,0:0:0:0:
386,177,50567,6,0,P|370:129|338:91,1,100,4|8,0:0|0:0,0:0:0:0:
216,223,51962,1,4,0:0:0:0:
52,135,52660,1,8,0:0:0:0:
209,47,53358,1,4,0:0:0:0:
382,94,54055,2,0,L|360:188,1,75,8|4,0:0|0:0,0:0:0:0:
337,253,54928,2,0,P|264:266|169:227,1,175,12|4,0:0|0:0,0:0:0:0:
276,82,56846,6,0,L|328:16,2,75,4|4|4,0:0|0:0|0:0,0:0:0:0:
209,199,58416,2,0,P|175:214|137:218,1,75,4|4,0:0|0:0,0:0:0:0:
25,77,59637,2,0,L|-4:-15,2,75,4|4|4,0:0|0:0|0:0,0:0:0:0:
68,205,61207,2,0,P|129:228|154:230,1,75,4|4,0:0|0:0,0:0:0:0:
312,182,62428,6,0,L|350:101,2,75,4|4|4,0:0|0:0|0:0,0:0:0:0:
312,316,63997,2,0,P|241:301|225:287,1,75,4|4,0:0|0:0,0:0:0:0:
172,134,65218,2,0,L|259:139,1,75,4|4,0:0|0:0,0:0:0:0:
416,244,67311,6,0,P|426:181|407:139,1,100,0|8,0:0|0:0,0:0:0:0:
236,96,68707,2,0,L|160:84,2,75,0|0|8,0:0|0:0|0:0,0:0:0:0:
288,168,70102,2,0,P|296:240|280:272,1,100,0|8,0:0|0:0,0:0:0:0:
120,332,71497,2,0,L|46:337,2,75,0|0|8,0:0|0:0|0:0,0:0:0:0:
208,344,72893,6,0,P|268:364|316:360,1,100,0|8,0:0|0:0,0:0:0:0:
452,260,74288,2,0,L|516:188,2,75,0|0|8,0:0|0:0|0:0,0:0:0:0:
364,276,75683,2,0,P|308:284|252:256,1,100,0|8,0:0|0:0,0:0:0:0:
172,116,77079,2,0,L|144:40,2,75,0|0|8,0:0|0:0|0:0,0:0:0:0:
196,204,78474,6,0,P|181:247|137:291,1,100,0|8,0:0|0:0,0:0:0:0:
24,152,79869,2,0,L|28:64,2,75,0|0|8,0:0|0:0|0:0,0:0:0:0:
24,244,81265,2,0,P|32:292|68:336,1,100,0|8,0:0|0:0,0:0:0:0:
244,340,82660,2,0,L|328:316,2,75,0|0|8,0:0|0:0|0:0,0:0:0:0:
156,328,84055,6,0,P|128:260|132:212,1,100,0|8,0:0|0:0,0:0:0:0:
244,96,85451,2,0,L|275:27,2,75,0|0|8,0:0|0:0|0:0,0:0:0:0:
419,325,89637,6,0,L|486:342,2,50,8|4|8,0:0|0:0|0:0,0:0:0:0:
335,290,90683,1,4,0:0:0:0:
249,260,91032,2,0,L|182:277,2,50,8|4|8,0:0|0:0|0:0,0:0:0:0:
320,204,92079,1,4,0:0:0:0:
404,172,92428,2,0,L|471:189,2,50,8|4|8,0:0|0:0|0:0,0:0:0:0:
333,115,93474,1,4,0:0:0:0:
251,75,93823,2,0,L|197:94,1,50,4|8,0:0|0:0,0:0:0:0:
144,159,94521,2,0,L|118:207,1,50,4|8,0:0|0:0,0:0:0:0:
152,288,95218,6,0,P|200:308|268:308,1,100,12|4,0:0|0:0,0:0:0:0:
416,248,96614,1,8,0:0:0:0:
364,76,97311,1,4,0:0:0:0:
184,60,98009,2,0,P|177:109|190:157,1,100,8|4,0:0|0:0,0:0:0:0:
364,204,99404,2,0,P|429:201|465:213,1,100,12|4,0:0|0:0,0:0:0:0:
336,344,100800,6,0,P|286:349|238:336,1,100,8|4,0:0|0:0,0:0:0:0:
84,244,102194,1,8,0:0:0:0:
64,64,102893,1,4,0:0:0:0:
244,52,103590,1,8,0:0:0:0:
393,151,104288,2,0,P|432:207|438:224,1,75,4|4,0:0|0:0,0:0:0:0:
441,303,105160,2,0,P|382:350|275:327,1,175,12|4,0:0|0:0,0:0:0:0:
152,178,107079,6,4,L|247:159,1,75
356,197,108125,1,4,0:0:0:0:
415,75,108648,2,4,P|364:57|329:72,1,75,4|4,0:0|1:0,0:0:0:0:
202,171,109869,2,4,L|129:225,2,75
334,143,111439,2,4,P|381:154|413:180,1,75,6|4,0:0|1:0,0:0:0:0:
315,326,112660,5,4,0:0:0:0:
180,320,113183,1,4,0:0:0:0:
120,198,113707,1,4,0:0:0:0:
229,118,114230,2,4,P|268:110|304:130,1,75,4|4,0:0|1:0,0:0:0:0:
394,278,115451,2,4,L|419:207,1,75,4|4,0:0|1:0,0:0:0:0:
484,89,116497,1,4,0:0:0:0:
356,128,117021,6,4,P|318:166|286:168,1,75,4|4,0:0|1:0,0:0:0:0:
212,12,118241,1,4,0:0:0:0:
116,108,118765,1,4,0:0:0:0:
