osu file format v14

[General]
AudioFilename: audio.mp3
AudioLeadIn: 0
PreviewTime: 302017
Countdown: 0
SampleSet: Normal
StackLeniency: 0.4
Mode: 0
LetterboxInBreaks: 0
WidescreenStoryboard: 0

[Editor]
Bookmarks: 9232,100946,178660,290660,379803
DistanceSpacing: 1.1
BeatDivisor: 4
GridSize: 32
TimelineZoom: 2.6

[Metadata]
Title:Lost In Time
TitleUnicode:Lost In Time
Artist:Celldweller
ArtistUnicode:Celldweller
Creator:FCL
Version:Extra
Source:
Tags:
BeatmapID:1583320
BeatmapSetID:752132

[Difficulty]
HPDrainRate:6.5
CircleSize:4
OverallDifficulty:9.3
ApproachRate:9.5
SliderMultiplier:2
SliderTickRate:1

[Events]
//Background and Video events
0,0,"351958-sepik.jpg",0,0
//Break Periods
2,196946,210135
//Storyboard Layer 0 (Background)
//Storyboard Layer 1 (Fail)
//Storyboard Layer 2 (Pass)
//Storyboard Layer 3 (Foreground)
//Storyboard Layer 4 (Overlay)
//Storyboard Sound Samples

[TimingPoints]
375,285.714285714286,4,1,0,60,1,0
9232,-125,4,1,0,60,0,0
11375,-166.666666666667,4,1,0,60,0,0
11803,-125,4,1,0,60,0,0
13660,-200,4,1,0,60,0,0
14089,-125,4,1,0,60,0,0
15803,-166.666666666667,4,1,0,60,0,0
16375,-125,4,1,0,60,0,0
18232,-200,4,1,0,60,0,0
18660,-125,4,1,0,60,0,0
20517,-200,4,1,0,60,0,0
20946,-125,4,1,0,60,0,0
22803,-166.666666666667,4,1,0,60,0,0
23232,-125,4,1,0,60,0,0
24946,-166.666666666667,4,1,0,60,0,0
25517,-100,4,1,0,60,0,0
27803,-125,4,1,0,60,0,0
33517,-100,4,1,0,60,0,0
34232,-125,4,1,0,60,0,0
34517,-100,4,1,0,60,0,0
34660,-125,4,1,0,60,0,0
35089,-100,4,1,0,60,0,0
35517,-125,4,1,0,60,0,0
36517,-100,4,1,0,60,0,0
36946,-125,4,1,0,60,0,0
39946,-100,4,1,0,60,0,0
40375,-100,4,1,0,60,0,0
41517,-111.111111111111,4,1,0,60,0,0
48375,-76.9230769230769,4,1,0,60,0,0
49660,-100,4,1,0,60,0,0
50660,-111.111111111111,4,1,0,60,0,0
54089,-90.9090909090908,4,1,0,60,0,0
54375,-100,4,1,0,60,0,0
54660,-125,4,1,0,60,0,0
54946,-166.666666666667,4,1,0,60,0,0
55232,-111.111111111111,4,1,0,60,0,0
58660,-90.9090909090908,4,1,0,60,0,0
58946,-100,4,1,0,60,0,0
59232,-111.111111111111,4,1,0,60,0,0
59803,-111.111111111111,4,1,0,60,0,0
68946,-100,4,1,0,70,0,1
79232,-90.9090909090909,4,1,0,70,0,1
82660,-100,4,1,0,70,0,0
86660,-125,4,1,0,70,0,0
87232,-100,4,1,0,70,0,1
97517,-90.9090909090909,4,1,0,70,0,1
99803,-125,4,1,0,70,0,1
100232,-153.846153846154,4,1,0,70,0,1
100660,-200,4,1,0,70,0,1
100946,-125,4,1,0,70,0,0
105517,-166.666666666667,4,1,0,70,0,0
109089,-125,4,1,0,70,0,0
111232,-100,4,1,0,70,0,0
111946,-125,4,1,0,70,0,0
112232,-100,4,1,0,70,0,0
112375,-125,4,1,0,70,0,0
112660,-100,4,1,0,70,0,0
113232,-125,4,1,0,70,0,0
114232,-100,4,1,0,70,0,0
114660,-125,4,1,0,70,0,0
115232,-100,4,1,0,70,0,0
115803,-125,4,1,0,70,0,0
117660,-100,4,1,0,70,0,0
119232,-111.111111111111,4,1,0,70,0,0
126089,-76.9230769230769,4,1,0,70,0,0
127232,-100,4,1,0,70,0,0
128375,-111.111111111111,4,1,0,70,0,0
131803,-90.9090909090909,4,1,0,70,0,0
132089,-100,4,1,0,70,0,0
132375,-125,4,1,0,70,0,0
132660,-166.666666666667,4,1,0,70,0,0
132946,-111.111111111111,4,1,0,70,0,0
136375,-90.9090909090908,4,1,0,70,0,0
136660,-100,4,1,0,70,0,0
136946,-111.111111111111,4,1,0,70,0,0
146660,-100,4,1,0,70,0,1
156946,-90.9090909090909,4,1,0,70,0,1
160375,-100,4,1,0,70,0,0
164375,-125,4,1,0,70,0,0
164946,-100,4,1,0,70,0,1
175232,-90.9090909090909,4,1,0,70,0,1
177517,-125,4,1,0,70,0,1
177946,-153.846153846154,4,1,0,70,0,1
178375,-200,4,1,0,70,0,1
178660,-125,4,1,0,70,0,0
187232,-133.333333333333,4,1,0,70,0,0
187660,-125,4,1,0,70,0,0
210660,-125,4,1,0,30,0,0
215232,-125,4,1,0,60,0,0
270089,-166.666666666667,4,1,0,70,0,0
297517,-100,4,1,0,70,0,0
302089,-100,4,1,0,70,0,1
312375,-90.9090909090909,4,1,0,70,0,1
315803,-100,4,1,0,70,0,0
320375,-100,4,1,0,70,0,1
330660,-90.9090909090909,4,1,0,70,0,1
332946,-125,4,1,0,70,0,1
333375,-153.846153846154,4,1,0,70,0,1
333803,-200,4,1,0,70,0,1
334089,-100,4,1,0,70,0,0
341089,-153.846153846153,4,1,0,70,0,0
341517,-100,4,1,0,70,0,0
342803,-166.666666666667,4,1,0,70,0,0
343232,-153.846153846154,4,1,0,70,0,0
347803,-100,4,1,0,70,0,0
350089,-125,4,1,0,70,0,0
352375,-125,4,1,0,70,0,0

[Colours]
Combo1 : 185,177,168
Combo2 : 66,155,106
Combo3 : 134,97,243
Combo4 : 247,141,106

[HitObjects]
155,82,9232,5,0,0:0:0:0:
155,82,9517,6,0,L|247:78,1,80,4|0,0:0|0:0,0:0:0:0:
394,195,9803,2,0,P|352:144|399:46,1,160,0|8,0:0|0:0,0:0:0:0:
278,271,10375,1,0,0:0:0:0:
355,289,10517,1,0,0:0:0:0:
432,309,10660,2,0,B|388:294|388:294|249:329,1,160
160,350,11089,1,0,0:0:0:0:
82,258,11232,1,8,0:0:0:0:
163,94,11375,6,0,B|159:133|159:133|171:179|171:179|165:264,1,149.999995422363,0|0,0:0|2:0,0:0:0:0:
166,242,11803,6,0,P|200:222|271:206,1,80
402,290,12089,1,0,0:0:0:0:
412,210,12232,1,0,0:0:0:0:
421,130,12375,2,0,P|366:134|303:32,1,160,8|0,0:0|0:0,0:0:0:0:
215,18,12803,1,0,0:0:0:0:
137,74,12946,6,0,B|163:126|163:126|143:248,1,160
203,333,13375,1,0,0:0:0:0:
318,301,13517,1,8,0:0:0:0:
501,360,13660,6,0,B|453:356|453:356|437:359|437:359|418:351|418:351|362:345,1,125,0|0,0:0|2:0,0:0:0:0:
378,346,14089,6,0,P|396:317|403:249,1,80
278,108,14375,1,0,0:0:0:0:
257,184,14517,1,0,0:0:0:0:
231,259,14660,2,0,P|180:261|103:166,1,160,8|0,0:0|0:0,0:0:0:0:
47,30,15089,1,0,0:0:0:0:
14,117,15232,6,0,P|65:119|139:24,1,160
339,119,15660,1,0,0:0:0:0:
368,205,15803,6,0,P|317:207|253:96,1,179.999994506836,8|0,0:0|2:0,0:0:0:0:
459,29,16375,6,0,L|455:116,1,80
368,205,16660,1,0,0:0:0:0:
363,284,16803,1,0,0:0:0:0:
360,364,16946,2,0,P|281:352|193:343,1,160,8|0,0:0|0:0,0:0:0:0:
119,292,17375,1,0,0:0:0:0:
43,234,17517,6,0,P|49:182|44:126,1,80
246,76,17803,1,0,0:0:0:0:
128,99,17946,1,0,0:0:0:0:
211,185,18089,1,8,0:0:0:0:
204,62,18232,6,0,B|201:100|201:100|214:139|214:139|209:199,1,125
210,184,18660,6,0,P|222:241|223:280,1,80,4|0,0:0|0:0,0:0:0:0:
389,158,18946,2,0,P|377:215|376:254,1,80
484,9,19232,2,0,P|454:59|343:49,1,160,8|0,0:0|0:0,0:0:0:0:
268,33,19660,1,0,0:0:0:0:
184,80,19803,2,0,L|194:246,1,160
281,161,20232,1,0,0:0:0:0:
83,129,20375,1,8,0:0:0:0:
134,288,20517,6,0,B|178:266|178:266|271:284,1,125,0|0,0:0|2:0,0:0:0:0:
252,280,20946,6,0,P|296:271|335:252,1,80,4|0,0:0|0:0,0:0:0:0:
424,134,21232,1,0,0:0:0:0:
365,78,21375,1,0,0:0:0:0:
305,25,21517,2,0,L|119:16,1,160,8|0,0:0|0:0,0:0:0:0:
66,74,21946,1,0,0:0:0:0:
74,169,22089,6,0,P|119:156|211:226,1,160,4|0,0:0|0:0,0:0:0:0:
143,316,22517,1,0,0:0:0:0:
262,328,22660,1,8,0:0:0:0:
425,280,22803,6,0,B|387:289|387:289|358:283|358:283|272:304,1,149.999995422363,0|0,0:0|2:0,0:0:0:0:
278,302,23232,6,0,P|292:241|281:197,1,80,4|0,0:0|0:0,0:0:0:0:
144,85,23517,1,0,0:0:0:0:
223,74,23660,1,0,0:0:0:0:
302,65,23803,2,0,L|288:242,1,160,8|0,0:0|0:0,0:0:0:0:
396,157,24232,1,0,0:0:0:0:
203,228,24375,6,0,P|223:279|342:296,1,160
56,155,24803,1,0,0:0:0:0:
141,157,24946,6,0,P|121:208|-3:217,1,179.999994506836,8|0,0:0|0:0,0:0:0:0:
251,14,25517,6,0,B|294:56|294:56|275:209,1,200,12|0,0:0|0:0,0:0:0:0:
302,375,26089,6,0,B|259:333|259:333|278:180,1,200,12|0,0:0|0:0,0:0:0:0:
437,150,26660,6,0,P|396:205|265:181,1,200,12|0,0:0|0:0,0:0:0:0:
182,87,27089,1,0,0:0:0:0:
115,236,27232,6,0,P|156:181|287:205,1,200,12|0,0:0|0:0,0:0:0:0:
454,49,27803,6,0,L|446:118,1,40
433,219,27946,1,0,0:0:0:0:
330,139,28089,1,0,0:0:0:0:
330,139,28160,1,0,0:0:0:0:
330,139,28232,1,0,0:0:0:0:
498,151,28375,5,0,0:0:0:0:
334,209,28517,1,0,0:0:0:0:
498,151,28803,5,0,0:0:0:0:
334,209,28946,2,0,L|328:322,1,80
256,117,29232,1,0,0:0:0:0:
256,117,29303,1,0,0:0:0:0:
256,117,29375,1,0,0:0:0:0:
362,130,29517,5,0,0:0:0:0:
229,194,29660,1,0,0:0:0:0:
362,130,29946,5,0,0:0:0:0:
229,194,30089,2,0,L|223:307,1,80
339,340,30375,1,0,0:0:0:0:
339,340,30446,1,0,0:0:0:0:
339,340,30517,1,0,0:0:0:0:
315,243,30660,5,0,0:0:0:0:
239,375,30803,1,0,0:0:0:0:
239,375,31089,5,0,0:0:0:0:
212,168,31232,1,8,0:0:0:0:
368,145,31375,2,0,B|320:148|320:148|295:162|295:162|180:169,1,160
161,241,31803,5,8,0:0:0:0:
5,264,31946,2,0,B|53:261|53:261|78:247|78:247|193:240,1,160
330,363,32375,5,0,0:0:0:0:
418,230,32517,1,0,0:0:0:0:
369,77,32660,2,0,P|314:121|220:100,1,160,0|8,0:0|0:0,0:0:0:0:
230,107,33232,6,0,L|235:198,1,80
126,322,33517,6,0,P|158:301|242:294,1,100,0|0,0:0|2:0,0:0:0:0:
315,354,33732,6,0,P|354:338|319:300,1,100,0|0,0:0|2:0,0:0:0:0:
322,149,33946,2,0,L|330:306,1,150,0|0,0:0|2:0,0:0:0:0:
411,388,34232,6,0,P|430:340|398:255,1,120,0|0,0:0|2:0,0:0:0:0:
322,149,34517,6,0,L|319:74,1,50,0|0,0:0|2:0,0:0:0:0:
474,19,34660,6,0,L|381:25,1,80
334,187,34946,2,0,P|324:160|320:131,1,40,0|0,0:0|2:0,0:0:0:0:
210,192,35089,6,0,B|359:183|359:183|298:126,1,200,0|0,0:0|2:0,0:0:0:0:
94,265,35517,6,0,L|103:314,1,40,0|0,0:0|2:0,0:0:0:0:
26,312,35660,6,0,P|77:340|65:255,1,160,0|0,0:0|2:0,0:0:0:0:
349,278,36089,6,0,P|337:245|335:211,1,40,0|0,0:0|2:0,0:0:0:0:
333,361,36232,6,0,L|338:206,1,120,0|0,0:0|2:0,0:0:0:0:
403,200,36517,6,0,B|419:152|419:152|397:95,2,100
253,129,36946,6,0,B|293:97|293:97|407:107,1,160
246,9,37517,2,0,L|253:142,1,120,8|0,0:0|2:0,0:0:0:0:
277,196,37803,6,0,P|235:176|260:125,1,106.666666666667
360,244,38089,2,0,L|217:240,1,120,0|0,0:0|2:0,0:0:0:0:
135,326,38375,6,0,L|131:268,1,40,0|0,0:0|2:0,0:0:0:0:
124,210,38517,2,0,L|120:152,1,40,0|0,0:0|2:0,0:0:0:0:
40,118,38660,2,0,B|88:115|88:115|119:126|119:126|222:120,1,160,8|0,0:0|0:0,0:0:0:0:
197,121,39232,6,0,P|236:96|323:73,1,120,0|0,0:0|2:0,0:0:0:0:
372,134,39517,2,0,L|471:128,1,80
386,57,39803,1,8,0:0:0:0:
306,200,39946,6,0,B|322:248|322:248|308:297,2,100
382,341,40375,5,12,0:0:0:0:
105,261,40517,2,0,P|138:252|227:253,1,100
375,352,40946,5,12,0:0:0:0:
455,75,41089,2,0,P|464:108|463:197,1,100
114,266,41517,5,0,0:0:0:0:
383,235,41660,1,0,0:0:0:0:
210,116,41803,2,0,P|236:176|239:235,1,89.9999972534181
33,97,42089,2,0,B|104:99|104:99|140:114|140:114|242:116,1,179.999994506836,8|0,0:0|0:0,0:0:0:0:
375,71,42517,1,0,0:0:0:0:
471,140,42660,5,0,0:0:0:0:
206,215,42803,1,0,0:0:0:0:
396,323,42946,2,0,P|383:267|386:206,1,89.9999972534181
209,115,43232,5,8,0:0:0:0:
512,220,43375,1,0,0:0:0:0:
396,323,43517,2,0,P|351:325|307:336,1,89.9999972534181
142,375,43803,5,0,0:0:0:0:
218,99,43946,1,0,0:0:0:0:
37,180,44089,2,0,L|155:175,1,89.9999972534181
282,262,44375,1,8,0:0:0:0:
142,375,44517,2,0,P|116:363|120:300,2,89.9999972534181
282,262,44946,5,8,0:0:0:0:
37,180,45089,1,0,0:0:0:0:
178,150,45232,1,0,0:0:0:0:
178,150,45375,1,4,0:3:0:0:
112,307,45517,5,8,0:0:0:0:
72,96,45660,1,0,0:0:0:0:
193,4,45803,2,0,P|158:29|163:71,1,89.9999972534181
266,174,46089,5,0,0:0:0:0:
27,27,46232,1,0,0:0:0:0:
135,149,46375,2,0,P|145:196|146:260,1,89.9999972534181
263,84,46660,2,0,L|266:199,1,89.9999972534181,8|0,0:0|0:0,0:0:0:0:
421,38,46946,2,0,P|411:85|410:149,1,89.9999972534181
486,297,47232,5,0,0:0:0:0:
207,334,47375,1,0,0:0:0:0:
408,126,47517,2,0,P|387:182|382:239,1,89.9999972534181
387,377,47803,5,8,0:0:0:0:
271,97,47946,1,0,0:0:0:0:
151,216,48089,5,0,0:3:0:0:
168,212,48184,1,0,0:3:0:0:
185,207,48279,1,0,0:3:0:0:
95,157,48375,6,0,P|72:231|195:291,1,194.999991073609,4|0,0:0|2:0,0:0:0:0:
271,97,48660,6,0,B|133:86|133:86|158:99|177:145,1,194.999991073609,4|0,0:0|2:0,0:0:0:0:
401,30,48946,6,0,B|346:112|346:112|396:243,1,194.999991073609,4|0,0:0|2:0,0:0:0:0:
288,257,49232,6,0,P|339:294|368:192,1,194.999991073609,4|0,0:0|2:0,0:0:0:0:
234,333,49517,5,4,0:0:0:0:
231,140,49660,2,0,B|222:200|222:200|246:242|246:242|232:345,1,200
381,283,50089,5,4,0:0:0:0:
384,90,50232,2,0,B|393:150|393:150|369:192|369:192|383:295,1,200
118,35,50660,6,0,P|145:101|263:92,1,179.999994506836,4|0,0:0|0:0,0:0:0:0:
320,17,51089,1,0,0:0:0:0:
146,141,51232,2,0,P|155:192|150:253,1,89.9999972534181,8|0,0:0|0:0,0:0:0:0:
314,369,51517,2,0,L|438:363,1,89.9999972534181
500,148,51803,6,0,B|456:153|456:153|416:138|416:138|291:143,1,179.999994506836
119,69,52232,2,0,P|123:118|140:157,1,89.9999972534181,0|8,0:0|0:0,0:0:0:0:
225,79,52517,1,0,0:0:0:0:
66,215,52660,2,0,L|74:340,1,89.9999972534181
237,349,52946,6,0,B|283:322|283:322|446:334,1,179.999994506836
478,203,53375,1,0,0:0:0:0:
434,66,53517,2,0,P|392:90|297:35,1,134.999995880127,8|0,0:0|2:0,0:0:0:0:
293,49,53803,2,0,L|296:162,1,89.9999972534181
85,278,54089,6,0,B|135:274|135:274|171:289|171:289|282:279,1,165.000005035401,0|0,0:0|2:0,0:0:0:0:
318,342,54375,6,0,P|277:305|306:193,1,150,0|0,0:0|2:0,0:0:0:0:
396,217,54660,6,0,B|337:233|337:233|260:209,1,120,8|0,0:0|2:0,0:0:0:0:
213,84,54946,6,0,P|216:130|216:189,1,89.9999972534181,0|0,0:0|2:0,0:0:0:0:
83,247,55232,6,0,P|106:193|241:192,1,179.999994506836,4|0,0:0|0:0,0:0:0:0:
174,252,55660,1,0,0:0:0:0:
21,66,55803,2,0,P|74:76|141:74,1,89.9999972534181,8|0,0:0|0:0,0:0:0:0:
231,15,56089,1,0,0:0:0:0:
325,111,56232,1,0,0:0:0:0:
444,47,56375,6,0,B|438:114|438:114|451:141|451:141|442:255,1,179.999994506836
277,350,56803,2,0,P|246:318|194:285,1,89.9999972534181,0|8,0:0|0:0,0:0:0:0:
257,211,57089,1,0,0:0:0:0:
91,302,57232,1,0,0:0:0:0:
115,183,57375,1,0,0:0:0:0:
142,60,57517,6,0,P|174:114|291:96,1,179.999994506836
380,224,57946,1,0,0:0:0:0:
441,29,58089,1,8,0:0:0:0:
366,123,58232,1,0,0:0:0:0:
467,244,58375,2,0,P|407:228|346:220,1,89.9999972534181
204,350,58660,6,0,B|193:228|193:228|202:259|236:298,1,165.000005035401,0|0,0:0|2:0,0:0:0:0:
66,197,58946,6,0,P|128:245|213:203,1,150,0|0,0:0|2:0,0:0:0:0:
272,106,59232,6,0,L|278:155,1,44.999998626709,8|0,0:0|2:0,0:0:0:0:
292,215,59375,2,0,L|297:170,1,44.999998626709,0|0,0:0|2:0,0:0:0:0:
277,61,59517,6,0,L|271:110,1,44.999998626709,0|0,0:0|2:0,0:0:0:0:
297,259,59660,2,0,L|291:214,1,44.999998626709,0|0,0:0|2:0,0:0:0:0:
451,115,59803,6,0,L|262:105,1,179.999994506836,4|0,0:0|0:0,0:0:0:0:
175,195,60232,1,0,0:0:0:0:
51,61,60375,2,0,P|71:105|79:174,1,89.9999972534181,8|0,0:0|0:0,0:0:0:0:
5,347,60660,2,0,L|115:339,1,89.9999972534181
311,370,60946,6,0,L|294:198,1,134.999995880127,0|0,0:0|2:0,0:0:0:0:
271,211,61232,2,0,P|290:168|292:92,1,89.9999972534181
134,17,61517,1,8,0:0:0:0:
165,109,61660,1,0,0:0:0:0:
303,36,61803,2,0,L|293:151,1,89.9999972534181
451,297,62089,6,0,P|394:251|344:224,1,89.9999972534181
234,315,62375,1,0,0:0:0:0:
106,217,62517,1,0,0:0:0:0:
106,54,62660,2,0,L|225:48,1,89.9999972534181,8|0,0:0|0:0,0:0:0:0:
397,101,62946,1,0,0:0:0:0:
269,136,63089,1,0,0:0:0:0:
488,16,63232,6,0,P|471:55|485:149,1,134.999995880127,0|0,0:0|2:0,0:0:0:0:
502,181,63517,2,0,L|408:178,1,89.9999972534181
212,257,63803,2,0,P|238:312|242:357,1,89.9999972534181,8|0,0:0|0:0,0:0:0:0:
95,169,64089,1,0,0:0:0:0:
258,183,64232,1,0,0:0:0:0:
62,349,64375,6,0,L|249:340,1,179.999994506836,8|0,0:0|0:0,0:0:0:0:
343,261,64803,1,0,0:0:0:0:
78,191,64946,6,0,L|265:182,1,179.999994506836,8|0,0:0|0:0,0:0:0:0:
352,281,65375,1,0,0:0:0:0:
105,21,65517,6,0,B|71:67|71:67|78:205,1,179.999994506836,8|0,0:0|0:0,0:0:0:0:
257,182,65946,1,0,0:0:0:0:
235,352,66089,6,0,B|266:304|266:304|255:166,1,179.999994506836,8|0,0:0|0:0,0:0:0:0:
77,190,66517,1,0,0:0:0:0:
206,25,66660,6,0,P|198:93|200:120,1,89.9999972534181,8|0,0:0|0:0,0:0:0:0:
382,199,66946,1,0,0:0:0:0:
382,199,67089,1,0,0:0:0:0:
177,294,67232,6,0,P|169:226|171:199,1,89.9999972534181,8|0,0:0|0:0,0:0:0:0:
352,122,67517,1,0,0:0:0:0:
352,122,67660,1,0,0:0:0:0:
177,294,67803,5,0,0:0:0:0:
140,85,67946,1,0,0:0:0:0:
154,279,68089,5,0,0:0:0:0:
164,107,68232,1,0,0:0:0:0:
230,194,68375,5,0,0:0:0:0:
83,186,68517,1,0,0:0:0:0:
213,204,68660,5,0,0:0:0:0:
101,177,68803,1,0,0:0:0:0:
373,48,68946,6,0,L|364:170,1,100,12|0,0:0|0:0,0:0:0:0:
349,345,69232,1,0,0:0:0:0:
213,204,69375,2,0,P|270:232|325:242,1,100,8|0,0:0|0:0,0:0:0:0:
450,154,69660,1,0,0:0:0:0:
296,27,69803,6,0,L|287:149,1,100,8|0,0:0|0:0,0:0:0:0:
95,251,70089,1,8,0:0:0:0:
213,204,70232,1,0,0:0:0:0:
52,125,70375,1,0,0:0:0:0:
261,307,70517,6,0,P|315:320|392:321,1,100,8|0,0:0|0:0,0:0:0:0:
145,383,70803,1,0,0:0:0:0:
373,191,70946,2,0,L|365:52,1,100,8|0,0:0|0:0,0:0:0:0:
80,90,71232,5,8,0:0:0:0:
286,30,71375,1,0,0:0:0:0:
234,239,71517,1,0,0:0:0:0:
195,99,71660,5,8,0:0:0:0:
144,308,71803,1,0,0:0:0:0:
350,249,71946,1,0,0:0:0:0:
32,156,72089,6,0,P|47:204|54:269,1,100,8|0,0:0|0:0,0:0:0:0:
301,322,72375,1,8,0:0:0:0:
427,137,72517,2,0,L|317:129,1,100
183,22,72803,1,8,0:0:0:0:
247,202,72946,1,0,0:0:0:0:
247,202,73017,1,0,0:0:0:0:
247,202,73089,1,0,0:0:0:0:
270,79,73232,1,0,0:0:0:0:
135,237,73375,1,0,0:0:0:0:
141,271,73446,1,0,0:0:0:0:
147,305,73517,6,0,P|209:323|286:325,1,100,12|0,0:0|0:0,0:0:0:0:
418,179,73803,1,0,0:0:0:0:
298,35,73946,2,0,L|313:168,1,100,8|0,0:0|0:0,0:0:0:0:
489,119,74232,1,0,0:0:0:0:
346,350,74375,6,0,P|358:297|357:230,1,100,8|0,0:0|0:0,0:0:0:0:
168,188,74660,1,8,0:0:0:0:
309,134,74803,1,0,0:0:0:0:
233,355,74946,1,0,0:0:0:0:
459,256,75089,2,0,L|332:250,1,100,8|0,0:0|0:0,0:0:0:0:
270,43,75375,1,0,0:0:0:0:
206,265,75517,2,0,P|259:220|317:196,1,100,8|0,0:0|0:0,0:0:0:0:
502,79,75803,5,8,0:0:0:0:
382,68,75946,1,0,0:0:0:0:
262,57,76089,1,0,0:0:0:0:
165,217,76232,5,8,0:0:0:0:
285,206,76375,1,0,0:0:0:0:
405,195,76517,1,0,0:0:0:0:
207,384,76660,2,0,P|227:320|227:267,1,100,8|0,0:0|0:0,0:0:0:0:
14,95,76946,5,8,0:3:0:0:
196,25,77089,1,8,0:3:0:0:
165,217,77232,1,8,0:3:0:0:
50,96,77375,5,4,0:0:0:0:
191,60,77517,1,8,0:3:0:0:
151,200,77660,1,8,0:3:0:0:
265,124,77803,5,4,0:0:0:0:
15,192,77946,1,8,0:3:0:0:
299,346,78089,6,0,L|288:220,1,100,12|0,0:0|0:0,0:0:0:0:
271,25,78375,1,0,0:0:0:0:
439,254,78517,2,0,P|375:247|299:351,1,200,8|0,0:0|0:0,0:0:0:0:
53,240,78946,1,8,0:0:0:0:
294,170,79089,1,0,0:0:0:0:
39,44,79232,6,0,L|45:167,1,110.000003356934,12|0,0:0|0:0,0:0:0:0:
344,63,79517,1,0,0:0:0:0:
298,345,79660,2,0,P|305:281|176:207,1,220.000006713867,8|0,0:0|0:0,0:0:0:0:
221,12,80089,1,8,0:0:0:0:
387,162,80232,1,0,0:0:0:0:
149,101,80375,6,0,P|174:151|191:223,1,110.000003356934,12|0,0:0|0:0,0:0:0:0:
37,267,80660,1,0,0:0:0:0:
222,295,80803,1,8,0:0:0:0:
76,151,80946,1,0,0:0:0:0:
23,357,81089,1,0,0:0:0:0:
350,252,81232,2,0,L|340:131,1,110.000003356934,8|0,0:0|0:0,0:0:0:0:
175,44,81517,5,4,0:0:0:0:
99,250,81660,1,0,0:0:0:0:
184,23,81803,1,0,0:0:0:0:
240,173,81946,5,8,0:0:0:0:
34,97,82089,1,0,0:0:0:0:
261,182,82232,1,0,0:0:0:0:
99,250,82375,5,0,0:0:0:0:
99,250,82517,1,0,0:0:0:0:
261,330,82660,5,4,0:0:0:0:
261,330,82803,1,0,0:0:0:0:
261,330,82946,1,0,0:0:0:0:
261,330,83089,1,0,0:0:0:0:
261,330,83232,2,0,L|281:88,1,200,8|12,0:0|0:0,0:0:0:0:
57,41,83803,5,4,0:0:0:0:
215,83,83946,1,0,0:0:0:0:
57,41,84089,1,0,0:0:0:0:
215,83,84232,1,0,0:0:0:0:
57,41,84375,2,0,P|101:100|229:64,1,200,8|12,0:0|0:0,0:0:0:0:
456,230,84946,5,4,0:0:0:0:
264,266,85089,1,0,0:0:0:0:
456,230,85232,1,0,0:0:0:0:
264,266,85375,1,0,0:0:0:0:
456,230,85517,2,0,B|377:236|377:236|342:262|342:262|250:267,1,200,8|12,0:0|0:0,0:0:0:0:
226,48,86089,5,4,0:0:0:0:
252,185,86232,1,0,0:0:0:0:
226,48,86375,1,0,0:0:0:0:
252,185,86517,1,0,0:0:0:0:
379,214,86660,5,8,0:3:0:0:
345,235,86732,1,8,0:3:0:0:
306,237,86803,1,8,0:3:0:0:
271,218,86875,1,8,0:3:0:0:
251,184,86946,1,12,0:3:0:0:
227,153,87017,1,8,0:3:0:0:
190,140,87089,1,8,0:3:0:0:
152,148,87160,1,8,0:3:0:0:
124,175,87232,6,0,L|118:69,1,100,12|0,0:0|0:0,0:0:0:0:
0,154,87517,1,0,0:0:0:0:
247,342,87660,2,0,P|309:318|360:311,1,100,8|0,0:0|0:0,0:0:0:0:
437,142,87946,1,0,0:0:0:0:
281,10,88089,6,0,L|293:137,1,100,8|0,0:0|0:0,0:0:0:0:
182,273,88375,1,8,0:0:0:0:
341,312,88517,1,0,0:0:0:0:
141,166,88660,1,0,0:0:0:0:
465,46,88803,2,0,P|445:97|436:179,1,100,8|0,0:0|0:0,0:0:0:0:
511,332,89089,1,0,0:0:0:0:
247,217,89232,2,0,L|363:212,1,100,8|0,0:0|0:0,0:0:0:0:
137,343,89517,5,8,0:0:0:0:
198,111,89660,1,0,0:0:0:0:
358,294,89803,1,0,0:0:0:0:
94,190,89946,5,8,0:0:0:0:
325,126,90089,1,0,0:0:0:0:
266,356,90232,1,0,0:0:0:0:
198,111,90375,6,0,P|271:138|337:137,1,100,8|0,0:0|0:0,0:0:0:0:
482,30,90660,2,0,L|474:152,1,100,8|0,0:0|0:0,0:0:0:0:
338,270,90946,1,0,0:0:0:0:
479,315,91089,1,8,0:0:0:0:
328,184,91232,5,8,0:3:0:0:
288,203,91303,1,8,0:3:0:0:
262,240,91375,1,8,0:3:0:0:
258,284,91446,1,8,0:3:0:0:
276,325,91517,1,8,0:3:0:0:
166,131,91660,1,8,0:3:0:0:
166,131,91732,1,8,0:3:0:0:
166,131,91803,6,0,P|234:150|299:152,1,100,12|0,0:0|0:0,0:0:0:0:
414,2,92089,1,0,0:0:0:0:
156,31,92232,2,0,L|167:148,1,100,8|0,0:0|0:0,0:0:0:0:
181,323,92517,1,0,0:0:0:0:
12,233,92660,6,0,P|66:196|113:181,1,100,8|0,0:0|0:0,0:0:0:0:
354,250,92946,1,8,0:0:0:0:
181,323,93089,1,0,0:0:0:0:
355,151,93232,1,0,0:0:0:0:
428,327,93375,2,0,L|308:336,1,100,8|0,0:0|0:0,0:0:0:0:
50,250,93660,1,0,0:0:0:0:
181,323,93803,1,8,0:0:0:0:
229,134,93946,1,0,0:0:0:0:
60,22,94089,6,0,L|68:126,1,100,8|0,0:0|0:0,0:0:0:0:
284,219,94375,1,0,0:0:0:0:
115,365,94517,2,0,L|11:373,1,100,8|0,0:0|0:0,0:0:0:0:
264,381,94803,1,0,0:0:0:0:
146,188,94946,2,0,P|174:162|246:129,1,100,8|0,0:0|0:0,0:0:0:0:
397,321,95232,5,8,0:0:0:0:
480,184,95375,1,4,0:3:0:0:
404,44,95517,1,4,0:3:0:0:
406,335,95660,5,12,0:1:0:0:
498,183,95803,1,4,0:3:0:0:
410,25,95946,1,4,0:3:0:0:
390,307,96089,5,12,0:0:0:0:
398,62,96232,1,0,0:0:0:0:
182,26,96375,6,0,P|196:79|198:146,1,100,12|0,0:0|0:0,0:0:0:0:
71,336,96660,1,0,0:0:0:0:
5,123,96803,2,0,B|121:73|92:170|239:109,1,200,8|0,0:0|0:0,0:0:0:0:
395,19,97232,1,8,0:0:0:0:
305,139,97375,1,0,0:0:0:0:
502,223,97517,6,0,P|442:199|371:191,1,110.000003356934,12|0,0:0|0:0,0:0:0:0:
262,343,97803,1,0,0:0:0:0:
198,123,97946,2,0,P|188:186|334:195,1,220.000006713867,8|0,0:0|0:0,0:0:0:0:
414,346,98375,1,8,0:0:0:0:
469,69,98517,1,0,0:0:0:0:
175,235,98660,6,0,L|184:370,1,110.000003356934,12|0,0:0|0:0,0:0:0:0:
311,224,98946,1,0,0:0:0:0:
53,144,99089,1,8,0:0:0:0:
325,42,99232,1,0,0:0:0:0:
306,314,99375,1,0,0:0:0:0:
192,13,99517,5,8,0:0:0:0:
310,331,99660,1,0,0:0:0:0:
496,88,99803,6,0,P|463:147|358:133,1,160,4|0,0:0|0:0,0:0:0:0:
272,36,100232,6,0,L|277:175,1,129.999994049073,6|0,0:0|0:0,0:0:0:0:
358,317,100660,6,0,P|313:298|268:288,1,75,6|0,0:0|2:0,0:0:0:0:
278,297,100946,6,0,L|206:292,1,40,4|0,0:0|0:0,0:0:0:0:
99,285,101089,1,0,0:0:0:0:
179,177,101232,1,0,0:0:0:0:
179,177,101303,1,0,0:0:0:0:
179,177,101375,1,0,0:0:0:0:
172,336,101517,5,0,0:0:0:0:
98,187,101660,1,0,0:0:0:0:
172,336,101946,5,0,0:0:0:0:
98,187,102089,2,0,L|101:91,1,80,8|0,0:0|0:0,0:0:0:0:
277,52,102375,1,0,0:0:0:0:
277,52,102446,1,0,0:0:0:0:
277,52,102517,1,0,0:0:0:0:
229,132,102660,5,0,0:0:0:0:
183,7,102803,1,0,0:0:0:0:
229,132,103089,5,0,0:0:0:0:
183,7,103232,2,0,L|285:3,1,80,8|0,0:0|0:0,0:0:0:0:
140,135,103517,1,0,0:0:0:0:
140,135,103589,1,0,0:0:0:0:
140,135,103660,1,0,0:0:0:0:
229,132,103803,5,0,0:0:0:0:
89,60,103946,1,0,0:0:0:0:
229,132,104232,5,0,0:0:0:0:
89,60,104375,2,0,L|87:157,1,80,8|0,0:0|0:0,0:0:0:0:
88,152,104589,1,0,0:0:0:0:
88,163,104660,1,0,0:0:0:0:
127,154,104732,1,0,0:0:0:0:
166,158,104803,2,0,P|197:168|221:180,1,40,8|0,0:0|0:0,0:0:0:0:
283,241,104946,5,0,0:0:0:0:
287,259,105017,1,0,0:0:0:0:
276,275,105089,1,0,0:0:0:0:
257,277,105160,1,0,0:0:0:0:
243,262,105232,5,12,0:3:0:0:
269,300,105303,1,8,0:3:0:0:
259,345,105375,1,8,0:3:0:0:
219,368,105446,1,8,0:3:0:0:
174,354,105517,6,0,L|171:318,2,29.9999990844727
55,259,105803,2,0,P|91:267|132:265,1,59.9999981689454
55,259,106232,6,0,P|62:229|63:199,2,59.9999981689454
11,112,106660,2,0,L|46:117,2,29.9999990844727
109,25,106946,2,0,L|113:101,1,59.9999981689454
112,84,107375,6,0,L|108:24,2,59.9999981689454
191,142,107803,2,0,P|218:131|239:127,2,29.9999990844727
217,261,108089,2,0,P|229:233|235:204,1,59.9999981689454
217,261,108517,6,0,P|245:273|274:279,1,59.9999981689454
376,230,108803,1,0,0:0:0:0:
376,230,108875,1,0,0:0:0:0:
376,230,108946,5,8,0:0:0:0:
392,75,109089,2,0,B|387:129|387:129|395:153|395:153|382:177|382:177|374:246,1,160
221,299,109517,5,8,0:0:0:0:
205,144,109660,2,0,B|210:198|210:198|202:222|202:222|215:246|215:246|223:315,1,160
84,282,110089,5,0,0:0:0:0:
257,364,110232,1,0,0:0:0:0:
425,271,110375,2,0,L|438:93,1,160,0|8,0:0|0:0,0:0:0:0:
436,111,110946,6,0,P|373:122|326:116,1,80
192,244,111232,6,0,L|186:128,1,100,0|0,0:0|2:0,0:0:0:0:
55,49,111446,6,0,P|64:78|132:77,1,100,0|0,0:0|2:0,0:0:0:0:
269,77,111660,2,0,B|216:59|216:59|103:90,1,150,0|0,0:0|2:0,0:0:0:0:
331,28,111946,6,0,P|300:101|312:155,1,120,0|0,0:0|2:0,0:0:0:0:
400,224,112232,6,0,L|390:290,1,50,0|0,0:0|2:0,0:0:0:0:
265,353,112375,6,0,L|279:247,1,80
118,55,112660,6,0,P|142:68|165:99,1,50,0|0,0:0|2:0,0:0:0:0:
290,83,112803,6,0,B|217:108|158:85|158:85|197:91|250:61,1,200,0|0,0:0|2:0,0:0:0:0:
95,289,113232,6,0,L|89:220,1,40,0|0,0:0|2:0,0:0:0:0:
65,154,113375,6,0,P|55:194|136:178,1,160,0|0,0:0|2:0,0:0:0:0:
249,275,113803,6,0,P|260:250|264:215,1,40,0|0,0:0|2:0,0:0:0:0:
315,133,113946,6,0,P|295:180|305:271,1,120,0|0,0:0|2:0,0:0:0:0:
366,67,114232,6,0,B|315:55|315:55|243:73,2,100
189,139,114660,6,0,P|233:128|261:33,1,120,0|0,0:0|2:0,0:0:0:0:
170,8,114946,2,0,L|174:137,1,120,0|0,0:0|2:0,0:0:0:0:
277,251,115232,6,0,P|244:212|182:240,1,100,0|0,0:0|2:0,0:0:0:0:
97,306,115446,1,0,0:0:0:0:
105,296,115517,2,0,B|88:246|88:246|100:188,1,100
216,64,115803,6,0,L|354:59,1,120,0|0,0:0|2:0,0:0:0:0:
463,181,116089,6,0,L|456:235,1,40,0|0,0:0|2:0,0:0:0:0:
389,263,116232,2,0,L|382:317,1,40,0|0,0:0|2:0,0:0:0:0:
454,357,116375,2,0,P|411:327|302:390,1,160,8|0,0:0|0:0,0:0:0:0:
316,358,116946,6,0,L|167:343,1,120,0|0,0:0|2:0,0:0:0:0:
151,274,117232,2,0,P|112:263|54:255,1,80
237,157,117517,1,8,0:0:0:0:
103,73,117660,6,0,B|117:122|117:122|95:182,2,100
312,19,118089,5,4,0:0:0:0:
255,301,118232,2,0,P|195:309|114:333,1,100
306,33,118660,5,4,0:0:0:0:
363,315,118803,2,0,P|423:323|504:347,1,100
222,359,119232,5,4,0:0:0:0:
177,133,119375,1,0,0:0:0:0:
335,237,119517,2,0,P|283:221|205:221,1,89.9999972534181
13,281,119803,2,0,P|101:276|214:272,1,179.999994506836,8|0,0:0|0:0,0:0:0:0:
261,68,120232,1,0,0:0:0:0:
142,188,120375,5,0,0:0:0:0:
402,142,120517,1,0,0:0:0:0:
328,326,120660,2,0,L|337:204,1,89.9999972534181
154,105,120946,5,8,0:0:0:0:
414,151,121089,1,0,0:0:0:0:
243,354,121232,2,0,L|234:232,1,89.9999972534181
442,70,121517,5,0,0:0:0:0:
127,179,121660,1,0,0:0:0:0:
334,236,121803,2,0,P|317:180|317:115,1,89.9999972534181
123,42,122089,1,8,0:0:0:0:
23,152,122232,2,0,P|47:114|100:123,2,89.9999972534181
89,281,122660,5,8,0:0:0:0:
271,300,122803,1,0,0:0:0:0:
449,324,122946,1,0,0:0:0:0:
449,324,123089,1,0,0:0:0:0:
265,195,123232,5,8,0:0:0:0:
265,195,123375,1,0,0:0:0:0:
413,114,123517,2,0,P|399:144|470:177,1,89.9999972534181
282,25,123803,5,0,0:0:0:0:
248,273,123946,1,0,0:0:0:0:
121,50,124089,2,0,P|172:68|225:74,1,89.9999972534181
58,250,124375,2,0,P|109:232|162:226,1,89.9999972534181,8|0,0:0|0:0,0:0:0:0:
337,358,124660,2,0,L|344:228,1,89.9999972534181
477,110,124946,5,0,0:0:0:0:
239,154,125089,1,0,0:0:0:0:
512,258,125232,2,0,L|408:248,1,89.9999972534181
253,302,125517,5,8,0:0:0:0:
209,64,125660,1,0,0:0:0:0:
344,168,125803,5,0,0:0:0:0:
362,167,125898,1,0,0:0:0:0:
380,166,125994,1,0,0:0:0:0:
445,58,126089,6,0,B|485:120|451:192|451:192|461:163|447:124,1,194.999991073609,4|0,0:0|2:0,0:0:0:0:
254,43,126375,6,0,B|322:47|322:47|342:40|342:40|362:51|362:51|493:61,1,194.999991073609,4|0,0:0|2:0,0:0:0:0:
322,202,126660,6,0,B|376:126|376:126|245:118,1,194.999991073609,4|0,0:0|2:0,0:0:0:0:
383,255,126946,6,0,P|329:292|329:200,1,194.999991073609,4|0,0:0|2:0,0:0:0:0:
142,147,127232,5,4,0:0:0:0:
147,342,127375,2,0,B|139:284|139:284|155:242|155:242|140:133,1,200
297,98,127803,5,4,0:0:0:0:
292,293,127946,2,0,B|300:235|300:235|284:193|284:193|299:84,1,200
58,27,128375,6,0,P|83:84|208:67,1,179.999994506836,4|0,0:0|0:0,0:0:0:0:
259,199,128803,1,0,0:0:0:0:
423,40,128946,2,0,P|366:32|296:33,1,89.9999972534181,8|0,0:0|0:0,0:0:0:0:
461,171,129232,2,0,L|454:285,1,89.9999972534181
293,357,129517,6,0,B|245:329|245:329|87:350,1,179.999994506836,0|0,0:0|0:0,2:0:0:0:
13,212,129946,2,0,P|46:172|65:111,1,89.9999972534181,0|8,0:0|0:0,0:0:0:0:
5,16,130232,1,0,0:0:0:0:
146,165,130375,2,0,L|255:169,1,89.9999972534181
386,333,130660,6,0,B|381:265|381:265|358:227|358:227|351:144,1,179.999994506836
445,64,131089,1,0,0:0:0:0:
262,7,131232,2,0,P|282:55|277:141,1,134.999995880127,8|0,0:0|2:0,0:0:0:0:
266,163,131517,2,0,L|269:267,1,89.9999972534181
93,278,131803,6,0,P|136:265|209:356,1,165.000005035401,0|0,0:0|2:0,0:0:0:0:
353,288,132089,6,0,B|240:275|240:275|277:245,1,150,0|0,0:0|2:0,0:0:0:0:
406,229,132375,6,0,P|432:278|414:336,1,120,8|0,0:0|2:0,0:0:0:0:
406,229,132660,6,0,P|405:176|400:114,1,89.9999972534181,0|0,0:0|2:0,0:0:0:0:
343,74,132946,6,0,B|294:99|294:99|146:72,1,179.999994506836,4|0,0:0|0:0,0:0:0:0:
83,177,133375,1,0,0:0:0:0:
127,314,133517,2,0,P|176:302|238:302,1,89.9999972534181,8|0,0:0|0:0,0:0:0:0:
287,143,133803,2,0,P|330:169|373:213,1,89.9999972534181
465,349,134089,6,0,L|482:142,1,179.999994506836
307,37,134517,2,0,P|272:61|205:75,1,89.9999972534181,0|8,0:0|0:0,0:0:0:0:
147,5,134803,1,0,0:0:0:0:
42,213,134946,1,0,0:0:0:0:
193,192,135089,1,0,0:0:0:0:
344,166,135232,6,0,P|357:209|502:222,1,179.999994506836
432,167,135660,1,0,0:0:0:0:
287,340,135803,2,0,L|190:343,1,89.9999972534181,8|0,0:0|0:0,0:0:0:0:
31,149,136089,2,0,P|56:192|63:251,1,89.9999972534181
166,48,136375,6,0,L|339:42,1,165.000005035401,0|0,0:0|2:0,0:0:0:0:
380,104,136660,6,0,P|325:121|254:55,1,150,0|0,0:0|2:0,0:0:0:0:
180,160,136946,6,0,L|186:222,1,44.999998626709,0|0,0:0|2:0,0:0:0:0:
218,267,137089,2,0,L|213:222,1,44.999998626709,0|0,0:0|2:0,0:0:0:0:
193,117,137232,6,0,P|180:149|178:177,1,44.999998626709,0|0,0:0|2:0,0:0:0:0:
204,309,137375,2,0,P|216:276|218:248,1,44.999998626709,0|0,0:0|2:0,0:0:0:0:
9,188,137517,6,0,B|77:186|77:186|122:207|122:207|211:203,1,179.999994506836,4|0,0:0|0:0,0:0:0:0:
276,136,137946,1,0,0:0:0:0:
71,11,138089,2,0,L|84:116,1,89.9999972534181,8|0,0:0|0:0,0:0:0:0:
273,318,138375,2,0,L|261:228,1,89.9999972534181
431,57,138660,6,0,P|398:101|407:198,1,134.999995880127,0|0,0:0|2:0,0:0:0:0:
427,203,138946,2,0,L|417:302,1,89.9999972534181
192,354,139232,2,0,P|245:324|303:317,1,89.9999972534181,8|0,0:0|0:0,0:0:0:0:
78,183,139517,1,0,0:0:0:0:
105,312,139660,1,0,0:0:0:0:
313,111,139803,6,0,L|119:108,1,179.999994506836
55,29,140232,1,0,0:0:0:0:
241,191,140375,2,0,P|231:241|233:312,1,89.9999972534181,8|0,0:0|0:0,0:0:0:0:
444,346,140660,1,0,0:0:0:0:
304,382,140803,1,0,0:0:0:0:
480,248,140946,6,0,L|464:93,1,134.999995880127,0|0,0:0|2:0,0:0:0:0:
484,70,141232,2,0,P|417:108|374:119,1,89.9999972534181
143,45,141517,2,0,L|140:146,1,89.9999972534181,8|0,0:0|0:0,0:0:0:0:
239,329,141803,1,0,0:0:0:0:
26,308,141946,1,0,0:0:0:0:
271,214,142089,6,0,P|301:258|446:257,1,179.999994506836,8|0,0:0|0:0,0:0:0:0:
447,68,142517,1,0,0:0:0:0:
169,184,142660,6,0,P|256:186|317:123,1,179.999994506836,8|0,0:0|0:0,0:0:0:0:
148,2,143089,1,0,0:0:0:0:
169,184,143232,6,0,L|182:377,1,179.999994506836,8|0,0:0|0:0,0:0:0:0:
174,175,143660,1,0,0:0:0:0:
370,373,143803,6,0,L|357:180,1,179.999994506836,8|0,0:0|0:0,0:0:0:0:
365,382,144232,1,0,0:0:0:0:
468,100,144375,6,0,P|421:115|356:121,1,89.9999972534181,8|0,0:0|0:0,0:0:0:0:
146,66,144660,1,0,0:0:0:0:
146,66,144803,1,0,0:0:0:0:
2,104,144946,6,0,P|49:119|114:125,1,89.9999972534181,8|0,0:0|0:0,0:0:0:0:
324,70,145232,1,0,0:0:0:0:
324,70,145375,1,0,0:0:0:0:
195,263,145517,5,8,0:0:0:0:
181,88,145660,1,0,0:0:0:0:
202,270,145803,5,0,0:0:0:0:
188,79,145946,1,0,0:0:0:0:
124,182,146089,5,0,0:0:0:0:
262,171,146232,1,0,0:0:0:0:
143,187,146375,5,0,0:0:0:0:
247,180,146517,1,0,0:0:0:0:
23,293,146660,6,0,L|135:279,1,100,12|0,0:0|0:0,0:0:0:0:
277,355,146946,1,0,0:0:0:0:
369,104,147089,2,0,P|354:149|352:225,1,100,8|0,0:0|0:0,0:0:0:0:
187,85,147375,1,0,0:0:0:0:
438,29,147517,6,0,L|554:24,1,100,8|0,0:0|0:0,0:0:0:0:
398,258,147803,1,8,0:0:0:0:
369,104,147946,1,0,0:0:0:0:
512,153,148089,1,0,0:0:0:0:
311,335,148232,2,0,P|258:326|193:325,1,100,8|0,0:0|0:0,0:0:0:0:
95,381,148517,1,0,0:0:0:0:
9,163,148660,2,0,L|115:160,1,100,8|0,0:0|0:0,0:0:0:0:
297,74,148946,5,8,0:0:0:0:
211,324,149089,1,0,0:0:0:0:
108,160,149232,1,0,0:0:0:0:
383,140,149375,5,8,0:0:0:0:
97,238,149517,1,0,0:0:0:0:
284,356,149660,1,0,0:0:0:0:
192,85,149803,6,0,L|202:214,1,100,8|0,0:0|0:0,0:0:0:0:
298,117,150089,1,8,0:0:0:0:
153,301,150232,2,0,P|208:279|271:272,1,100
84,155,150517,1,8,0:0:0:0:
293,28,150660,5,8,0:3:0:0:
295,72,150732,1,8,0:3:0:0:
298,117,150803,1,8,0:3:0:0:
301,162,150875,1,8,0:3:0:0:
303,207,150946,1,8,0:3:0:0:
451,305,151089,1,0,0:0:0:0:
451,305,151160,1,0,0:0:0:0:
451,305,151232,6,0,P|391:281|318:268,1,100,12|0,0:0|0:0,0:0:0:0:
120,351,151517,1,0,0:0:0:0:
0,157,151660,2,0,L|141:150,1,100,8|0,0:0|0:0,0:0:0:0:
303,207,151946,1,0,0:0:0:0:
177,26,152089,6,0,P|198:85|201:151,1,100,8|0,0:0|0:0,0:0:0:0:
114,363,152375,1,8,0:0:0:0:
14,234,152517,1,0,0:0:0:0:
245,318,152660,1,0,0:0:0:0:
308,107,152803,2,0,L|301:225,1,100,8|0,0:0|0:0,0:0:0:0:
427,46,153089,1,0,0:0:0:0:
339,348,153232,6,0,P|285:326|211:314,1,100,8|0,0:0|0:0,0:0:0:0:
0,253,153517,1,8,0:0:0:0:
119,304,153660,1,0,0:0:0:0:
230,236,153803,1,0,0:0:0:0:
285,63,153946,5,8,0:0:0:0:
161,24,154089,1,0,0:0:0:0:
59,103,154232,1,0,0:0:0:0:
374,0,154375,2,0,P|361:65|363:123,1,100,8|0,0:0|0:0,0:0:0:0:
475,227,154660,5,8,0:0:0:0:
242,270,154803,1,8,0:3:0:0:
451,232,154946,1,8,0:3:0:0:
268,232,155089,5,12,0:0:0:0:
425,261,155232,1,8,0:3:0:0:
291,237,155375,1,8,0:3:0:0:
374,146,155517,5,8,0:0:0:0:
339,348,155660,1,4,0:3:0:0:
144,146,155803,6,12,L|272:138,1,100,12|0,0:0|0:0,0:0:0:0:
415,36,156089,1,0,0:0:0:0:
325,278,156232,2,0,P|256:254|258:125,1,200,8|0,0:0|0:0,0:0:0:0:
111,270,156660,1,8,0:0:0:0:
405,222,156803,1,0,0:0:0:0:
251,30,156946,6,0,L|243:159,1,110.000003356934,12|0,0:0|0:0,0:0:0:0:
102,284,157232,1,0,0:0:0:0:
94,57,157375,2,0,P|115:128|250:134,1,220.000006713867,8|0,0:0|0:0,0:0:0:0:
359,276,157803,1,8,0:0:0:0:
411,62,157946,1,0,0:0:0:0:
278,303,158089,6,0,P|219:313|146:343,1,110.000003356934,12|0,0:0|0:0,0:0:0:0:
10,213,158375,1,0,0:0:0:0:
220,97,158517,1,8,0:0:0:0:
98,257,158660,1,0,0:0:0:0:
44,33,158803,1,0,0:0:0:0:
284,199,158946,2,0,P|312:170|321:68,1,110.000003356934,8|0,0:0|0:0,0:0:0:0:
211,292,159232,5,12,0:0:0:0:
459,262,159375,1,0,0:0:0:0:
199,380,159517,1,0,0:0:0:0:
329,104,159660,5,8,0:0:0:0:
359,352,159803,1,0,0:0:0:0:
241,92,159946,1,0,0:0:0:0:
433,158,160089,5,8,0:0:0:0:
433,158,160232,1,0,0:0:0:0:
206,259,160375,5,4,0:0:0:0:
206,259,160517,1,0,0:0:0:0:
206,259,160660,1,0,0:0:0:0:
206,259,160803,1,0,0:0:0:0:
206,259,160946,2,0,P|255:293|408:231,1,200,8|12,0:0|0:0,0:0:0:0:
288,4,161517,5,0,0:0:0:0:
269,194,161660,1,0,0:0:0:0:
288,4,161803,1,0,0:0:0:0:
269,194,161946,1,0,0:0:0:0:
288,4,162089,2,0,B|256:54|256:54|272:223,1,200,8|12,0:0|0:0,0:0:0:0:
95,321,162660,5,0,0:0:0:0:
288,308,162803,1,0,0:0:0:0:
95,321,162946,1,0,0:0:0:0:
288,308,163089,1,0,0:0:0:0:
95,321,163232,2,0,B|147:325|147:325|180:304|180:304|307:309,1,200,8|12,0:0|0:0,0:0:0:0:
451,276,163803,5,0,0:0:0:0:
431,105,163946,1,0,0:0:0:0:
451,276,164089,1,0,0:0:0:0:
431,105,164232,1,0,0:0:0:0:
494,337,164375,5,12,0:3:0:0:
456,349,164446,1,8,0:3:0:0:
417,340,164517,1,8,0:3:0:0:
388,313,164589,1,8,0:3:0:0:
377,276,164660,1,12,0:3:0:0:
337,271,164732,1,8,0:3:0:0:
306,247,164803,1,8,0:3:0:0:
291,210,164875,1,8,0:3:0:0:
297,171,164946,6,0,L|295:282,1,100,12|0,0:0|0:0,0:0:0:0:
193,176,165232,1,0,0:0:0:0:
438,49,165375,2,0,P|393:66|317:73,1,100,8|0,0:0|0:0,0:0:0:0:
141,27,165660,1,0,0:0:0:0:
10,183,165803,6,0,L|20:301,1,100,8|0,0:0|0:0,0:0:0:0:
248,357,166089,1,8,0:0:0:0:
71,376,166232,1,0,0:0:0:0:
288,250,166375,1,0,0:0:0:0:
44,105,166517,2,0,P|84:152|95:216,1,100,8|0,0:0|0:0,0:0:0:0:
231,32,166803,1,0,0:0:0:0:
387,257,166946,2,0,L|261:247,1,100,8|0,0:0|0:0,0:0:0:0:
410,98,167232,5,8,0:0:0:0:
449,344,167375,1,0,0:0:0:0:
215,255,167517,1,0,0:0:0:0:
454,228,167660,5,8,0:0:0:0:
208,267,167803,1,0,0:0:0:0:
297,33,167946,1,0,0:0:0:0:
34,68,168089,6,0,P|97:78|147:94,1,100,8|0,0:0|0:0,0:0:0:0:
310,253,168375,1,8,0:0:0:0:
144,372,168517,2,0,P|125:317|130:233,1,100
206,50,168803,1,8,0:0:0:0:
414,145,168946,5,8,0:3:0:0:
410,189,169017,1,8,0:3:0:0:
381,222,169089,1,8,0:3:0:0:
338,233,169160,1,8,0:3:0:0:
297,217,169232,5,8,0:3:0:0:
311,237,169303,1,0,0:0:0:0:
319,260,169375,1,8,0:3:0:0:
319,285,169446,1,8,0:3:0:0:
310,309,169517,6,0,L|199:312,1,100,12|0,0:0|0:0,0:0:0:0:
4,214,169803,1,0,0:0:0:0:
135,9,169946,2,0,P|117:68|111:139,1,100,8|0,0:0|0:0,0:0:0:0:
151,365,170232,1,0,0:0:0:0:
281,147,170375,6,0,L|287:40,1,100,8|0,0:0|0:0,0:0:0:0:
168,140,170660,1,8,0:0:0:0:
388,217,170803,1,0,0:0:0:0:
135,9,170946,1,0,0:0:0:0:
14,210,171089,2,0,P|72:196|132:200,1,100,8|0,0:0|0:0,0:0:0:0:
401,224,171375,1,0,0:0:0:0:
218,274,171517,1,8,0:0:0:0:
435,155,171660,1,0,0:0:0:0:
323,356,171803,6,0,P|305:294|308:247,1,100,8|0,0:0|0:0,0:0:0:0:
375,68,172089,1,0,0:0:0:0:
148,184,172232,2,0,P|210:166|257:169,1,100,8|0,0:0|0:0,0:0:0:0:
436,236,172517,1,0,0:0:0:0:
224,338,172660,2,0,L|108:330,1,100,8|0,0:0|0:0,0:0:0:0:
14,122,172946,5,8,0:0:0:0:
148,184,173089,1,4,0:3:0:0:
273,51,173232,1,4,0:3:0:0:
21,136,173375,5,12,0:0:0:0:
155,198,173517,1,4,0:3:0:0:
280,65,173660,1,4,0:3:0:0:
30,150,173803,5,12,0:0:0:0:
286,79,173946,1,4,0:3:0:0:
191,285,174089,6,0,P|136:277|77:278,1,100,12|0,0:0|0:0,0:0:0:0:
321,347,174375,1,0,0:0:0:0:
286,79,174517,2,0,B|248:183|336:155|281:288,1,200,8|0,0:0|0:0,0:0:0:0:
162,122,174946,1,8,0:0:0:0:
404,45,175089,1,0,0:0:0:0:
160,2,175232,6,0,P|183:57|178:120,1,110.000003356934,12|0,0:0|0:0,0:0:0:0:
61,263,175517,1,0,0:0:0:0:
261,360,175660,2,0,P|341:345|347:208,1,220.000006713867,8|0,0:0|0:0,0:0:0:0:
404,45,176089,1,8,0:0:0:0:
249,162,176232,1,0,0:0:0:0:
469,232,176375,6,0,L|340:222,1,110.000003356934,12|0,0:0|0:0,0:0:0:0:
170,338,176660,1,0,0:0:0:0:
88,92,176803,1,8,0:0:0:0:
283,332,176946,1,0,0:0:0:0:
41,249,177089,1,0,0:0:0:0:
239,23,177232,5,8,0:0:0:0:
178,352,177375,1,0,0:0:0:0:
451,99,177517,6,0,P|396:152|303:128,1,160,6|0,0:0|0:0,0:0:0:0:
142,16,177946,6,0,P|142:78|134:168,1,129.999994049073,6|0,0:0|0:0,0:0:0:0:
84,290,178375,6,0,P|105:266|158:267,1,75,6|0,0:0|2:0,0:0:0:0:
160,272,178660,6,0,L|220:267,1,40
351,250,178803,1,0,0:0:0:0:
272,351,178946,1,0,0:0:0:0:
272,351,179017,1,0,0:0:0:0:
272,351,179089,1,0,0:0:0:0:
284,202,179232,5,0,0:0:0:0:
348,334,179375,1,0,0:0:0:0:
284,202,179660,5,0,0:0:0:0:
348,334,179803,2,0,L|356:243,1,80,8|0,0:0|0:0,0:0:0:0:
453,175,180089,1,0,0:0:0:0:
453,175,180160,1,0,0:0:0:0:
453,175,180232,1,0,0:0:0:0:
361,155,180375,5,0,0:0:0:0:
453,255,180517,1,0,0:0:0:0:
361,155,180803,5,0,0:0:0:0:
453,255,180946,2,0,L|351:247,1,80,8|0,0:0|0:0,0:0:0:0:
262,348,181232,1,0,0:0:0:0:
262,348,181303,1,0,0:0:0:0:
262,348,181375,1,0,0:0:0:0:
337,368,181517,5,0,0:0:0:0:
260,261,181660,1,0,0:0:0:0:
337,368,181946,5,0,0:0:0:0:
260,261,182089,2,0,B|199:266|199:266|141:240|141:240|14:246,2,240,8|8|8,0:0|0:0|0:0,0:0:0:0:
348,163,183089,5,0,0:0:0:0:
244,58,183232,2,0,L|254:154,1,80,8|0,0:0|0:0,0:0:0:0:
387,31,183517,1,0,0:0:0:0:
387,31,183589,1,0,0:0:0:0:
387,31,183660,1,0,0:0:0:0:
301,6,183803,5,0,0:0:0:0:
398,106,183946,1,0,0:0:0:0:
301,6,184232,5,0,0:0:0:0:
398,106,184375,2,0,L|387:222,1,80,8|0,0:0|0:0,0:0:0:0:
380,322,184660,1,0,0:0:0:0:
380,322,184732,1,0,0:0:0:0:
380,322,184803,1,0,0:0:0:0:
459,270,184946,5,0,0:0:0:0:
309,248,185089,1,0,0:0:0:0:
459,270,185375,5,0,0:0:0:0:
309,248,185517,1,8,0:0:0:0:
305,240,185660,1,0,0:0:0:0:
302,232,185803,1,8,0:3:0:0:
215,218,185946,1,12,0:3:0:0:
148,331,186089,5,8,0:3:0:0:
133,300,186232,5,4,0:3:0:0:
162,316,186375,5,8,0:3:0:0:
129,320,186517,5,4,0:3:0:0:
154,298,186660,5,8,0:3:0:0:
155,290,186803,1,8,0:3:0:0:
157,282,186946,1,8,0:3:0:0:
159,274,187089,1,8,0:3:0:0:
160,266,187232,2,0,B|212:248|212:248|233:248|233:248|243:237|243:237|320:213,1,150.000005722046,8|0,0:0|0:0,0:0:0:0:
365,125,187660,5,0,0:0:0:0:
465,211,187803,2,0,L|373:206,1,80,8|0,0:0|0:0,0:0:0:0:
490,132,188089,1,0,0:0:0:0:
490,132,188160,1,0,0:0:0:0:
490,132,188232,1,0,0:0:0:0:
428,63,188375,5,0,0:0:0:0:
465,211,188517,1,0,0:0:0:0:
428,63,188803,5,0,0:0:0:0:
465,211,188946,2,0,L|457:280,1,40,8|0,0:0|0:0,0:0:0:0:
489,349,189089,2,0,L|420:357,1,40
336,375,189232,1,0,0:0:0:0:
336,375,189303,1,0,0:0:0:0:
336,375,189375,5,0,0:0:0:0:
229,309,189517,2,0,L|236:258,1,40
304,210,189660,2,0,L|297:159,1,40
376,240,189803,1,0,0:0:0:0:
366,252,189946,5,0,0:0:0:0:
437,122,190089,2,0,L|347:116,1,80,8|0,0:0|0:0,0:0:0:0:
236,35,190375,1,0,0:0:0:0:
236,35,190446,1,0,0:0:0:0:
236,35,190517,1,0,0:0:0:0:
321,14,190660,5,0,0:0:0:0:
250,117,190803,1,0,0:0:0:0:
321,14,191089,5,0,0:0:0:0:
250,117,191232,2,0,L|252:168,1,40,8|0,0:0|0:0,0:0:0:0:
334,224,191375,2,0,L|336:275,1,40
257,334,191517,1,0,0:0:0:0:
257,334,191589,1,0,0:0:0:0:
257,334,191660,5,0,0:0:0:0:
126,268,191803,2,0,L|230:265,1,80,8|0,0:0|0:0,0:0:0:0:
205,265,192089,1,0,0:0:0:0:
90,358,192232,5,0,0:0:0:0:
33,174,192375,2,0,P|74:194|171:123,1,160,8|0,0:0|0:0,0:0:0:0:
165,142,192732,1,0,0:0:0:0:
165,142,192803,1,0,0:0:0:0:
294,25,192946,2,0,L|285:202,1,160
358,232,193375,1,0,0:0:0:0:
232,338,193517,6,0,P|273:323|398:311,1,160,8|0,0:0|0:0,0:0:0:0:
388,310,193875,1,0,0:0:0:0:
388,310,193946,1,0,0:0:0:0:
400,165,194089,5,4,0:3:0:0:
437,156,194160,1,4,0:3:0:0:
457,123,194232,1,4,0:3:0:0:
446,86,194303,1,4,0:3:0:0:
410,69,194375,5,8,0:3:0:0:
412,89,194446,1,8,0:3:0:0:
414,109,194517,1,8,0:3:0:0:
416,129,194589,1,8,0:3:0:0:
417,149,194660,5,8,0:0:0:0:
384,128,194732,1,8,0:0:0:0:
344,127,194803,1,8,0:0:0:0:
309,145,194875,1,8,0:0:0:0:
287,178,194946,1,4,0:3:0:0:
264,210,195017,1,4,0:3:0:0:
229,228,195089,1,4,0:3:0:0:
189,227,195160,1,4,0:3:0:0:
156,206,195232,5,4,0:3:0:0:
180,97,195375,1,0,0:0:0:0:
78,215,195517,5,4,0:3:0:0:
111,62,195660,1,0,0:0:0:0:
2,211,195803,5,4,0:3:0:0:
40,31,195946,1,0,0:0:0:0:
2,211,196232,5,0,0:0:0:0:
40,31,196375,1,4,0:3:0:0:
187,145,196517,1,0,0:0:0:0:
221,146,210660,6,0,L|309:140,1,80,8|0,0:0|0:0,0:0:0:0:
214,165,211517,6,0,L|302:159,1,80,8|0,0:0|0:0,0:0:0:0:
209,185,212375,6,0,L|297:179,1,80,8|0,0:0|0:0,0:0:0:0:
386,238,212660,1,8,0:0:0:0:
386,238,212803,1,4,0:3:0:0:
486,94,212946,2,0,P|453:146|352:132,1,160,2|0,0:3|0:0,0:0:0:0:
294,99,213375,1,0,0:0:0:0:
386,238,213517,5,8,0:0:0:0:
410,82,213660,1,8,0:0:0:0:
341,11,213803,1,2,0:3:0:0:
341,11,213946,1,0,0:0:0:0:
481,28,214089,5,8,0:0:0:0:
294,99,214232,1,8,0:0:0:0:
294,99,214375,1,0,0:0:0:0:
183,35,214517,5,8,0:0:0:0:
73,139,214660,1,8,0:3:0:0:
88,134,214803,1,8,0:0:0:0:
157,180,214946,1,8,0:3:0:0:
172,175,215089,1,4,0:3:0:0:
245,225,215232,6,0,P|199:211|107:299,1,160,2|0,0:3|0:0,0:0:0:0:
112,269,215803,2,0,P|118:223|116:167,1,80,8|0,0:0|0:0,0:0:0:0:
243,46,216089,2,0,P|197:52|141:50,1,80
330,181,216375,5,0,0:0:0:0:
403,201,216517,1,0,0:0:0:0:
424,128,216660,1,0,0:0:0:0:
350,107,216803,1,0,0:0:0:0:
413,216,216946,6,0,P|399:264|395:311,1,80,8|0,0:0|0:0,0:0:0:0:
340,96,217232,2,0,P|334:56|322:18,1,80
141,173,217517,5,0,0:0:0:0:
231,140,217660,1,0,0:0:0:0:
295,210,217803,2,0,L|468:198,1,160,0|8,0:0|0:0,0:0:0:0:
454,198,218232,1,0,0:0:0:0:
454,198,218375,1,0,0:0:0:0:
389,308,218517,5,0,0:0:0:0:
308,297,218660,1,0,0:0:0:0:
389,308,218803,5,2,0:3:0:0:
291,217,218946,2,0,P|308:166|351:123,1,80,2|0,0:3|0:0,0:0:0:0:
172,14,219232,5,0,0:0:0:0:
228,103,219375,1,0,0:0:0:0:
159,180,219517,1,0,0:0:0:0:
211,271,219660,1,0,0:0:0:0:
312,249,219803,5,0,0:0:0:0:
323,145,219946,2,0,P|364:129|422:124,1,80,0|8,0:0|0:3,0:0:0:0:
323,258,220232,5,0,0:0:0:0:
249,179,220375,2,0,P|233:138|228:80,1,80,8|8,0:0|0:3,0:0:0:0:
227,102,220660,1,0,0:0:0:0:
81,28,220803,5,8,0:3:0:0:
44,125,220946,2,0,L|56:228,1,80,8|0,0:3|0:0,0:0:0:0:
87,38,221232,5,8,0:3:0:0:
50,135,221375,2,0,L|62:238,1,80,8|8,0:3|0:0,0:0:0:0:
104,337,221660,5,8,0:3:0:0:
141,240,221803,2,0,L|129:137,1,80,8|0,0:3|0:0,0:0:0:0:
98,327,222089,5,8,0:3:0:0:
135,230,222232,2,0,L|123:127,1,80,8|0,0:3|0:0,0:0:0:0:
26,287,222517,5,0,0:0:0:0:
180,338,222660,2,0,P|216:324|276:314,2,80
180,338,223089,1,0,0:0:0:0:
316,362,223232,5,0,0:0:0:0:
340,194,223375,1,8,0:0:0:0:
365,285,223517,2,0,P|402:277|470:271,1,80,2|0,0:3|0:0,0:0:0:0:
476,127,223803,2,0,P|427:174|331:192,1,160,8|0,0:0|0:0,0:0:0:0:
504,219,224232,1,0,0:0:0:0:
329,33,224375,6,0,L|340:220,1,160
338,192,224803,1,0,0:0:0:0:
118,274,224946,5,8,0:0:0:0:
193,251,225089,1,0,0:0:0:0:
268,276,225232,1,0,0:0:0:0:
315,339,225375,1,2,0:3:0:0:
118,274,225517,5,0,0:0:0:0:
268,276,225660,1,2,0:3:0:0:
193,251,225803,5,0,0:0:0:0:
315,339,225946,2,0,P|306:295|312:234,1,80,0|8,0:0|0:0,0:0:0:0:
367,197,226232,5,0,0:0:0:0:
198,326,226375,1,0,0:0:0:0:
103,231,226517,1,0,0:0:0:0:
381,200,226660,5,0,0:0:0:0:
192,344,226803,1,0,0:0:0:0:
77,228,226946,2,0,P|132:233|184:229,1,80
302,31,227232,5,0,0:0:0:0:
266,67,227375,1,0,0:0:0:0:
254,98,227517,1,0,0:0:0:0:
254,125,227660,1,0,0:0:0:0:
288,195,227803,5,0,0:0:0:0:
325,283,227946,1,2,0:3:0:0:
257,350,228089,2,0,P|211:343|158:343,1,80,2|0,0:3|0:0,0:0:0:0:
14,165,228375,2,0,L|179:160,1,160
253,213,228803,1,0,0:0:0:0:
320,145,228946,6,0,P|305:203|334:307,1,160
328,298,229375,1,0,0:0:0:0:
489,105,229517,2,0,L|389:101,1,80,8|0,0:0|0:0,0:0:0:0:
409,101,229803,1,0,0:0:0:0:
305,31,229946,5,2,0:3:0:0:
320,145,230089,1,2,0:3:0:0:
311,20,230232,5,2,0:3:0:0:
316,158,230375,1,2,0:3:0:0:
316,158,230517,1,0,0:0:0:0:
384,224,230660,2,0,P|438:226|493:214,2,80
384,224,231089,1,0,0:0:0:0:
292,295,231232,5,0,0:0:0:0:
197,314,231375,1,0,0:0:0:0:
78,192,231517,2,0,P|125:215|180:224,1,80,2|0,0:3|0:0,0:0:0:0:
197,314,231803,5,2,0:3:0:0:
316,160,231946,2,0,P|269:183|214:192,1,80,2|0,0:3|0:0,0:0:0:0:
197,314,232232,5,0,0:0:0:0:
76,91,232375,2,0,P|118:121|170:140,1,80,2|0,0:3|0:0,0:0:0:0:
197,314,232660,5,0,0:0:0:0:
301,60,232803,2,0,P|258:90|206:109,1,80,2|0,0:3|0:0,0:0:0:0:
426,268,233517,5,0,0:0:0:0:
426,268,233803,2,0,L|435:74,2,160,0|8|0,0:0|0:0|0:0,0:0:0:0:
349,338,234517,1,0,0:0:0:0:
249,306,234660,2,0,P|209:342|92:324,2,160,0|2|8,0:0|0:3|0:0,0:0:0:0:
249,306,235517,1,0,0:0:0:0:
263,202,235660,1,0,0:0:0:0:
275,98,235803,6,0,L|458:88,1,160
176,27,236375,1,8,0:0:0:0:
342,260,236660,1,0,0:0:0:0:
342,260,236803,1,0,0:0:0:0:
342,260,236946,5,0,0:0:0:0:
422,238,237089,1,0,0:0:0:0:
226,342,237232,2,0,P|244:293|240:171,1,160,2|8,0:3|0:0,0:0:0:0:
244,186,237660,1,0,0:0:0:0:
161,73,237803,1,0,0:0:0:0:
256,83,237946,1,0,0:0:0:0:
351,92,238089,5,0,0:0:0:0:
351,92,238375,2,0,L|519:84,2,160,0|8|0,0:0|0:0|0:0,0:0:0:0:
301,174,239089,1,0,0:0:0:0:
380,228,239232,2,0,P|398:287|361:383,2,160,0|2|8,0:0|0:3|0:0,0:0:0:0:
380,228,240089,1,0,0:0:0:0:
284,241,240232,1,0,0:0:0:0:
188,253,240375,6,0,B|137:269|137:269|9:258,1,160
218,359,240946,1,8,0:0:0:0:
277,66,241232,1,0,0:0:0:0:
277,66,241375,1,0,0:0:0:0:
277,66,241517,5,0,0:0:0:0:
205,142,241660,1,0,0:0:0:0:
431,181,241803,2,0,B|371:177|371:177|329:192|329:192|248:184,1,160,2|8,0:3|0:0,0:0:0:0:
273,186,242232,1,0,0:0:0:0:
172,293,242375,1,0,0:0:0:0:
266,281,242517,1,0,0:0:0:0:
353,320,242660,5,0,0:0:0:0:
353,320,242946,2,0,P|396:290|529:286,2,160,0|8|0,0:0|0:0|0:0,0:0:0:0:
267,362,243660,1,0,0:0:0:0:
194,299,243803,2,0,L|24:293,1,160
34,293,244375,1,8,0:0:0:0:
140,100,244660,1,0,0:0:0:0:
223,133,244803,1,0,0:0:0:0:
145,186,244946,6,0,B|287:142|249:240|392:167,1,240
420,94,245517,2,0,L|411:278,1,160,8|0,0:0|0:0,0:0:0:0:
239,341,246089,1,0,0:0:0:0:
208,258,246232,1,0,0:0:0:0:
247,359,246375,2,0,P|288:343|429:345,1,160,2|8,0:3|0:0,0:0:0:0:
484,189,246946,1,0,0:0:0:0:
403,45,247232,6,0,L|216:52,2,160,0|0|8,0:0|0:0|0:0,0:0:0:0:
178,162,248089,1,0,0:0:0:0:
320,279,248375,2,0,P|350:246|334:118,1,160
348,136,248946,1,8,0:0:0:0:
148,53,249232,1,0,0:0:0:0:
148,53,249375,1,0,0:0:0:0:
148,53,249517,6,0,L|161:214,2,160,0|0|8,0:0|0:0|0:0,0:0:0:0:
65,153,250375,1,0,0:0:0:0:
243,263,250660,2,0,P|285:250|344:246,1,80
194,345,250946,1,2,0:3:0:0:
64,150,251232,6,0,P|62:198|103:120,1,280,8|0,0:0|2:0,0:0:0:0:
115,177,251803,6,0,P|168:167|284:158,1,160
351,215,252232,1,0,0:0:0:0:
391,51,252375,1,8,0:0:0:0:
391,51,252517,1,0,0:0:0:0:
299,142,252660,1,0,0:0:0:0:
477,169,252803,6,0,P|438:221|343:208,1,160
218,194,253232,2,0,P|228:237|229:297,1,80
213,114,253517,2,0,L|219:221,1,80,8|0,0:0|0:0,0:0:0:0:
137,159,253803,1,0,0:0:0:0:
282,70,253946,1,2,0:3:0:0:
129,0,254089,6,0,L|138:177,1,160
74,232,254517,1,0,0:0:0:0:
212,333,254660,2,0,P|250:311|319:298,1,80,8|0,0:0|0:0,0:0:0:0:
395,136,254946,1,0,0:0:0:0:
316,32,255089,6,0,P|323:89|221:124,1,160
74,232,255517,2,0,L|173:228,1,80
325,316,255803,1,8,0:0:0:0:
228,319,255946,1,0,0:0:0:0:
364,227,256089,1,0,0:0:0:0:
456,252,256232,1,2,0:3:0:0:
287,13,256375,6,0,B|300:61|300:61|278:188,1,160
199,221,256803,1,2,0:3:0:0:
36,134,256946,2,0,P|92:141|131:140,1,80,8|0,0:0|0:0,0:0:0:0:
95,304,257232,1,0,0:0:0:0:
340,190,257375,6,0,P|271:235|179:205,1,160
418,261,257803,2,0,L|414:352,1,80
486,220,258089,2,0,P|440:251|409:264,1,80,8|0,0:0|0:0,0:0:0:0:
340,190,258375,1,0,0:0:0:0:
170,294,258517,1,0,0:0:0:0:
39,188,258660,6,0,P|46:147|49:98,1,80
201,138,258946,2,0,L|196:45,1,80
340,190,259232,2,0,P|333:149|330:100,1,80,8|0,0:0|0:0,0:0:0:0:
484,259,259517,1,0,0:0:0:0:
380,340,259660,2,0,P|342:313|223:323,1,160
139,290,260089,1,0,0:0:0:0:
139,290,260375,5,8,0:0:0:0:
168,199,260517,1,0,0:0:0:0:
76,171,260660,1,0,0:0:0:0:
107,80,260803,1,0,0:0:0:0:
250,70,260946,6,0,P|201:101|92:64,1,160
76,171,261375,1,2,0:3:0:0:
202,309,261517,2,0,L|295:302,1,80,8|0,0:0|0:0,0:0:0:0:
405,151,261803,1,0,0:0:0:0:
433,226,261946,6,0,P|377:224|333:126,1,160
154,47,262375,2,0,P|166:102|164:145,1,80
233,43,262660,2,0,L|139:47,1,80,8|0,0:0|0:0,0:0:0:0:
71,98,262946,1,0,0:0:0:0:
329,140,263089,1,0,0:0:0:0:
190,254,263232,6,0,P|153:227|175:118,1,160
233,43,263660,1,0,0:0:0:0:
408,144,263803,2,0,L|309:138,1,80,8|0,0:0|0:0,0:0:0:0:
478,80,264089,1,0,0:0:0:0:
349,263,264232,6,0,P|269:253|167:255,1,160
45,83,264660,2,0,L|56:177,1,80
124,336,264946,5,8,0:0:0:0:
14,266,265089,1,0,0:0:0:0:
102,246,265232,1,0,0:0:0:0:
33,355,265375,1,0,0:0:0:0:
250,378,265517,6,0,B|232:329|232:329|243:200,1,160
302,148,265946,1,0,0:0:0:0:
102,73,266089,2,0,P|148:99|204:115,1,80,8|0,0:0|0:0,0:0:0:0:
323,24,266375,1,0,0:0:0:0:
465,110,266517,6,0,L|366:98,2,80
332,37,266946,1,0,0:0:0:0:
332,37,267232,6,0,P|341:85|340:130,1,80,8|0,0:0|0:0,0:0:0:0:
279,263,267517,1,0,0:0:0:0:
188,231,267660,1,0,0:0:0:0:
57,143,267803,5,0,0:0:0:0:
152,132,267946,1,2,0:3:0:0:
247,121,268089,1,0,0:0:0:0:
57,143,268232,1,2,0:3:0:0:
225,311,268375,5,0,0:0:0:0:
236,216,268517,1,2,0:3:0:0:
247,121,268660,1,0,0:0:0:0:
225,311,268803,1,2,0:3:0:0:
437,143,268946,5,0,0:0:0:0:
247,121,269089,1,2,0:3:0:0:
239,120,269232,1,0,0:0:0:0:
342,132,269375,1,2,0:3:0:0:
161,212,269517,5,8,0:0:0:0:
177,43,269660,1,8,0:0:0:0:
283,220,269803,1,8,0:0:0:0:
103,130,269946,1,8,0:0:0:0:
359,36,270089,6,0,L|352:112,1,59.9999981689454,4|0,0:0|0:0,0:0:0:0:
449,283,270375,2,0,P|413:254|389:241,1,59.9999981689454
251,351,270660,2,0,L|245:291,1,59.9999981689454,8|0,0:0|0:0,0:0:0:0:
97,131,270946,1,0,0:0:0:0:
97,131,271089,1,0,0:0:0:0:
97,131,271232,6,0,P|126:162|145:198,1,59.9999981689454
277,190,271517,2,0,P|235:199|194:198,1,59.9999981689454
137,313,271803,2,0,P|149:272|171:237,1,59.9999981689454,8|0,0:0|0:0,3:0:0:0:
331,332,272089,1,0,0:0:0:0:
398,272,272232,1,0,0:0:0:0:
504,356,272375,6,0,L|419:345,1,59.9999981689454
332,189,272660,2,0,L|272:196,1,59.9999981689454
106,335,272946,2,0,P|92:308|81:280,1,59.9999981689454,8|0,0:0|0:0,0:0:0:0:
153,75,273232,1,0,0:0:0:0:
71,156,273375,1,0,0:0:0:0:
273,195,273517,5,0,0:0:0:0:
296,191,273660,1,0,0:0:0:0:
320,188,273803,1,0,0:0:0:0:
344,184,273946,1,0,0:0:0:0:
321,94,274089,5,8,0:0:0:0:
312,116,274232,1,0,0:0:0:0:
303,138,274375,1,0,0:0:0:0:
343,286,274517,1,0,0:0:0:0:
205,370,274660,6,0,L|197:283,1,59.9999981689454
123,188,274946,2,0,L|131:101,1,59.9999981689454
321,94,275232,2,0,P|271:107|243:110,1,59.9999981689454,8|0,0:0|0:0,0:0:0:0:
416,216,275517,1,0,0:0:0:0:
430,204,275660,1,0,0:0:0:0:
440,189,275803,6,0,P|450:148|451:112,1,59.9999981689454
311,236,276089,2,0,P|334:254|360:269,1,59.9999981689454
179,217,276375,2,0,P|149:220|120:228,1,59.9999981689454,8|0,0:0|0:0,0:0:0:0:
254,89,276660,1,0,0:0:0:0:
152,76,276803,1,0,0:0:0:0:
320,5,276946,6,0,L|325:84,1,59.9999981689454
336,251,277232,2,0,L|339:310,1,59.9999981689454
481,139,277517,2,0,P|441:167|406:180,1,59.9999981689454,8|0,0:0|0:0,0:0:0:0:
228,144,277803,1,0,0:0:0:0:
160,217,277946,1,0,0:0:0:0:
270,275,278089,5,0,0:0:0:0:
292,283,278232,1,0,0:0:0:0:
316,285,278375,1,0,0:0:0:0:
339,280,278517,1,0,0:0:0:0:
338,173,278660,5,8,0:0:0:0:
320,189,278803,1,0,0:0:0:0:
309,210,278946,1,0,0:0:0:0:
390,346,279089,1,0,0:0:0:0:
487,212,279232,6,0,P|456:217|417:219,1,59.9999981689454
331,59,279517,2,0,P|336:90|338:129,1,59.9999981689454
255,279,279803,2,0,L|173:275,1,59.9999981689454,8|0,0:0|0:0,0:0:0:0:
59,111,280089,1,0,0:0:0:0:
59,111,280232,1,0,0:0:0:0:
59,111,280375,6,0,P|87:136|109:174,1,59.9999981689454
203,15,280660,2,0,P|205:52|193:94,1,59.9999981689454,0|0,0:0|0:0,3:0:0:0:
24,15,280946,2,0,L|102:11,1,59.9999981689454,8|0,0:0|0:0,0:0:0:0:
311,46,281232,1,0,0:0:0:0:
201,74,281375,1,0,0:0:0:0:
422,4,281517,6,0,P|392:47|403:136,1,119.999996337891
383,232,281946,2,0,L|392:94,1,119.999996337891
302,172,282375,1,0,0:0:0:0:
461,242,282517,1,0,0:0:0:0:
331,330,282660,5,0,0:0:0:0:
220,316,282803,1,0,0:0:0:0:
114,222,282946,5,0,0:0:0:0:
225,208,283089,1,0,0:0:0:0:
319,326,283232,5,8,0:0:0:0:
127,229,283375,1,0,0:0:0:0:
230,192,283517,5,0,0:0:0:0:
217,332,283660,1,0,0:0:0:0:
221,338,283803,5,0,0:0:0:0:
256,192,288375,12,0,290589,2:0:0:0:
18,286,290660,5,4,0:2:0:0:
82,232,291232,1,0,0:0:0:0:
152,277,291803,1,0,0:0:0:0:
216,223,292375,1,0,0:0:0:0:
289,262,292946,1,0,0:0:0:0:
353,208,293517,1,0,0:0:0:0:
420,257,294089,1,0,0:0:0:0:
484,203,294660,1,0,0:0:0:0:
484,203,295232,5,0,0:0:0:0:
420,257,295517,1,0,0:0:0:0:
353,208,295803,1,0,0:0:0:0:
289,262,296089,1,0,0:0:0:0:
216,223,296375,1,0,0:0:0:0:
152,277,296660,1,0,0:0:0:0:
82,232,296946,1,0,0:0:0:0:
18,286,297232,1,0,0:0:0:0:
18,286,297517,5,12,0:0:0:0:
233,220,297660,1,8,0:3:0:0:
68,66,297803,1,8,0:3:0:0:
278,108,297946,5,8,0:0:0:0:
124,273,298089,1,8,0:3:0:0:
58,58,298232,1,8,0:3:0:0:
243,227,298375,5,8,0:0:0:0:
46,49,298517,1,8,0:3:0:0:
265,17,298660,5,4,0:0:0:0:
85,173,298803,1,0,0:3:0:0:
379,258,298946,1,0,0:3:0:0:
236,364,299089,5,4,0:3:0:0:
321,70,299232,1,0,0:3:0:0:
80,184,299375,1,4,0:0:0:0:
451,314,299517,5,0,0:0:0:0:
74,195,299660,1,0,0:3:0:0:
385,203,299803,5,8,0:0:0:0:
409,73,299946,1,0,0:0:0:0:
270,184,300089,1,0,0:0:0:0:
484,230,300232,2,0,P|411:223|363:226,1,100,8|0,0:0|0:0,0:0:0:0:
221,351,300517,5,8,0:3:0:0:
251,183,300660,1,0,0:0:0:0:
218,368,300803,1,0,0:0:0:0:
135,157,300946,5,8,0:3:0:0:
135,157,301089,1,0,0:0:0:0:
249,194,301232,1,8,0:3:0:0:
343,119,301375,1,4,0:3:0:0:
161,12,301517,5,0,0:0:0:0:
192,49,301589,1,0,0:0:0:0:
188,98,301660,1,0,0:0:0:0:
152,130,301732,1,0,0:0:0:0:
141,92,301803,5,0,0:0:0:0:
165,88,301875,1,0,0:0:0:0:
188,98,301946,1,0,0:0:0:0:
202,118,302017,1,0,0:0:0:0:
204,142,302089,6,0,L|324:135,1,100,12|0,0:0|0:0,0:0:0:0:
448,47,302375,1,0,0:0:0:0:
391,319,302517,2,0,P|363:259|381:193,1,100,8|0,0:0|0:0,0:0:0:0:
227,359,302803,1,0,0:0:0:0:
49,218,302946,6,0,L|182:212,1,100,8|0,0:0|0:0,0:0:0:0:
280,290,303232,1,8,0:0:0:0:
185,131,303375,1,0,0:0:0:0:
236,376,303517,1,0,0:0:0:0:
396,112,303660,2,0,P|332:136|272:133,1,100,8|0,0:0|0:0,0:0:0:0:
512,80,303946,1,0,0:0:0:0:
379,297,304089,2,0,L|261:288,1,100,8|0,0:0|0:0,0:0:0:0:
48,156,304375,5,8,0:0:0:0:
277,215,304517,1,0,0:0:0:0:
48,156,304660,1,0,0:0:0:0:
325,142,304803,5,8,0:0:0:0:
11,232,304946,1,0,0:0:0:0:
325,142,305089,1,0,0:0:0:0:
161,25,305232,6,0,L|166:137,1,100,8|0,0:0|0:0,0:0:0:0:
398,220,305517,1,8,0:0:0:0:
226,355,305660,2,0,P|209:305|228:219,1,100
299,69,305946,1,8,0:0:0:0:
153,144,306089,1,0,0:0:0:0:
321,211,306232,1,8,0:3:0:0:
321,211,306303,1,8,0:3:0:0:
321,211,306375,5,12,0:3:0:0:
365,208,306446,1,8,0:3:0:0:
398,179,306517,1,8,0:3:0:0:
407,136,306589,1,8,0:3:0:0:
388,96,306660,6,0,L|381:210,1,100,12|0,0:0|0:0,0:0:0:0:
368,380,306946,1,0,0:0:0:0:
124,205,307089,2,0,P|180:180|253:175,1,100,8|0,0:0|0:0,0:0:0:0:
321,61,307375,1,0,0:0:0:0:
59,40,307517,6,0,L|70:154,1,100,8|0,0:0|0:0,0:0:0:0:
91,354,307803,1,8,0:0:0:0:
217,173,307946,1,0,0:0:0:0:
34,271,308089,1,0,0:0:0:0:
238,365,308232,2,0,L|355:355,1,100,8|0,0:0|0:0,0:0:0:0:
426,149,308517,1,0,0:0:0:0:
311,14,308660,6,0,P|303:62|272:101,1,100,8|0,0:0|0:0,0:0:0:0:
50,218,308946,1,8,0:0:0:0:
169,230,309089,1,0,0:0:0:0:
288,241,309232,1,0,0:0:0:0:
38,99,309375,5,8,0:0:0:0:
50,218,309517,1,0,0:0:0:0:
61,337,309660,1,0,0:0:0:0:
288,241,309803,2,0,P|239:233|200:202,1,100,8|0,0:0|0:0,0:0:0:0:
413,44,310089,5,12,0:3:0:0:
439,221,310232,1,8,0:3:0:0:
410,23,310375,1,8,0:3:0:0:
454,124,310517,5,4,0:0:0:0:
422,335,310660,1,8,0:3:0:0:
457,106,310803,1,8,0:3:0:0:
507,367,310946,5,12,0:3:0:0:
361,99,311089,1,8,0:3:0:0:
304,312,311232,6,0,L|178:305,1,100,12|0,0:0|0:0,0:0:0:0:
31,165,311517,1,0,0:0:0:0:
211,20,311660,2,0,P|206:73|332:120,1,200,8|0,0:0|0:0,0:0:0:0:
398,293,312089,1,8,0:0:0:0:
459,22,312232,1,0,0:0:0:0:
304,312,312375,6,0,L|165:317,1,110.000003356934,12|0,0:0|0:0,0:0:0:0:
231,65,312660,1,0,0:0:0:0:
447,228,312803,2,0,P|452:175|315:130,1,220.000006713867,8|0,0:0|0:0,0:0:0:0:
122,85,313232,1,8,0:0:0:0:
323,17,313375,1,0,0:0:0:0:
185,206,313517,6,0,L|195:328,1,110.000003356934,12|0,0:0|0:0,0:0:0:0:
303,239,313803,1,0,0:0:0:0:
10,141,313946,1,8,0:0:0:0:
184,20,314089,1,0,0:0:0:0:
101,305,314232,1,0,0:0:0:0:
323,131,314375,2,0,P|304:198|306:274,1,110.000003356934,8|0,0:0|0:0,0:0:0:0:
488,100,314660,5,12,0:0:0:0:
185,162,314803,1,0,0:0:0:0:
396,283,314946,1,0,0:0:0:0:
235,62,315089,5,8,0:0:0:0:
297,365,315232,1,0,0:0:0:0:
418,154,315375,1,0,0:0:0:0:
216,275,315517,5,0,0:0:0:0:
216,275,315660,1,0,0:0:0:0:
53,164,315803,5,4,0:0:0:0:
53,164,315946,1,0,0:0:0:0:
53,164,316089,1,0,0:0:0:0:
53,164,316232,1,0,0:0:0:0:
53,164,316375,2,0,L|283:170,1,200,8|12,0:0|0:0,0:0:0:0:
323,39,316946,5,0,0:0:0:0:
186,122,317089,1,0,0:0:0:0:
323,39,317232,1,0,0:0:0:0:
186,122,317375,1,0,0:0:0:0:
323,39,317517,2,0,P|281:124|187:123,1,200,8|12,0:0|0:0,0:0:0:0:
51,324,318089,5,0,0:0:0:0:
73,216,318184,1,0,0:0:0:0:
155,290,318279,1,0,0:0:0:0:
49,311,318375,5,0,0:0:0:0:
84,218,318470,1,0,0:0:0:0:
146,296,318565,1,0,0:0:0:0:
94,274,318660,6,0,B|171:278|171:278|202:300|202:300|313:304,1,200,8|12,0:0|0:0,0:0:0:0:
453,173,319232,5,0,0:0:0:0:
431,65,319327,1,0,0:0:0:0:
349,139,319422,1,0,0:0:0:0:
455,160,319517,5,0,0:0:0:0:
420,67,319613,1,0,0:0:0:0:
358,145,319708,1,0,0:0:0:0:
413,121,319803,6,0,L|307:116,1,100,4|4,0:3|0:3,0:0:0:0:
209,222,320089,1,12,0:3:0:0:
164,147,320232,1,4,0:3:0:0:
362,256,320375,6,0,P|348:317|315:353,1,100,12|0,0:0|0:0,0:0:0:0:
164,147,320660,1,0,0:0:0:0:
325,39,320803,2,0,L|446:34,1,100,8|0,0:0|0:0,0:0:0:0:
187,46,321089,1,0,0:0:0:0:
424,142,321232,6,0,P|448:207|446:267,1,100,8|0,0:0|0:0,0:0:0:0:
236,288,321517,1,8,0:0:0:0:
370,317,321660,1,0,0:0:0:0:
146,152,321803,1,0,0:0:0:0:
84,378,321946,2,0,L|197:365,1,100,8|0,0:0|0:0,0:0:0:0:
270,129,322232,1,0,0:0:0:0:
96,223,322375,1,8,0:0:0:0:
386,313,322517,1,0,0:0:0:0:
405,43,322660,5,8,0:0:0:0:
270,129,322803,1,0,0:0:0:0:
512,187,322946,1,0,0:0:0:0:
262,211,323089,5,8,0:0:0:0:
397,125,323232,1,0,0:0:0:0:
155,67,323375,1,0,0:0:0:0:
276,234,323517,6,0,L|280:342,1,100,8|0,0:0|0:0,0:0:0:0:
166,249,323803,1,8,0:0:0:0:
410,294,323946,2,0,P|439:246|445:174,1,100
263,74,324232,1,8,0:0:0:0:
505,69,324375,5,8,0:3:0:0:
463,84,324446,1,8,0:3:0:0:
435,118,324517,1,8,0:3:0:0:
429,162,324589,1,8,0:3:0:0:
447,203,324660,1,8,0:3:0:0:
393,334,324803,1,0,0:0:0:0:
393,334,324875,1,0,0:0:0:0:
393,334,324946,6,0,L|278:326,1,100,12|0,0:0|0:0,0:0:0:0:
80,178,325232,1,0,0:0:0:0:
152,355,325375,2,0,P|191:305|188:232,1,100,8|0,0:0|0:0,0:0:0:0:
350,115,325660,1,0,0:0:0:0:
137,56,325803,6,0,L|246:51,1,100,8|0,0:0|0:0,0:0:0:0:
444,194,326089,1,8,0:0:0:0:
294,240,326232,1,0,0:0:0:0:
490,99,326375,1,0,0:0:0:0:
391,353,326517,2,0,P|338:332|274:324,1,100,8|0,0:0|0:0,0:0:0:0:
130,123,326803,1,0,0:0:0:0:
313,10,326946,2,0,L|305:130,1,100,8|0,0:0|0:0,0:0:0:0:
50,303,327232,5,8,0:0:0:0:
165,335,327375,1,0,0:0:0:0:
255,256,327517,1,0,0:0:0:0:
307,110,327660,5,8,0:0:0:0:
397,31,327803,1,0,0:0:0:0:
512,63,327946,1,0,0:0:0:0:
288,127,328089,2,0,L|169:121,1,100,8|0,0:0|0:0,0:0:0:0:
43,226,328375,5,8,0:0:0:0:
165,335,328517,1,8,0:3:0:0:
291,289,328660,1,8,0:3:0:0:
46,238,328803,5,12,0:0:0:0:
165,343,328946,1,8,0:3:0:0:
301,293,329089,1,8,0:3:0:0:
139,143,329232,5,8,0:0:0:0:
166,352,329375,1,0,0:0:0:0:
316,97,329517,6,0,L|200:100,1,100,12|0,0:0|0:0,0:0:0:0:
105,23,329803,1,0,0:0:0:0:
7,212,329946,2,0,B|114:169|80:248|200:200,1,200,8|0,0:0|0:0,0:0:0:0:
402,330,330375,1,8,0:0:0:0:
224,283,330517,1,0,0:0:0:0:
450,108,330660,6,0,L|446:230,1,110.000003356934,12|0,0:0|0:0,0:0:0:0:
511,17,330946,1,0,0:0:0:0:
322,100,331089,2,0,P|319:179|176:172,1,220.000006713867,8|0,0:0|0:0,0:0:0:0:
367,27,331517,1,8,0:0:0:0:
446,217,331660,1,0,0:0:0:0:
251,139,331803,5,12,0:0:0:0:
334,318,331946,1,0,0:0:0:0:
434,60,332089,1,0,0:0:0:0:
199,200,332232,1,8,0:0:0:0:
497,292,332375,1,0,0:0:0:0:
85,115,332517,1,0,0:0:0:0:
512,106,332660,5,8,0:0:0:0:
28,233,332803,1,0,0:0:0:0:
320,25,332946,6,0,P|296:71|290:199,1,160,6|0,0:0|0:0,0:0:0:0:
442,307,333375,6,0,P|414:261|332:271,1,129.999994049073,6|0,0:0|0:0,0:0:0:0:
212,331,333803,6,0,L|104:322,1,100,6|0,0:0|0:0,0:0:0:0:
112,322,334660,1,0,0:0:0:0:
112,322,335232,1,0,0:0:0:0:
112,322,335803,1,0,0:0:0:0:
112,322,336375,1,0,0:0:0:0:
112,322,336946,1,0,0:0:0:0:
112,322,337517,1,0,0:0:0:0:
112,322,338089,1,0,0:0:0:0:
153,151,338660,6,0,L|291:144,1,100,2|2,0:0|0:0,0:0:0:0:
153,151,340375,5,8,0:0:0:0:
202,148,340446,1,8,0:0:0:0:
252,146,340517,1,8,0:0:0:0:
302,144,340589,1,8,0:0:0:0:
352,142,340660,1,4,0:3:0:0:
423,207,340803,1,4,0:3:0:0:
468,75,340946,5,4,0:0:0:0:
329,293,341089,2,0,B|279:270|279:270|165:307,1,162.499992561341,0|0,0:0|2:0,0:0:0:0:
165,314,341517,6,0,P|214:281|123:253,1,200,8|0,0:0|0:0,0:0:0:0:
100,168,342089,6,0,P|158:149|216:156,1,100,8|0,0:0|0:0,0:0:0:0:
319,59,342375,2,0,P|290:86|364:115,1,150,0|0,0:0|2:0,0:0:0:0:
369,117,342660,1,0,0:0:0:0:
452,227,342803,6,0,B|408:223|408:223|382:235|382:235|283:227,1,149.999995422363,0|0,0:0|2:0,0:0:0:0:
308,228,343232,6,0,P|342:261|455:140,1,259.999988098145,4|8,0:0|0:0,0:0:0:0:
204,228,344375,6,0,P|170:261|57:140,1,259.999988098145,12|8,0:0|0:0,0:0:0:0:
221,17,345517,6,0,B|227:93|227:93|213:123|213:123|228:285,1,259.999988098145,12|8,0:0|0:0,0:0:0:0:
304,292,346660,6,0,B|290:141|290:141|304:111|304:111|298:35,1,259.999988098145,12|8,0:0|0:0,0:0:0:0:
186,180,347803,6,0,L|329:170,1,100,6|2,0:0|0:0,0:0:0:0:
241,77,350089,5,8,0:0:0:0:
81,85,350232,2,0,L|250:76,1,160
290,170,350660,5,8,0:0:0:0:
450,178,350803,2,0,L|281:169,1,160
132,215,351232,5,8,0:0:0:0:
149,377,351375,2,0,B|116:325|116:325|141:218,1,160
290,169,351803,5,8,0:0:0:0:
273,7,351946,2,0,B|306:59|306:59|281:166,1,160
416,278,352375,5,4,0:0:0:0:
416,278,352517,1,0,0:0:0:0:
305,349,352660,2,0,P|317:303|315:255,1,80
283,154,352946,5,8,0:0:0:0:
384,58,353089,2,0,L|373:144,1,80
202,47,353375,1,0,0:0:0:0:
130,116,353518,2,0,L|216:127,1,80
94,246,353803,5,0,0:0:0:0:
126,342,353946,1,0,0:0:0:0:
87,223,354089,1,8,0:0:0:0:
223,317,354232,1,0,0:0:0:0:
40,316,354375,5,0,0:0:0:0:
232,234,354517,1,0,0:0:0:0:
148,126,354660,5,0,0:0:0:0:
148,126,354803,1,0,0:0:0:0:
231,23,354946,2,0,P|222:76|223:114,1,80
407,238,355232,5,8,0:0:0:0:
335,324,355375,2,0,L|223:317,1,80
18,283,355660,5,0,0:0:0:0:
90,369,355803,2,0,L|202:362,1,80
351,243,356089,1,0,0:0:0:0:
144,183,356232,1,0,0:0:0:0:
335,324,356375,1,8,0:0:0:0:
380,118,356517,1,0,0:0:0:0:
184,280,356660,5,0,0:0:0:0:
469,173,356803,1,0,0:0:0:0:
276,38,356946,6,0,P|286:83|291:138,1,80
80,66,357232,2,0,P|70:111|65:166,1,80
4,320,357517,2,0,L|93:318,1,80,8|0,0:0|0:0,0:0:0:0:
264,216,357803,1,0,0:0:0:0:
194,368,357946,1,0,0:0:0:0:
139,168,358089,5,0,0:0:0:0:
139,168,358232,1,0,0:0:0:0:
199,274,358375,1,0,0:0:0:0:
254,62,358517,2,0,L|243:153,1,80,0|8,0:0|0:0,0:0:0:0:
171,21,358803,1,0,0:0:0:0:
354,116,358946,1,0,0:0:0:0:
122,186,359089,1,0,0:0:0:0:
344,331,359232,6,0,P|386:316|456:313,1,80
486,135,359517,1,0,0:0:0:0:
392,228,359660,1,0,0:0:0:0:
213,157,359803,5,8,0:0:0:0:
252,301,359946,1,0,0:0:0:0:
213,157,360089,1,0,0:0:0:0:
252,301,360232,1,0,0:0:0:0:
67,192,360375,5,12,0:3:0:0:
156,216,360518,1,8,0:3:0:0:
160,308,360660,1,12,0:3:0:0:
75,341,360803,1,8,0:3:0:0:
17,269,360946,5,8,0:3:0:0:
40,274,361088,1,8,0:3:0:0:
64,274,361231,1,8,0:3:0:0:
87,267,361374,1,8,0:3:0:0:
173,120,361517,5,4,0:0:0:0:
173,120,361660,1,0,0:0:0:0:
278,181,361803,2,0,P|316:163|364:152,1,80
250,330,362089,1,8,0:0:0:0:
328,373,362232,2,0,L|332:276,1,80
478,90,362517,5,0,0:0:0:0:
352,153,362660,2,0,P|332:108|334:56,1,80
470,98,362946,5,0,0:0:0:0:
343,241,363089,2,8,P|360:195|398:159,1,80,0|8,0:0|0:0,0:0:0:0:
227,283,363375,1,0,0:0:0:0:
430,314,363517,1,0,0:0:0:0:
181,210,363660,1,0,0:0:0:0:
268,353,363803,5,0,0:0:0:0:
297,148,363946,1,0,0:0:0:0:
92,215,364089,1,0,0:0:0:0:
371,368,364232,2,0,P|350:308|360:257,1,80,0|8,0:0|0:0,0:0:0:0:
433,119,364517,6,0,L|534:114,2,80
243,21,364946,5,0,0:0:0:0:
276,225,365089,1,0,0:0:0:0:
243,21,365232,1,0,0:0:0:0:
53,146,365375,2,0,P|99:123|151:111,1,80,0|8,0:0|0:0,0:0:0:0:
296,237,365660,1,0,0:0:0:0:
145,243,365803,5,0,0:0:0:0:
425,184,365946,1,0,0:0:0:0:
261,344,366089,6,0,P|272:293|273:245,1,80
75,191,366375,2,0,P|64:140|63:92,1,80
0,331,366660,2,0,L|83:336,1,80,8|0,0:0|0:0,0:0:0:0:
290,181,366946,1,0,0:0:0:0:
154,127,367089,1,0,0:0:0:0:
300,318,367232,5,0,0:0:0:0:
387,276,367375,1,0,0:0:0:0:
472,307,367517,1,0,0:0:0:0:
272,235,367660,2,0,P|257:182|265:137,1,80,0|8,0:0|0:0,0:0:0:0:
385,366,367946,1,0,0:0:0:0:
193,289,368089,5,0,0:0:0:0:
465,221,368232,1,0,0:0:0:0:
312,26,368375,6,0,L|318:124,1,80
228,37,368660,1,0,0:0:0:0:
490,145,368803,2,0,P|468:198|465:242,1,80,0|8,0:0|0:0,0:0:0:0:
296,319,369089,1,0,0:0:0:0:
382,216,369232,1,0,0:0:0:0:
382,216,369375,1,0,0:0:0:0:
124,139,369517,5,8,0:0:0:0:
144,301,369660,1,8,0:0:0:0:
178,215,369803,1,8,0:3:0:0:
178,215,369946,1,8,0:3:0:0:
48,236,370089,5,8,0:0:0:0:
258,205,370232,1,8,0:3:0:0:
36,248,370375,5,4,0:3:0:0:
272,213,370517,1,4,0:3:0:0:
196,127,370660,5,4,0:0:0:0:
196,127,370803,1,0,0:0:0:0:
294,24,370946,2,0,L|282:124,1,80
386,313,371232,5,8,0:0:0:0:
497,207,371375,2,0,P|443:224|401:229,1,80
173,142,371660,1,0,0:0:0:0:
279,253,371803,2,0,P|262:199|257:157,1,80
91,338,372089,5,0,0:0:0:0:
222,359,372232,1,0,0:0:0:0:
62,217,372375,1,8,0:0:0:0:
62,217,372517,1,0,0:0:0:0:
150,140,372660,5,0,0:0:0:0:
86,354,372803,1,0,0:0:0:0:
258,175,372946,5,0,0:0:0:0:
41,109,373089,1,0,0:0:0:0:
205,28,373232,1,0,0:0:0:0:
62,217,373375,2,0,P|101:209|164:211,1,80,0|8,0:0|0:0,0:0:0:0:
306,319,373660,5,0,0:0:0:0:
319,231,373803,1,0,0:0:0:0:
331,143,373946,1,0,0:0:0:0:
437,328,374089,5,0,0:0:0:0:
225,236,374232,1,0,0:0:0:0:
488,125,374375,1,0,0:0:0:0:
406,87,374517,2,0,L|412:181,1,80,0|8,0:0|0:0,0:0:0:0:
267,59,374803,1,0,0:0:0:0:
481,16,374946,5,0,0:0:0:0:
231,136,375089,1,0,0:0:0:0:
357,259,375232,5,4,0:3:0:0:
427,226,375374,1,4,0:3:0:0:
449,152,375517,1,8,0:3:0:0:
406,87,375660,1,8,0:3:0:0:
280,232,375803,5,12,0:3:0:0:
277,219,375946,1,4,0:3:0:0:
209,157,376089,1,12,0:3:0:0:
206,144,376232,1,4,0:3:0:0:
122,99,376375,5,12,0:3:0:0:
134,136,376446,1,8,0:3:0:0:
162,164,376517,1,8,0:3:0:0:
199,178,376589,1,8,0:3:0:0:
239,173,376660,1,12,0:3:0:0:
272,152,376732,1,8,0:3:0:0:
293,118,376803,1,8,0:3:0:0:
313,84,376875,1,8,0:3:0:0:
347,62,376946,1,12,0:3:0:0:
386,58,377018,1,8,0:3:0:0:
424,71,377089,1,8,0:3:0:0:
451,100,377161,1,8,0:3:0:0:
464,137,377232,5,4,0:3:0:0:
462,157,377303,1,4,0:3:0:0:
461,177,377374,1,4,0:3:0:0:
460,197,377446,1,4,0:3:0:0:
442,224,377517,5,4,0:0:0:0:
264,268,377660,2,0,B|311:268|311:268|339:252|339:252|441:247,1,160
50,299,378089,5,12,0:0:0:0:
228,343,378232,2,0,B|181:343|181:343|153:327|153:327|51:322,1,160
239,61,378660,5,12,0:0:0:0:
132,185,378803,2,0,P|183:176|209:60,1,160
331,158,379232,5,12,0:0:0:0:
438,282,379375,2,0,P|387:273|361:157,1,160
125,270,379803,5,4,0:0:0:0:
