osu file format v14

[General]
AudioFilename: audio.mp3
AudioLeadIn: 0
PreviewTime: 69761
Countdown: 0
SampleSet: Soft
StackLeniency: 0.7
Mode: 0
LetterboxInBreaks: 0
WidescreenStoryboard: 1

[Editor]
Bookmarks: 155,8244,13638,35211,37907,45997,56784,64874,86447,97233,118806,124199,145772,156559,167346,178132,199705,209143
DistanceSpacing: 0.6
BeatDivisor: 4
GridSize: 16
TimelineZoom: 1

[Metadata]
Title:Good L_ck (Yo_'re F_cked)
TitleUnicode:Good L_ck (Yo_'re F_cked)
Artist:Celldweller
ArtistUnicode:Celldweller
Creator:Daycore
Version:Easy
Source:osu!
Tags:drum and bass end of an empire circle of dust scandroid piroshki mappers' guild mappers mg fa featured artist electronic rock luck fucked you'll you're klayton
BeatmapID:2239602
BeatmapSetID:1069112

[Difficulty]
HPDrainRate:2
CircleSize:3
OverallDifficulty:3
ApproachRate:3.5
SliderMultiplier:0.95
SliderTickRate:1

[Events]
//Background and Video events
0,0,"oapsdmj[a.jpg",0,0
//Break Periods
//Storyboard Layer 0 (Background)
//Storyboard Layer 1 (Fail)
//Storyboard Layer 2 (Pass)
//Storyboard Layer 3 (Foreground)
//Storyboard Layer 4 (Overlay)
//Storyboard Sound Samples

[TimingPoints]
163,337.078651685393,4,2,4,80,1,0
12121,-100,4,2,4,80,0,0
12129,-100,4,2,1,80,0,0
13646,-111.111111111111,4,2,1,80,0,0
40098,-111.111111111111,4,2,1,80,0,0
40106,-111.111111111111,4,2,1,60,0,0
40267,-111.111111111111,4,2,1,60,0,0
40275,-111.111111111111,4,2,1,80,0,0
42795,-111.111111111111,4,2,1,80,0,0
42803,-111.111111111111,4,2,1,60,0,0
42963,-111.111111111111,4,2,1,60,0,0
42971,-111.111111111111,4,2,1,80,0,0
64882,-111.111111111111,4,2,1,80,0,1
67241,-111.111111111111,4,2,1,80,0,1
67578,-111.111111111111,4,2,1,80,0,1
69938,-111.111111111111,4,2,1,80,0,1
70275,-111.111111111111,4,2,1,80,0,1
75331,-111.111111111111,4,2,1,80,0,1
75668,-111.111111111111,4,2,1,80,0,1
78028,-111.111111111111,4,2,1,80,0,1
78365,-111.111111111111,4,2,1,80,0,1
80724,-111.111111111111,4,2,1,80,0,1
81061,-111.111111111111,4,2,1,80,0,1
86455,-111.111111111111,4,2,1,80,0,0
99424,-111.111111111111,4,2,1,80,0,0
99432,-111.111111111111,4,2,1,60,0,0
99593,-111.111111111111,4,2,1,60,0,0
99601,-111.111111111111,4,2,1,80,0,0
102121,-111.111111111111,4,2,1,80,0,0
102129,-111.111111111111,4,2,1,60,0,0
102289,-111.111111111111,4,2,1,60,0,0
102297,-111.111111111111,4,2,1,80,0,0
124207,-111.111111111111,4,2,1,80,0,1
126567,-111.111111111111,4,2,1,80,0,1
126904,-111.111111111111,4,2,1,80,0,1
129264,-111.111111111111,4,2,1,80,0,1
129601,-111.111111111111,4,2,1,80,0,1
134657,-111.111111111111,4,2,1,80,0,1
134994,-111.111111111111,4,2,1,80,0,1
137354,-111.111111111111,4,2,1,80,0,1
137691,-111.111111111111,4,2,1,80,0,1
140050,-111.111111111111,4,2,1,80,0,1
140387,-111.111111111111,4,2,1,80,0,1
145780,-111.111111111111,4,2,1,80,0,0
156567,-111.111111111111,4,2,1,80,0,0
178140,-111.111111111111,4,2,1,80,0,1
180500,-111.111111111111,4,2,1,80,0,1
180837,-111.111111111111,4,2,1,80,0,1
183196,-111.111111111111,4,2,1,80,0,1
183533,-111.111111111111,4,2,1,80,0,1
188589,-111.111111111111,4,2,1,80,0,1
188927,-111.111111111111,4,2,1,80,0,1
191286,-111.111111111111,4,2,1,80,0,1
191623,-111.111111111111,4,2,1,80,0,1
193983,-111.111111111111,4,2,1,80,0,1
194320,-111.111111111111,4,2,1,80,0,1
199713,-111.111111111111,4,2,1,80,0,0

[Colours]
Combo1 : 159,160,193
Combo2 : 247,49,79
Combo3 : 232,90,90
Combo4 : 174,205,210

[HitObjects]
256,192,8252,12,8,12297,0:1:0:0:
89,129,13646,6,0,L|184:121,1,85.4999973907472,4|8,0:0|0:1,0:0:0:0:
255,74,14320,1,6,0:3:0:0:
388,119,14825,2,0,B|378:166|378:166|392:195|392:195|382:257,1,128.249996086121,6|8,0:3|0:1,0:0:0:0:
413,332,15668,2,0,P|372:336|321:314,1,85.4999973907472,6|8,0:3|0:1,0:0:0:0:
265,253,16342,6,0,P|224:249|173:271,1,85.4999973907472,6|8,0:3|0:1,0:0:0:0:
123,336,17016,1,6,0:3:0:0:
26,233,17522,2,0,B|25:191|25:191|42:162|42:162|42:105,1,128.249996086121,6|8,0:3|0:1,0:0:0:0:
11,20,18365,2,0,P|50:15|99:35,1,85.4999973907472,0|8,0:0|0:1,0:0:0:0:
157,98,19039,6,0,P|196:103|245:83,1,85.4999973907472,4|8,0:0|0:1,0:0:0:0:
300,16,19713,1,6,0:3:0:0:
395,119,20219,2,0,P|384:169|384:266,1,128.249996086121,6|8,0:3|0:1,0:0:0:0:
422,330,21061,2,0,P|380:339|334:326,1,85.4999973907472,6|8,0:3|0:1,0:0:0:0:
266,269,21736,6,0,P|224:260|178:273,1,85.4999973907472,6|8,0:3|0:1,0:0:0:0:
110,329,22410,1,6,0:3:0:0:
40,206,22915,2,0,P|62:186|89:87,1,128.249996086121,6|8,0:3|0:1,0:0:0:0:
148,20,23758,1,0,0:0:0:0:
148,20,24095,1,8,0:1:0:0:
235,55,24432,6,0,P|285:39|328:57,1,85.4999973907472,4|8,0:0|0:1,0:0:0:0:
390,104,25106,1,6,0:3:0:0:
500,191,25612,2,0,B|427:188|450:229|373:235,1,128.249996086121,6|8,0:3|0:1,0:0:0:0:
289,221,26455,2,0,P|224:216|199:222,1,85.4999973907472,6|8,0:3|0:1,0:0:0:0:
117,184,27129,6,0,P|153:130|161:105,1,85.4999973907472,6|8,0:3|0:1,0:0:0:0:
162,17,27803,1,6,0:3:0:0:
303,20,28309,2,0,B|377:19|352:68|418:75,1,128.249996086121,6|8,0:3|0:1,0:0:0:0:
468,150,29151,2,0,P|459:193|463:248,1,85.4999973907472,0|8,0:0|0:1,0:0:0:0:
447,327,29825,6,0,B|426:324|406:312|406:312|379:324|349:320,1,85.4999973907472,4|8,0:0|0:1,0:0:0:0:
276,291,30500,1,6,0:3:0:0:
137,315,31005,2,0,B|130:249|158:267|149:183,1,128.249996086121,6|8,0:3|0:1,0:0:0:0:
89,116,31848,2,0,P|135:94|172:98,1,85.4999973907472,6|8,0:3|0:1,0:0:0:0:
259,73,32522,6,0,P|305:95|342:91,1,85.4999973907472,6|8,0:3|0:1,0:0:0:0:
425,57,33196,1,6,0:3:0:0:
425,57,33533,1,8,0:1:0:0:
486,128,33870,2,0,P|480:184|482:217,1,85.4999973907472,8|8,0:1|0:1,0:0:0:0:
433,294,34545,2,0,P|387:260|357:246,1,85.4999973907472,8|8,0:1|0:1,0:0:0:0:
281,199,35219,6,0,B|211:205|211:205|181:188|181:188|99:193,1,170.999994781494,4|4,0:0|0:3,0:0:0:0:
35,141,36230,1,8,0:1:0:0:
3,231,36567,2,0,P|0:255|-2:329,1,85.4999973907472,6|8,0:3|0:1,0:0:0:0:
74,370,37241,2,0,P|96:360|161:325,1,85.4999973907472,8|8,0:3|0:1,0:0:0:0:
222,272,37915,5,4,0:0:0:0:
222,272,38252,2,0,B|288:270|288:270|330:289|330:289|399:285,1,170.999994781494,8|8,0:1|0:1,0:0:0:0:
482,297,39264,2,0,P|483:261|448:210,1,85.4999973907472,4|8,0:3|0:1,0:0:0:0:
369,189,39938,2,0,P|368:153|403:102,1,85.4999973907472,0|8,0:0|0:1,0:0:0:0:
409,18,40612,5,4,0:3:0:0:
409,18,40949,2,0,B|312:24|336:71|246:79,1,170.999994781494,8|8,0:1|0:1,0:0:0:0:
169,33,41960,2,0,P|158:86|172:130,1,85.4999973907472,4|8,0:3|0:1,0:0:0:0:
219,192,42634,2,0,P|230:245|216:289,1,85.4999973907472,0|8,0:0|0:1,0:0:0:0:
245,366,43309,5,4,0:0:0:0:
245,366,43646,2,0,B|265:365|284:349|284:349|306:364|344:362,1,85.4999973907472,8|4,0:1|0:3,0:0:0:0:
462,338,44488,2,0,P|459:299|475:244,1,85.4999973907472,4|4,0:0|0:3,0:0:0:0:
479,160,45162,1,4,0:0:0:0:
348,105,45668,1,12,0:1:0:0:
279,40,46005,6,0,B|235:51|235:51|189:39,1,85.4999973907472,4|8,0:3|0:1,0:0:0:0:
108,74,46679,2,0,B|139:106|139:106|152:152,1,85.4999973907472,4|8,0:3|0:1,0:0:0:0:
126,236,47354,2,0,P|114:300|115:329,2,85.4999973907472,4|8|8,0:3|0:1|0:1,0:0:0:0:
217,216,48365,1,8,0:3:0:0:
290,275,48702,5,4,0:0:0:0:
290,275,49039,2,0,B|352:277|352:277|347:163,1,170.999994781494,8|8,0:1|0:1,0:0:0:0:
313,80,50050,2,0,P|352:73|399:91,1,85.4999973907472,4|8,0:3|0:1,0:0:0:0:
455,159,50724,2,0,L|451:254,1,85.4999973907472,0|8,0:0|0:1,0:0:0:0:
484,332,51398,5,4,0:3:0:0:
484,332,51736,2,0,B|410:336|410:336|389:354|389:354|304:358,1,170.999994781494,8|8,0:1|0:1,0:0:0:0:
234,317,52747,2,0,L|139:307,1,85.4999973907472,4|8,0:3|0:1,0:0:0:0:
107,223,53421,2,0,L|202:213,1,85.4999973907472,0|8,0:0|0:1,0:0:0:0:
241,134,54095,5,4,0:0:0:0:
241,134,54432,2,0,L|155:125,1,85.4999973907472,8|4,0:1|0:3,0:0:0:0:
76,8,55275,2,0,B|135:8|122:41|168:37,1,85.4999973907472,4|4,0:0|0:3,0:0:0:0:
244,10,55949,1,4,0:0:0:0:
359,90,56455,1,12,0:1:0:0:
447,56,56792,6,0,P|455:85|434:152,1,85.4999973907472,4|8,0:3|0:1,0:0:0:0:
365,189,57466,2,0,P|357:218|378:285,1,85.4999973907472,4|8,0:3|0:1,0:0:0:0:
344,362,58140,2,0,L|429:356,2,85.4999973907472,4|8|8,0:3|0:1|0:1,0:0:0:0:
254,333,59151,1,8,0:3:0:0:
165,363,59488,6,0,P|159:321|256:234,1,170.999994781494,4|8,0:0|0:3,0:0:0:0:
334,238,60500,1,8,0:1:0:0:
422,206,60837,2,0,P|426:156|424:116,1,85.4999973907472,4|8,0:3|0:1,0:0:0:0:
370,43,61511,2,0,P|328:14|293:-3,1,85.4999973907472,8|8,0:3|0:1,0:0:0:0:
203,3,62185,6,0,B|195:67|195:67|218:109|218:109|210:185,1,170.999994781494,4|8,0:3|0:3,0:0:0:0:
171,252,63196,1,8,0:1:0:0:
111,324,63533,2,0,P|159:343|203:343,2,85.4999973907472,4|8|8,0:3|0:1|0:3,0:0:0:0:
78,235,64545,1,8,0:1:0:0:
171,252,64882,6,0,P|219:233|263:233,1,85.4999973907472,4|8,0:0|0:1,0:0:0:0:
343,256,65556,1,4,0:3:0:0:
457,338,66061,2,0,B|445:296|445:296|452:272|452:272|447:205,1,128.249996086121,4|8,0:3|0:1,0:0:0:0:
489,127,66904,2,0,P|448:116|399:131,1,85.4999973907472,4|8,0:3|0:1,0:0:0:0:
326,77,67578,6,0,L|236:66,1,85.4999973907472,4|8,0:3|0:1,0:0:0:0:
149,87,68252,1,4,0:3:0:0:
17,138,68758,2,0,B|18:192|18:192|36:218|36:218|37:270,1,128.249996086121,4|8,0:3|0:1,0:0:0:0:
6,349,69601,2,0,P|45:354|96:336,1,85.4999973907472,0|8,0:0|0:1,0:0:0:0:
168,291,70275,6,0,L|265:296,1,85.4999973907472,4|8,0:0|0:1,0:0:0:0:
332,243,70949,2,0,P|345:304|319:362,2,128.249996086121,4|4|8,0:3|0:3|0:1,0:0:0:0:
378,161,72297,2,0,L|279:152,1,85.4999973907472,4|8,0:3|0:1,0:0:0:0:
227,85,72971,6,0,L|141:92,1,85.4999973907472,4|8,0:3|0:1,0:0:0:0:
53,59,73646,1,4,0:3:0:0:
130,176,74151,2,0,P|160:240|134:289,1,128.249996086121,4|8,0:3|0:1,0:0:0:0:
61,344,74994,1,8,0:1:0:0:
147,379,75331,1,8,0:1:0:0:
239,353,75668,6,0,L|335:345,1,85.4999973907472,4|8,0:0|0:1,0:0:0:0:
364,261,76342,1,4,0:3:0:0:
470,348,76848,2,0,B|459:320|476:289|476:289|499:253|480:206,1,128.249996086121,4|8,0:3|0:1,0:0:0:0:
412,165,77691,2,0,P|438:140|488:129,1,85.4999973907472,4|8,0:3|0:1,0:0:0:0:
471,35,78365,6,0,L|372:14,1,85.4999973907472,4|8,0:3|0:1,0:0:0:0:
306,64,79039,1,4,0:3:0:0:
168,32,79545,2,0,B|149:49|152:73|152:73|155:103|155:103|154:140|123:156,1,128.249996086121,4|8,0:3|0:1,0:0:0:0:
49,190,80387,2,0,P|81:228|115:242,1,85.4999973907472,0|8,0:0|0:1,0:0:0:0:
195,286,81061,6,0,L|291:271,1,85.4999973907472,4|8,0:0|0:1,0:0:0:0:
342,202,81736,2,0,P|370:258|360:321,2,128.249996086121,4|4|8,0:3|0:3|0:1,0:0:0:0:
279,131,83084,2,0,P|283:87|325:45,1,85.4999973907472,4|8,0:3|0:1,0:0:0:0:
226,5,83758,6,0,L|134:15,1,85.4999973907472,4|8,0:3|0:1,0:0:0:0:
83,88,84432,1,4,0:3:0:0:
47,224,84938,2,0,B|41:273|41:273|55:301|55:301|57:353,1,128.249996086121,4|8,0:3|0:1,0:0:0:0:
149,364,85780,1,4,0:3:0:0:
235,329,86118,1,8,0:1:0:0:
320,368,86455,6,0,P|327:328|314:276,1,85.4999973907472,4|8,0:0|0:1,0:0:0:0:
356,198,87129,2,0,P|316:191|264:204,1,85.4999973907472,4|8,0:3|0:1,0:0:0:0:
186,239,87803,2,0,P|179:199|192:147,1,85.4999973907472,4|8,0:3|0:1,0:0:0:0:
150,69,88477,1,6,0:3:0:0:
150,69,88814,1,8,0:1:0:0:
234,27,89151,6,0,B|274:26|274:26|283:32|283:32|319:31,1,85.4999973907472,4|8,0:0|0:1,0:0:0:0:
358,115,89825,2,0,B|323:115|323:115|314:109|314:109|274:110,1,85.4999973907472,4|8,0:3|0:1,0:0:0:0:
231,194,90500,2,0,P|220:254|225:296,1,85.4999973907472,4|8,0:3|0:1,0:0:0:0:
249,368,91174,1,6,0:3:0:0:
249,368,91511,1,8,0:1:0:0:
155,376,91848,6,0,B|117:359|117:359|57:369,1,85.4999973907472,4|8,0:0|0:1,0:0:0:0:
70,272,92522,2,0,B|113:279|113:279|151:262,1,85.4999973907472,4|8,0:3|0:1,0:0:0:0:
195,179,93196,2,0,L|191:74,1,85.4999973907472,4|8,0:3|0:1,0:0:0:0:
268,37,93870,1,6,0:3:0:0:
268,37,94207,1,8,0:1:0:0:
356,68,94545,6,0,P|403:56|452:73,1,85.4999973907472,4|8,0:3|0:1,0:0:0:0:
485,145,95219,1,4,0:3:0:0:
428,273,95724,2,0,B|357:271|380:310|304:308,1,128.249996086121,4|8,0:0|0:1,0:0:0:0:
223,349,96567,2,0,L|133:345,1,85.4999973907472,8|8,0:1|0:1,0:0:0:0:
82,269,97241,5,4,0:0:0:0:
82,269,97578,2,0,B|73:176|123:201|116:102,1,170.999994781494,8|8,0:1|0:1,0:0:0:0:
72,21,98589,2,0,P|117:9|158:18,1,85.4999973907472,4|8,0:3|0:1,0:0:0:0:
225,78,99264,2,0,P|270:90|311:81,1,85.4999973907472,0|8,0:0|0:1,0:0:0:0:
381,24,99938,5,4,0:3:0:0:
381,24,100275,2,0,B|337:50|337:50|347:177,1,170.999994781494,8|8,0:1|0:1,0:0:0:0:
375,258,101286,2,0,P|336:265|290:247,1,85.4999973907472,4|8,0:3|0:1,0:0:0:0:
225,184,101960,2,0,P|186:177|140:195,1,85.4999973907472,0|8,0:0|0:1,0:0:0:0:
158,286,102634,5,4,0:0:0:0:
158,286,102971,2,0,B|178:285|197:269|197:269|219:284|257:282,1,85.4999973907472,8|4,0:1|0:3,0:0:0:0:
374,253,103814,2,0,P|363:294|366:336,1,85.4999973907472,4|4,0:0|0:3,0:0:0:0:
454,368,104488,1,4,0:0:0:0:
463,227,104994,1,12,0:1:0:0:
429,138,105331,6,0,B|422:92|422:92|386:68,1,85.4999973907472,4|8,0:3|0:1,0:0:0:0:
316,11,106005,2,0,B|274:29|274:29|233:11,1,85.4999973907472,4|8,0:3|0:1,0:0:0:0:
159,66,106679,2,0,B|126:87|126:87|119:133,1,85.4999973907472,4|8,0:3|0:1,0:0:0:0:
82,219,107354,1,8,0:1:0:0:
170,250,107691,1,8,0:3:0:0:
145,343,108028,5,4,0:0:0:0:
145,343,108365,2,0,B|166:351|202:343|202:343|246:363|246:363|280:346|323:361,1,170.999994781494,8|8,0:1|0:1,0:0:0:0:
402,364,109376,2,0,P|394:315|363:279,1,85.4999973907472,4|8,0:3|0:1,0:0:0:0:
364,196,110050,2,0,P|350:149|363:103,1,85.4999973907472,0|8,0:0|0:1,0:0:0:0:
444,79,110724,5,4,0:3:0:0:
444,79,111061,2,0,L|271:94,1,170.999994781494,8|8,0:1|0:1,0:0:0:0:
188,53,112073,2,0,L|92:48,1,85.4999973907472,4|8,0:3|0:1,0:0:0:0:
105,142,112747,2,0,L|190:137,1,85.4999973907472,0|8,0:0|0:1,0:0:0:0:
274,179,113421,5,4,0:0:0:0:
274,179,113758,2,0,P|255:242|251:270,1,85.4999973907472,8|4,0:1|0:3,0:0:0:0:
359,352,114601,2,0,P|423:336|449:326,1,85.4999973907472,4|4,0:0|0:3,0:0:0:0:
444,235,115275,1,4,0:0:0:0:
378,110,115780,1,12,0:1:0:0:
430,31,116118,6,0,P|378:16|339:26,1,85.4999973907472,4|8,0:3|0:1,0:0:0:0:
280,87,116792,2,0,P|228:102|189:92,1,85.4999973907472,4|8,0:3|0:1,0:0:0:0:
106,116,117466,2,0,P|108:67|137:21,2,85.4999973907472,4|8|8,0:3|0:1|0:1,0:0:0:0:
141,203,118477,1,8,0:1:0:0:
174,290,118814,6,0,P|142:295|79:272,2,85.4999973907472,4|8|8,0:0|0:1|0:3,0:0:0:0:
250,235,119825,1,8,0:1:0:0:
339,263,120162,2,0,P|343:221|319:166,1,85.4999973907472,4|8,0:3|0:1,0:0:0:0:
249,130,120837,2,0,P|245:88|269:33,1,85.4999973907472,8|8,0:3|0:1,0:0:0:0:
345,11,121511,6,0,L|435:2,1,85.4999973907472,4|8,0:3|0:1,0:0:0:0:
481,81,122185,2,0,L|395:89,1,85.4999973907472,8|8,0:3|0:1,0:0:0:0:
63,247,124207,6,0,P|57:199|78:161,1,85.4999973907472,4|8,0:0|0:1,0:0:0:0:
145,106,124882,1,4,0:3:0:0:
268,38,125387,2,0,B|342:41|313:81|391:92,1,128.249996086121,4|8,0:3|0:1,0:0:0:0:
466,49,126230,2,0,P|476:97|462:139,1,85.4999973907472,4|8,0:3|0:1,0:0:0:0:
429,217,126904,6,0,P|417:251|425:305,1,85.4999973907472,4|8,0:3|0:1,0:0:0:0:
483,370,127578,1,4,0:3:0:0:
344,343,128084,2,0,L|212:334,1,128.249996086121,4|8,0:3|0:1,0:0:0:0:
123,353,128927,2,0,P|122:320|155:261,1,85.4999973907472,0|8,0:0|0:1,0:0:0:0:
165,181,129601,6,0,L|157:95,1,85.4999973907472,4|8,0:0|0:1,0:0:0:0:
84,35,130275,2,0,B|141:-1|141:-1|208:18,2,128.249996086121,4|4|8,0:3|0:3|0:1,0:0:0:0:
59,125,131623,2,0,L|67:211,1,85.4999973907472,4|8,0:3|0:1,0:0:0:0:
43,301,132297,6,0,P|76:305|126:284,1,85.4999973907472,4|8,0:3|0:1,0:0:0:0:
195,225,132971,1,4,0:3:0:0:
267,103,133477,2,0,P|306:100|368:163,1,128.249996086121,4|8,0:3|0:1,0:0:0:0:
358,251,134320,1,8,0:1:0:0:
389,339,134657,1,0,0:0:0:0:
302,376,134994,6,0,P|240:365|204:358,1,85.4999973907472,4|8,0:0|0:1,0:0:0:0:
134,317,135668,1,4,0:3:0:0:
0,362,136174,2,0,B|-3:313|-3:313|13:287|13:287|24:224,1,128.249996086121,4|8,0:3|0:1,0:0:0:0:
61,153,137016,2,0,B|70:133|70:133|59:61,1,85.4999973907472,4|8,0:3|0:1,0:0:0:0:
126,3,137691,6,0,P|170:21|225:9,1,85.4999973907472,4|8,0:3|0:1,0:0:0:0:
284,70,138365,1,4,0:3:0:0:
412,13,138870,2,0,P|425:54|408:137,1,128.249996086121,4|8,0:3|0:1,0:0:0:0:
364,219,139713,2,0,P|351:254|349:309,1,85.4999973907472,0|8,0:0|0:1,0:0:0:0:
275,361,140387,6,0,L|182:345,1,85.4999973907472,4|8,0:0|0:1,0:0:0:0:
140,261,141061,2,0,B|98:310|98:310|100:374,2,128.249996086121,4|4|8,0:3|0:3|0:1,0:0:0:0:
208,196,142410,2,0,P|220:156|203:100,1,85.4999973907472,4|8,0:3|0:1,0:0:0:0:
175,27,143084,6,0,L|273:21,1,85.4999973907472,4|8,0:3|0:1,0:0:0:0:
343,66,143758,1,4,0:3:0:0:
482,44,144264,2,0,B|476:93|476:93|484:118|484:118|477:173,1,128.249996086121,4|8,0:3|0:1,0:0:0:0:
415,240,145106,1,4,0:3:0:0:
453,325,145443,1,8,0:1:0:0:
373,375,145780,6,0,L|286:370,1,85.4999973907472,4|8,0:0|0:1,0:0:0:0:
211,314,146455,2,0,L|125:318,1,85.4999973907472,4|8,0:3|0:1,0:0:0:0:
107,226,147129,2,0,L|192:221,1,85.4999973907472,4|8,0:3|0:1,0:0:0:0:
252,148,147803,1,6,0:3:0:0:
252,148,148140,1,8,0:1:0:0:
344,164,148477,6,0,P|383:179|440:165,1,85.4999973907472,4|8,0:0|0:1,0:0:0:0:
480,249,149151,2,0,P|447:275|431:331,1,85.4999973907472,4|8,0:3|0:1,0:0:0:0:
343,347,149825,2,0,L|239:339,1,85.4999973907472,4|8,0:3|0:1,0:0:0:0:
173,297,150500,1,6,0:3:0:0:
173,297,150837,1,8,0:1:0:0:
93,346,151174,6,0,P|79:308|87:255,1,85.4999973907472,4|8,0:0|0:1,0:0:0:0:
144,192,151848,2,0,P|158:154|150:101,1,85.4999973907472,4|8,0:3|0:1,0:0:0:0:
147,16,152522,2,0,L|241:25,1,85.4999973907472,4|8,0:3|0:1,0:0:0:0:
325,12,153196,1,6,0:3:0:0:
325,12,153533,1,8,0:1:0:0:
389,80,153870,6,0,B|375:119|375:119|391:169,1,85.4999973907472,4|8,0:3|0:1,0:0:0:0:
446,235,154545,2,0,B|460:274|460:274|444:324,1,85.4999973907472,4|8,0:3|0:1,0:0:0:0:
358,347,155219,2,0,L|260:342,1,85.4999973907472,4|8,0:3|0:1,0:0:0:0:
189,297,155893,1,8,0:1:0:0:
108,345,156230,1,8,0:3:0:0:
24,382,156567,5,4,0:0:0:0:
24,382,156904,2,0,P|16:338|105:253,1,170.999994781494,8|8,0:1|0:1,0:0:0:0:
186,228,157915,2,0,P|197:198|193:143,1,85.4999973907472,4|8,0:3|0:1,0:0:0:0:
285,123,158589,2,0,P|280:165|292:205,1,85.4999973907472,2|8,0:0|0:1,0:0:0:0:
347,288,159264,5,0,0:3:0:0:
347,288,159601,2,0,B|253:277|288:337|175:327,1,170.999994781494,8|8,0:1|0:1,0:0:0:0:
91,319,160612,2,0,L|80:223,1,85.4999973907472,4|8,0:3|0:1,0:0:0:0:
26,164,161286,1,2,0:0:0:0:
26,164,161623,2,0,L|37:68,1,85.4999973907472,2|4,0:0|0:3,0:0:0:0:
122,42,162297,6,0,B|194:45|194:45|221:27|221:27|299:31,1,170.999994781494,8|8,0:1|0:1,0:0:0:0:
379,9,163309,2,0,P|382:60|357:105,1,85.4999973907472,4|8,0:3|0:1,0:0:0:0:
303,158,163983,2,0,P|300:209|325:254,1,85.4999973907472,2|8,0:0|0:1,0:0:0:0:
398,280,164657,5,4,0:3:0:0:
398,280,164994,2,0,B|314:265|314:265|238:314,1,170.999994781494,8|8,0:1|0:1,0:0:0:0:
151,336,166005,1,4,0:3:0:0:
91,262,166342,2,0,P|97:244|98:165,1,85.4999973907472,8|2,0:1|0:0,0:0:0:0:
154,101,167016,1,2,0:0:0:0:
121,12,167354,6,0,P|151:3|210:22,1,85.4999973907472,4|2,0:0|0:0,0:0:0:0:
283,62,168028,1,8,0:1:0:0:
283,62,168365,2,0,L|270:239,1,170.999994781494,2|2,0:0|0:0,0:0:0:0:
310,317,169376,2,0,P|269:328|225:315,1,85.4999973907472,0|2,1:0|0:0,0:0:0:0:
143,357,170050,6,0,P|132:316|145:272,1,85.4999973907472,0|2,0:3|0:0,0:0:0:0:
75,209,170724,1,8,0:1:0:0:
75,209,171061,2,0,P|146:227|200:153,1,170.999994781494,2|2,0:0|0:0,0:0:0:0:
137,86,172073,2,0,P|167:68|221:68,1,85.4999973907472,0|2,1:0|0:0,0:0:0:0:
299,111,172747,5,6,0:3:0:0:
256,192,172915,12,2,175443,0:0:0:0:
150,78,176792,6,0,P|196:56|246:70,1,85.4999973907472,8|8,0:1|0:1,0:0:0:0:
320,47,177466,2,0,P|316:97|278:134,1,85.4999973907472,8|8,0:1|0:1,0:0:0:0:
232,194,178140,6,0,P|272:214|324:216,1,85.4999973907472,4|8,0:0|0:1,0:0:0:0:
403,194,178814,1,4,0:3:0:0:
312,301,179320,2,0,P|251:296|182:261,1,128.249996086121,4|8,0:3|0:1,0:0:0:0:
124,200,180162,2,0,P|118:152|107:102,1,85.4999973907472,4|8,0:3|0:1,0:0:0:0:
53,40,180837,6,0,P|109:20|151:31,1,85.4999973907472,4|8,0:3|0:1,0:0:0:0:
215,68,181511,1,4,0:3:0:0:
348,23,182016,2,0,B|324:91|363:79|341:152,1,128.249996086121,4|8,0:3|0:1,0:0:0:0:
277,218,182859,2,0,P|307:237|367:238,1,85.4999973907472,0|8,0:0|0:1,0:0:0:0:
367,334,183533,6,0,L|283:345,1,85.4999973907472,4|8,0:0|0:1,0:0:0:0:
210,284,184207,2,0,B|180:326|192:370|192:370|169:358|142:363,2,128.249996086121,4|4|8,0:3|0:3|0:1,0:0:0:0:
277,218,185556,2,0,P|238:193|186:194,1,85.4999973907472,4|8,0:3|0:1,0:0:0:0:
109,217,186230,6,0,P|106:175|126:128,1,85.4999973907472,4|8,0:3|0:1,0:0:0:0:
189,70,186904,1,4,0:3:0:0:
320,18,187410,2,0,B|384:1|384:1|450:29,1,128.249996086121,4|8,0:3|0:1,0:0:0:0:
478,111,188252,1,8,0:1:0:0:
426,189,188589,1,8,0:1:0:0:
451,279,188927,6,0,P|417:282|365:260,1,85.4999973907472,4|8,0:0|0:1,0:0:0:0:
315,186,189601,1,4,0:3:0:0:
288,47,190106,2,0,B|217:52|237:95|163:97,1,128.249996086121,4|8,0:3|0:1,0:0:0:0:
89,52,190949,2,0,P|78:103|88:142,1,85.4999973907472,4|8,0:3|0:1,0:0:0:0:
162,188,191623,6,0,P|173:239|163:278,1,85.4999973907472,4|8,0:3|0:1,0:0:0:0:
95,332,192297,1,4,0:3:0:0:
236,335,192803,2,0,B|281:322|281:322|313:344|313:344|366:352,1,128.249996086121,4|8,0:3|0:1,0:0:0:0:
446,372,193646,2,0,P|445:333|447:275,1,85.4999973907472,8|8,0:1|0:1,0:0:0:0:
501,210,194320,6,0,P|472:194|404:199,1,85.4999973907472,4|8,0:0|0:1,0:0:0:0:
331,222,194994,2,0,B|342:192|374:187|374:187|367:140|398:106,2,128.249996086121,4|4|8,0:3|0:3|0:1,0:0:0:0:
310,313,196342,2,0,P|273:296|242:252,1,85.4999973907472,4|8,0:3|0:1,0:0:0:0:
191,184,197016,6,0,P|165:150|126:132,1,85.4999973907472,4|8,0:3|0:1,0:0:0:0:
32,121,197691,1,4,0:3:0:0:
149,43,198196,2,0,B|180:55|211:29|211:29|248:17|285:47,1,128.249996086121,4|8,0:3|0:1,0:0:0:0:
341,97,199039,1,4,0:3:0:0:
423,51,199376,1,8,0:1:0:0:
481,124,199713,6,0,P|467:170|447:220,1,85.4999973907472,4|8,0:0|0:1,0:0:0:0:
385,269,200387,2,0,P|369:229|357:188,1,85.4999973907472,4|8,0:3|0:1,0:0:0:0:
265,168,201061,2,0,P|251:214|231:264,1,85.4999973907472,4|8,0:3|0:1,0:0:0:0:
157,299,201736,1,6,0:3:0:0:
157,299,202073,1,8,0:1:0:0:
66,323,202410,6,0,P|61:292|82:235,1,85.4999973907472,4|8,0:0|0:1,0:0:0:0:
50,151,203084,2,0,P|81:146|138:167,1,85.4999973907472,4|8,0:3|0:1,0:0:0:0:
217,123,203758,2,0,P|248:128|305:107,1,85.4999973907472,4|8,0:3|0:1,0:0:0:0:
358,39,204432,1,6,0:3:0:0:
358,39,204769,1,8,0:1:0:0:
450,55,205106,6,0,B|439:96|439:96|455:140,1,85.4999973907472,4|8,0:0|0:1,0:0:0:0:
490,222,205780,2,0,B|501:263|501:263|485:307,1,85.4999973907472,4|8,0:3|0:1,0:0:0:0:
408,356,206455,2,0,L|311:351,1,85.4999973907472,4|8,0:3|0:1,0:0:0:0:
235,315,207129,1,6,0:3:0:0:
235,315,207466,1,8,0:1:0:0:
143,338,207803,6,0,L|49:344,1,85.4999973907472,4|8,0:3|0:1,0:0:0:0:
27,254,208477,1,8,0:1:0:0:
78,175,208814,2,0,L|124:154,1,42.7499986953736,8|4,0:1|0:0,0:0:0:0:
