osu file format v14

[General]
AudioFilename: Eon.mp3
AudioLeadIn: 0
PreviewTime: 83244
Countdown: 1
SampleSet: Normal
StackLeniency: 0.7
Mode: 0
LetterboxInBreaks: 1
WidescreenStoryboard: 0

[Editor]
DistanceSpacing: 1.2
BeatDivisor: 4
GridSize: 8
TimelineZoom: 1

[Metadata]
Title:Eon
TitleUnicode:Eon
Artist:Celldweller
ArtistUnicode:Celldweller
Creator:Not_Zippy
Version:Eternity
Source:
Tags:Wish Upon A Blackstar Black Star marathon Industrial Hybrid Electronic Electronic-Rock
BeatmapID:538697
BeatmapSetID:231910

[Difficulty]
HPDrainRate:6
CircleSize:4
OverallDifficulty:8
ApproachRate:9.2
SliderMultiplier:1.7
SliderTickRate:1

[Events]
//Background and Video events
0,0,"blackstar.jpg",0,0
//Break Periods
2,1113,5343
2,6446,10676
//Storyboard Layer 0 (Background)
//Storyboard Layer 1 (Fail)
//Storyboard Layer 2 (Pass)
//Storyboard Layer 3 (Foreground)
//Storyboard Layer 4 (Overlay)
//Storyboard Sound Samples

[TimingPoints]
580,333.333333333333,4,1,1,70,1,0
20579,-133.333333333333,4,1,1,70,0,0
21246,-100,4,1,1,70,0,0
21913,-66.6666666666667,4,1,1,70,0,1
31246,-66.6666666666667,4,3,1,70,0,0
32246,-66.6666666666667,4,1,1,70,0,0
32579,-66.6666666666667,4,1,1,70,0,1
36746,-66.6666666666667,4,1,2,80,0,1
37913,333.333333333333,6,1,2,80,1,0
44579,-100,6,3,2,80,0,0
45912,-100,6,1,2,80,0,0
51579,-100,6,3,2,80,0,0
51912,-133.333333333333,6,1,2,80,0,0
53912,-100,6,1,2,80,0,0
63913,333.333333333333,5,1,2,80,1,0
66579,333.333333333333,5,1,2,80,1,0
69246,333.333333333333,4,1,2,80,1,0
71912,-133.333333333333,4,1,2,80,0,0
72578,333.333333333333,4,1,1,70,1,0
72578,-66.6666666666667,4,1,1,70,0,0
82577,-66.6666666666667,4,3,2,80,0,0
83244,-66.6666666666667,4,1,1,70,0,1
85911,-83.3333333333333,4,1,2,80,0,1
88577,-66.6666666666667,4,1,1,70,0,1
91244,-83.3333333333333,4,1,2,80,0,1
93911,-66.6666666666667,4,1,1,70,0,1
97911,-66.6666666666667,4,3,1,70,0,1
99246,333.333333333333,6,1,2,80,1,0
112245,-100,6,3,2,80,0,0
113245,-133.333333333333,6,1,2,80,0,0
115245,-100,6,1,2,80,0,0
125246,333.333333333333,5,1,2,80,1,0
127912,333.333333333333,5,1,2,80,1,0
130578,333.333333333333,4,1,2,80,1,0
133411,-133.333333333333,4,1,2,80,0,0
133911,333.333333333333,4,1,1,70,1,0
133911,-66.6666666666667,4,1,1,70,0,0
137911,-66.6666666666667,4,3,2,80,0,0
139244,-66.6666666666667,4,1,1,70,0,0
143911,-66.6666666666667,4,3,2,80,0,0
144577,-66.6666666666667,4,1,1,70,0,1
147244,-83.3333333333333,4,1,2,80,0,1
149910,-66.6666666666667,4,1,1,70,0,1
152577,-83.3333333333333,4,1,2,80,0,1
155244,-66.6666666666667,4,1,1,70,0,1
159244,-66.6666666666667,4,3,1,70,0,1
160577,333.333333333333,5,1,1,70,1,0
160577,-133.333333333333,5,1,2,80,0,0
163910,333.333333333333,6,1,1,70,1,0
163910,-133.333333333333,6,1,2,80,0,0
167910,333.333333333333,5,1,1,70,1,0
167910,-133.333333333333,5,1,2,80,0,0
171243,333.333333333333,4,1,3,80,1,0
191909,-133.333333333333,4,1,3,80,0,0
192576,-66.6666666666667,4,1,3,80,0,0
197409,-66.6666666666667,4,3,2,80,0,0
197909,-66.6666666666667,4,1,3,80,0,0
200576,-66.6666666666667,4,3,2,80,0,0
203242,-66.6666666666667,4,1,3,80,0,0
207409,-66.6666666666667,4,3,2,80,0,0
208576,-66.6666666666667,4,1,3,80,0,0
213909,-66.6666666666667,4,1,3,80,0,1
233909,-66.6666666666667,4,3,2,80,0,1
234242,-80,4,3,2,70,0,1
234576,-100,4,3,2,60,0,1
234909,-133.333333333333,4,3,2,50,0,1
235242,-133.333333333333,4,2,1,50,0,0
243576,-133.333333333333,4,3,1,55,0,0
245242,-133.333333333333,4,3,2,60,0,0
245909,-133.333333333333,4,3,1,60,0,0
253742,-100,4,1,2,60,0,0
253909,-133.333333333333,4,1,3,60,0,0
256576,-100,4,1,3,80,0,0
287242,-100,4,3,2,80,0,0
287576,-80,4,3,2,80,0,0
288576,-66.6666666666667,4,1,1,80,0,1
288659,-66.6666666666667,4,1,1,80,0,0
308576,-133.333333333333,4,3,2,80,0,0
309909,-66.6666666666667,4,1,1,70,0,1
312576,-83.3333333333333,4,1,2,80,0,1
315242,-66.6666666666667,4,1,1,70,0,1
317909,-83.3333333333333,4,1,2,80,0,1
320576,-66.6666666666667,4,1,1,70,0,1
323242,-66.6666666666667,4,1,1,70,0,0
323576,-66.6666666666667,4,1,1,70,0,1
324576,-66.6666666666667,4,1,1,70,0,0
324909,-66.6666666666667,4,1,1,70,0,1
325909,-66.6666666666667,4,1,1,70,0,0
326242,-66.6666666666667,4,1,1,70,0,1
327242,-83.3333333333333,4,1,1,70,0,1
327909,-66.6666666666667,4,1,1,70,0,1
331242,-100,4,1,1,70,0,0
335242,-133.333333333333,4,1,1,15,0,0
336409,-133.333333333333,4,1,1,15,0,0
336576,-133.333333333333,4,1,1,60,0,0

[Colours]
Combo1 : 150,0,0
Combo2 : 0,150,0
Combo3 : 0,0,150

[HitObjects]
360,80,580,5,0,0:0:0:0:
304,144,746,1,0,0:0:0:0:
277,63,913,1,0,0:0:0:0:
152,80,5913,5,0,0:0:0:0:
208,144,6079,1,0,0:0:0:0:
236,63,6246,1,0,0:0:0:0:
129,221,11246,5,8,0:0:0:0:
152,304,11413,1,0,0:0:0:0:
211,241,11579,2,0,L|222:154,1,85
383,163,11913,1,8,0:0:0:0:
359,80,12079,1,0,0:0:0:0:
301,143,12246,2,0,L|290:230,1,85
247,70,12579,5,0,0:0:0:0:
111,30,12746,1,0,0:0:0:0:
96,69,12829,1,0,0:0:0:0:
99,111,12912,1,8,0:0:0:0:
247,70,13079,1,0,0:0:0:0:
273,37,13162,1,0,0:0:0:0:
312,23,13246,1,0,0:0:0:0:
354,30,13329,1,0,0:0:0:0:
386,57,13412,1,8,0:0:0:0:
307,187,13579,1,0,0:0:0:0:
339,213,13662,1,0,0:0:0:0:
381,219,13745,1,0,0:0:0:0:
421,206,13829,1,0,0:0:0:0:
447,174,13912,5,8,0:0:0:0:
455,55,14079,1,0,0:0:0:0:
318,102,14246,2,0,L|307:187,1,85
65,210,14579,1,8,0:0:0:0:
57,329,14746,1,0,0:0:0:0:
194,282,14913,2,0,L|205:197,1,85
265,320,15246,6,0,P|211:302|187:267,1,85
180,111,15579,1,8,0:0:0:0:
289,44,15746,1,0,0:0:0:0:
290,86,15829,1,0,0:0:0:0:
284,128,15913,1,0,0:0:0:0:
273,169,15996,1,0,0:0:0:0:
255,207,16079,1,8,0:0:0:0:
379,241,16246,1,0,0:0:0:0:
396,202,16329,1,0,0:0:0:0:
408,161,16413,1,0,0:0:0:0:
413,119,16496,1,0,0:0:0:0:
412,77,16579,5,8,0:0:0:0:
289,44,16746,1,0,0:0:0:0:
323,167,16913,2,0,L|331:251,1,85
99,306,17246,1,8,0:0:0:0:
223,340,17413,1,0,0:0:0:0:
189,217,17579,2,0,L|181:133,1,85
345,86,17913,5,0,0:0:0:0:
434,188,18079,2,0,P|398:212|360:227,1,85,0|8,0:0|0:0,0:0:0:0:
189,217,18413,1,0,0:0:0:0:
147,219,18496,1,0,0:0:0:0:
105,227,18580,1,0,0:0:0:0:
67,246,18663,1,0,0:0:0:0:
39,277,18746,1,8,0:0:0:0:
47,106,18913,1,0,0:0:0:0:
74,74,18996,1,0,0:0:0:0:
112,55,19079,1,0,0:0:0:0:
155,48,19163,1,0,0:0:0:0:
197,46,19246,5,8,0:0:0:0:
345,86,19413,1,0,0:0:0:0:
223,155,19579,2,0,L|145:198,1,85
253,331,19913,1,8,0:0:0:0:
295,332,19996,1,0,0:0:0:0:
333,315,20079,1,0,0:0:0:0:
362,284,20162,1,0,0:0:0:0:
374,244,20246,2,0,L|445:198,1,85
360,55,20579,6,0,B|234:73,1,127.500004863739
109,103,21079,1,0,0:0:0:0:
144,252,21246,2,0,P|187:260|216:298,1,85,4|0,0:0|0:0,0:0:0:0:
106,180,21579,2,0,P|149:172|178:134,1,85
360,55,21913,5,4,0:0:0:0:
458,194,22079,1,0,0:0:0:0:
288,181,22246,2,0,P|232:212|194:288,1,127.500004863739
14,352,22579,1,8,0:0:0:0:
42,184,22745,1,0,0:0:0:0:
134,322,22912,2,0,P|183:348|266:323,1,127.500004863739
373,169,23246,6,0,P|419:88|466:45,2,127.500004863739
391,334,23746,1,0,0:0:0:0:
228,298,23913,2,0,B|172:265|172:265|141:208,1,127.500004863739,8|0,2:2|2:2,2:2:0:0:
188,50,24246,2,0,B|243:82|243:82|274:139,1,127.500004863739,0|0,2:2|2:2,2:2:0:0:
315,298,24579,5,0,0:0:0:0:
207,171,24746,1,0,0:0:0:0:
373,169,24913,2,0,P|398:93|377:53,1,127.500004863739
149,42,25246,1,8,0:0:0:0:
41,169,25413,1,0,0:0:0:0:
207,171,25580,2,0,P|232:247|211:287,1,127.500004863739
51,247,25912,5,0,0:0:0:0:
99,171,26079,1,0,0:0:0:0:
175,221,26246,1,0,0:0:0:0:
127,300,26413,1,0,0:0:0:0:
49,141,26579,1,12,0:0:0:0:
20,300,26746,1,0,0:0:0:0:
178,328,26913,1,0,0:0:0:0:
207,171,27079,1,0,0:0:0:0:
12,208,27246,5,4,0:0:0:0:
30,43,27413,1,0,0:0:0:0:
119,181,27579,2,0,P|158:243|215:261,1,127.500004863739
402,223,27913,1,4,0:0:0:0:
469,71,28080,1,0,0:0:0:0:
322,145,28246,2,0,P|257:179|198:166,1,127.500004863739
124,25,28579,6,0,P|163:32|244:74,1,127.500004863739
249,289,28913,1,0,0:0:0:0:
132,172,29079,1,0,0:0:0:0:
349,168,29246,2,0,P|388:175|469:217,1,127.500004863739
249,289,29579,2,0,P|210:282|129:240,1,127.500004863739
349,168,29913,5,0,0:0:0:0:
452,44,30079,1,0,0:0:0:0:
288,72,30246,2,0,L|160:48,1,127.500004863739
224,192,30579,2,0,L|352:168,1,127.500004863739,8|0,0:0|0:0,0:0:0:0:
288,312,30913,2,0,L|160:288,1,127.500004863739
153,97,31246,5,0,0:0:0:0:
187,64,31329,1,0,0:0:0:0:
231,46,31412,1,0,0:0:0:0:
279,46,31495,1,0,0:0:0:0:
324,62,31579,1,0,0:0:0:0:
359,287,31746,5,0,0:0:0:0:
324,319,31829,1,0,0:0:0:0:
280,337,31912,1,0,0:0:0:0:
232,337,31995,1,0,0:0:0:0:
187,321,32079,1,0,0:0:0:0:
111,158,32246,5,4,0:0:0:0:
283,94,32413,1,0,0:0:0:0:
405,232,32579,6,0,L|465:344,1,127.500004863739,4|0,0:0|0:0,0:0:0:0:
310,189,32913,2,0,L|250:301,1,127.500004863739
436,146,33246,2,0,L|496:258,1,127.500004863739,12|0,0:0|0:0,0:0:0:0:
283,94,33579,2,0,L|223:206,1,127.500004863739
376,64,33913,5,0,0:0:0:0:
152,80,34079,1,0,0:0:0:0:
352,128,34246,1,0,0:0:0:0:
176,144,34413,1,0,0:0:0:0:
320,192,34579,1,8,0:0:0:0:
192,216,34746,1,0,0:0:0:0:
288,256,34913,1,0,0:0:0:0:
216,288,35079,1,0,0:0:0:0:
256,64,35246,5,4,0:0:0:0:
370,233,35413,2,0,L|422:351,2,127.500004863739
348,29,35913,1,12,0:0:0:0:
258,212,36080,2,0,L|181:316,2,127.500004863739
423,90,36579,5,0,0:0:0:0:
218,79,36746,2,0,P|139:95|88:126,1,127.500004863739
25,308,37079,1,0,0:0:0:0:
183,178,37246,2,0,P|239:149|302:139,1,127.500004863739
504,165,37579,1,0,0:0:0:0:
340,287,37746,1,0,0:0:0:0:
141,334,37913,6,0,B|98:339|98:339|117:302|103:201,1,170,6|0,0:0|0:0,0:0:0:0:
70,64,38413,2,0,P|111:51|152:54,1,85
269,170,38746,1,0,0:0:0:0:
269,170,38829,1,0,0:0:0:0:
269,170,38913,2,0,P|233:209|197:237,1,85
344,244,39246,1,0,0:0:0:0:
352,224,39329,1,0,0:0:0:0:
358,204,39412,1,0,0:0:0:0:
363,183,39496,1,0,0:0:0:0:
365,161,39579,2,0,P|366:112|358:74,1,85
201,116,39913,6,0,B|164:96|164:96|167:157|148:223,1,170,2|0,0:0|0:0,0:0:0:0:
60,348,40413,2,0,P|116:369|142:366,1,85
236,247,40746,1,0,0:0:0:0:
237,224,40829,1,0,0:0:0:0:
238,200,40913,2,0,P|249:158|272:125,1,85
370,242,41246,1,0,0:0:0:0:
470,127,41413,1,0,0:0:0:0:
470,127,41496,1,0,0:0:0:0:
470,127,41579,2,0,P|473:79|470:41,1,85
289,69,41912,6,0,B|252:50|252:50|243:112|198:171,1,170,2|0,0:0|0:0,0:0:0:0:
333,133,42412,2,0,P|364:90|364:47,1,85
408,198,42746,1,0,0:0:0:0:
394,208,42829,1,0,0:0:0:0:
378,215,42912,2,0,P|312:237|295:240,1,85
201,166,43246,1,0,0:0:0:0:
165,314,43412,1,0,0:0:0:0:
165,314,43495,1,0,0:0:0:0:
165,314,43578,2,0,P|231:336|248:339,1,85
408,198,43912,6,0,B|433:164|433:164|372:165|311:133,1,170,2|0,0:0|0:0,0:0:0:0:
194,32,44412,2,0,P|152:47|116:74,1,85
62,214,44746,1,8,0:0:0:0:
67,224,44829,1,8,0:0:0:0:
73,234,44912,1,8,0:0:0:0:
145,305,45079,1,0,0:0:0:0:
246,296,45246,1,8,0:0:0:0:
254,288,45329,1,8,0:0:0:0:
263,280,45412,1,8,0:0:0:0:
238,161,45579,1,0,0:0:0:0:
255,60,45746,1,8,0:0:0:0:
374,155,45912,6,0,B|360:194|360:194|326:162|239:162,1,170,2|0,0:0|0:0,0:0:0:0:
88,186,46412,2,0,L|24:243,2,85,0|0|0,0:0|0:0|0:0,0:0:0:0:
206,88,46912,2,0,P|257:76|292:80,1,85
435,224,47246,2,0,P|384:236|349:232,1,85
265,48,47579,2,0,P|316:36|351:40,1,85
358,195,47912,6,0,B|364:238|364:238|316:216|239:230,1,170,2|0,0:0|0:0,0:0:0:0:
318,129,48412,2,0,P|402:131|434:204,1,170
325,269,48912,2,8,B|288:288|288:288|263:325,1,85
154,229,49246,2,8,L|239:229,1,85
321,115,49579,2,8,B|296:79|296:79|259:60,1,85
98,267,49912,6,0,B|55:270|55:270|77:223|73:146,1,170,2|0,0:0|0:0,0:0:0:0:
202,35,50412,1,0,0:0:0:0:
372,50,50579,2,0,P|354:87|309:121,1,85
394,269,50912,2,0,P|426:241|444:203,1,85
469,33,51246,5,0,0:0:0:0:
321,115,51412,1,0,0:0:0:0:
257,272,51579,1,0,0:0:0:0:
218,288,51662,1,0,0:0:0:0:
175,291,51746,1,0,0:0:0:0:
133,282,51829,1,0,0:0:0:0:
96,261,51912,6,0,B|33:216|31:154,1,127.500004863739
123,68,52412,2,0,B|186:113|188:175,1,127.500004863739
298,107,52912,2,0,B|354:163|302:219|302:219|354:275|298:331,1,255.000009727478
187,172,53746,1,0,0:0:0:0:
381,87,53912,6,0,B|422:81|422:81|390:127|396:207,1,170,2|0,0:0|0:0,0:0:0:0:
350,323,54412,2,0,L|416:383,2,85
210,260,54912,2,0,B|249:218|246:187|246:187|279:184|316:140,1,170
286,282,55412,2,0,P|244:335|208:342,1,85
114,284,55746,1,0,0:0:0:0:
223,148,55912,6,0,B|237:106|237:106|172:118|106:87,1,170,2|0,0:0|0:0,0:0:0:0:
59,206,56412,1,0,0:0:0:0:
185,220,56579,2,0,P|242:225|275:208,1,85
345,63,56912,2,0,P|288:58|255:75,1,85
333,226,57246,2,0,P|390:231|423:214,1,85
432,50,57579,1,0,0:0:0:0:
263,68,57746,1,0,0:0:0:0:
108,225,57912,6,0,B|122:266|122:266|159:234|240:229,1,170,2|0,0:0|0:0,0:0:0:0:
394,227,58412,2,0,L|439:301,2,85
349,81,58912,2,0,P|313:52|272:44,1,85
106,117,59246,1,0,0:0:0:0:
106,117,59412,2,0,B|106:145|106:145|87:182|89:198,1,85
163,353,59746,1,0,0:0:0:0:
222,123,59912,6,0,B|223:80|223:80|280:104|353:99,1,170,2|0,0:0|0:0,0:0:0:0:
251,15,60412,2,0,P|208:9|160:45,2,85
437,61,60912,1,4,0:0:0:0:
437,61,61246,2,0,B|464:157|427:158|427:158|452:253|408:296,1,255,4|0,0:0|0:0,0:0:0:0:
304,208,61912,5,0,0:0:0:0:
213,298,62079,2,0,P|183:259|173:226,1,85
300,225,62412,1,0,0:0:0:0:
209,315,62579,2,0,P|179:276|169:243,1,85
296,242,62912,2,0,P|339:233|397:130,1,170
302,42,63412,2,0,P|259:51|201:154,1,170
303,143,63913,5,4,0:0:0:0:
203,283,64579,1,0,0:0:0:0:
112,192,64746,2,0,P|155:167|188:153,1,85
277,243,65079,1,0,0:0:0:0:
367,333,65246,2,0,P|324:358|291:372,1,85
128,322,65579,1,0,0:0:0:0:
198,112,65913,1,0,0:0:0:0:
198,112,66079,1,0,0:0:0:0:
426,125,66413,1,0,0:0:0:0:
425,125,66496,1,0,0:0:0:0:
425,125,66579,5,4,0:0:0:0:
446,206,66745,2,0,P|449:262|358:259,1,170
231,260,67245,2,0,P|189:244|160:214,2,85
261,135,67745,2,0,P|303:151|332:181,2,85
162,216,68245,1,0,0:0:0:0:
214,332,68412,1,0,0:0:0:0:
340,311,68579,2,0,P|349:269|338:229,1,85
214,332,68912,2,0,P|173:342|132:333,1,85
85,129,69246,6,0,P|256:144|424:176,1,340,4|4,0:0|0:0,0:0:0:0:
335,261,70079,1,0,0:0:0:0:
244,171,70246,1,0,0:0:0:0:
366,137,70412,1,4,0:0:0:0:
335,261,70579,1,0,0:0:0:0:
195,223,70746,1,0,0:0:0:0:
297,121,70912,1,0,0:0:0:0:
413,207,71079,1,0,0:0:0:0:
276,309,71246,1,0,0:0:0:0:
122,190,71412,1,4,0:0:0:0:
122,190,71912,6,0,B|165:218|173:264|173:264|180:312|224:345,1,191.250007295609,4|0,0:0|0:0,0:0:0:0:
122,190,72578,5,0,0:0:0:0:
267,268,72744,1,0,0:0:0:0:
209,113,72911,2,0,P|282:90|330:108,1,127.500004863739
310,271,73244,1,8,0:0:0:0:
167,185,73411,1,0,0:0:0:0:
332,171,73578,2,0,P|400:224|411:261,1,127.500004863739
220,278,73911,6,0,P|162:294|89:292,1,127.500004863739
292,106,74244,2,0,P|350:90|423:92,1,127.500004863739,0|0,0:0|0:0,0:0:0:0:
159,265,74578,2,0,P|84:245|3:196,1,127.500004863739,8|0,0:0|0:0,0:0:0:0:
352,118,74911,2,0,P|427:138|508:187,1,127.500004863739
364,303,75244,5,0,0:0:0:0:
255,196,75411,1,0,0:0:0:0:
82,241,75578,2,0,P|94:179|137:133,1,127.500004863739
362,88,75911,1,8,0:0:0:0:
255,196,76078,1,0,0:0:0:0:
300,370,76244,2,0,P|238:357|192:314,1,127.500004863739
253,118,76578,6,0,P|189:110|122:134,1,127.500004863739
284,264,76911,2,0,P|348:272|415:248,1,127.500004863739
376,50,77244,1,12,0:0:0:0:
253,118,77411,1,0,0:0:0:0:
48,118,77578,1,0,0:0:0:0:
171,186,77745,1,0,0:0:0:0:
376,50,77911,5,4,0:0:0:0:
215,92,78078,2,0,P|155:52|112:-9,2,127.500004863739
325,216,78578,1,8,0:0:0:0:
166,266,78745,2,0,P|97:249|35:206,2,127.500004863739
325,216,79244,5,0,0:0:0:0:
415,125,79411,1,8,0:0:0:0:
324,34,79578,1,0,0:0:0:0:
234,123,79744,1,0,0:0:0:0:
241,314,79911,1,8,0:0:0:0:
114,314,80077,1,0,0:0:0:0:
257,186,80244,1,8,0:0:0:0:
131,186,80410,1,0,0:0:0:0:
257,26,80577,6,0,B|321:26|330:21|385:50,1,127.500004863739,8|0,0:0|0:0,0:0:0:0:
257,106,80911,2,0,B|193:106|184:101|129:130,1,127.500004863739,8|0,0:0|0:0,0:0:0:0:
257,186,81244,2,0,B|321:186|330:181|385:210,1,127.500004863739,8|0,0:0|0:0,0:0:0:0:
257,266,81577,2,0,B|193:266|184:261|129:290,1,127.500004863739,8|0,0:0|0:0,0:0:0:0:
257,346,81911,6,0,P|341:283|384:198,1,191.250007295609
380,207,82244,2,0,P|375:149|344:87,1,127.500004863739
176,30,82577,1,0,0:0:0:0:
148,45,82660,1,0,0:0:0:0:
128,70,82743,1,0,0:0:0:0:
121,100,82826,1,0,0:0:0:0:
126,132,82910,1,0,0:0:0:0:
143,158,82993,1,0,0:0:0:0:
170,175,83076,1,0,0:0:0:0:
201,181,83160,1,0,0:0:0:0:
231,173,83243,5,0,0:0:0:0:
375,89,83411,2,0,L|499:52,2,127.500004863739
196,105,83911,1,8,0:0:0:0:
117,264,84077,2,0,P|180:296|236:293,1,127.500004863739
409,246,84411,1,0,0:0:0:0:
292,111,84577,6,0,L|224:4,2,127.500004863739,8|0|0,0:0|0:0|0:0,0:0:0:0:
322,287,85077,2,0,P|260:301|198:290,1,127.500004863739,0|8,0:0|0:0,0:0:0:0:
25,337,85411,2,0,P|92:352|157:337,1,127.500004863739
376,228,85744,1,8,0:0:0:0:
195,152,85911,5,4,0:0:0:0:
149,341,86077,2,0,B|112:303|65:283|65:283|86:250|48:176,1,203.999993774414
187,60,86577,1,4,0:0:0:0:
3,51,86744,1,0,0:0:0:0:
141,171,86911,1,0,0:0:0:0:
286,59,87077,1,0,0:0:0:0:
104,87,87244,5,4,0:0:0:0:
93,291,87411,2,0,B|153:315|174:298|174:298|208:312|291:274,1,203.999993774414
411,137,87911,1,4,0:0:0:0:
396,319,88077,1,0,0:0:0:0:
446,241,88244,1,0,0:0:0:0:
284,329,88411,1,0,0:0:0:0:
112,179,88577,5,4,0:0:0:0:
270,95,88744,1,0,0:0:0:0:
373,242,88911,2,0,P|335:295|284:328,1,127.500004863739
151,208,89244,1,8,0:0:0:0:
223,44,89411,2,0,P|276:32|349:32,1,127.500004863739
504,120,89744,1,0,0:0:0:0:
373,242,89911,6,0,P|302:250|242:237,2,127.500004863739,8|0|0,0:0|0:0|0:0,0:0:0:0:
504,120,90411,2,0,P|459:75|393:48,1,127.500004863739,0|8,0:0|0:0,0:0:0:0:
223,44,90744,2,0,P|267:89|333:116,1,127.500004863739,0|8,0:0|0:0,0:0:0:0:
443,265,91077,1,0,0:0:0:0:
325,114,91244,5,0,0:0:0:0:
303,267,91411,2,0,P|233:306|131:240,1,203.999993774414,4|0,0:0|0:0,0:0:0:0:
116,96,91911,1,8,0:0:0:0:
265,62,92077,1,8,0:0:0:0:
398,137,92244,1,8,0:0:0:0:
266,216,92411,1,8,0:0:0:0:
156,321,92577,5,0,0:0:0:0:
328,343,92744,2,0,B|380:347|380:347|415:314|471:305|471:305|491:253,1,203.999993774414,4|0,0:0|0:0,0:0:0:0:
448,78,93244,1,8,0:0:0:0:
265,62,93411,1,8,0:0:0:0:
365,214,93577,1,8,0:0:0:0:
210,114,93744,1,8,0:0:0:0:
97,268,93911,5,4,0:0:0:0:
275,262,94077,2,0,L|372:347,2,127.500004863739
171,116,94577,1,8,0:0:0:0:
337,49,94744,2,0,P|397:78|440:119,1,127.500004863739
483,306,95077,2,0,P|422:276|379:235,1,127.500004863739
269,77,95411,6,0,P|208:106|165:147,1,127.500004863739,8|0,0:0|0:0,0:0:0:0:
123,334,95744,2,0,P|183:304|226:263,1,127.500004863739,0|8,0:0|0:0,0:0:0:0:
280,191,96077,1,0,0:0:0:0:
229,117,96244,1,8,0:0:0:0:
144,145,96411,1,0,0:0:0:0:
75,201,96577,6,0,P|29:248|16:314,1,127.500004863739,8|0,0:0|0:0,0:0:0:0:
125,149,96911,2,0,P|79:102|66:36,1,127.500004863739,8|0,0:0|0:0,0:0:0:0:
246,225,97244,2,0,P|200:272|187:338,1,127.500004863739,8|0,0:0|0:0,0:0:0:0:
437,133,97577,2,0,P|391:86|378:20,1,127.500004863739,8|0,0:0|0:0,0:0:0:0:
483,261,97911,5,8,0:0:0:0:
336,184,98077,1,0,0:0:0:0:
333,189,98161,1,0,0:0:0:0:
330,194,98244,1,0,0:0:0:0:
197,293,98411,1,0,0:0:0:0:
34,265,98577,1,0,0:0:0:0:
30,259,98661,1,0,0:0:0:0:
26,253,98744,1,0,0:0:0:0:
66,91,98911,1,0,0:0:0:0:
223,40,99077,1,8,0:0:0:0:
411,127,99246,6,0,B|453:120|453:120|432:162|441:246,1,170,2|0,0:0|0:0,0:0:0:0:
327,348,99746,1,0,0:0:0:0:
188,285,99912,2,2,B|164:277|172:269|172:269|148:261|156:253|156:253|132:245|140:237|140:237|116:229|124:221|124:221|100:213|108:205|108:205|84:197|92:189|92:189|68:181|76:173,1,170,0|0,0:0|0:0,0:0:0:0:
75,85,100412,1,8,0:0:0:0:
106,89,100495,1,0,0:0:0:0:
136,98,100578,1,0,0:0:0:0:
164,114,100661,1,0,0:0:0:0:
189,134,100745,1,0,0:0:0:0:
257,271,100912,1,8,0:0:0:0:
393,201,101079,1,8,0:0:0:0:
345,55,101246,6,0,B|346:97|346:97|312:62|226:61,1,170,2|0,0:0|0:0,0:0:0:0:
75,85,101746,1,0,0:0:0:0:
136,224,101912,2,0,B|136:208|136:208|152:208|152:208|152:192|152:192|168:192|168:192|168:176|168:176|184:176|184:176,1,85
207,149,102162,1,0,0:0:0:0:
248,159,102246,2,0,B|264:159|264:159|264:167|264:167|280:167|280:167|280:175|280:175|296:175|296:175|296:183|296:183|312:183|312:183|312:191|312:191|328:191|328:191|328:199|328:199|344:199|344:199|344:207|344:207|360:207|360:207|360:215|360:215|376:215|376:215|376:223|376:223|392:223|392:223|392:231|392:231|408:231|408:231|408:239|408:239|424:239|424:239|424:247|424:247|440:247|440:247|440:255|440:255|456:255|456:255|456:263|456:263|472:263|472:263|472:271|472:271|488:271|488:271,1,340,2|0,0:0|0:0,0:0:0:0:
329,317,103079,1,0,0:0:0:0:
320,319,103162,1,0,0:0:0:0:
311,317,103246,6,0,B|269:316|269:316|296:286|308:196,1,170,2|0,0:0|0:0,0:0:0:0:
392,67,103746,2,0,P|352:56|306:61,1,85
209,176,104079,1,0,0:0:0:0:
203,182,104162,1,0,0:0:0:0:
199,189,104246,2,2,B|178:204|178:204|189:231|189:231|166:247|166:247|180:272|180:272|159:288|159:288|178:313,2,170,0|0|0,0:0|0:0|0:0,0:0:0:0:
144,45,105079,1,0,0:0:0:0:
80,221,105246,6,0,B|64:260|64:260|111:257|180:315,1,170,2|0,0:0|0:0,0:0:0:0:
304,319,105746,1,0,0:0:0:0:
358,204,105912,1,0,0:0:0:0:
353,161,105996,1,0,0:0:0:0:
336,123,106079,1,0,0:0:0:0:
307,91,106162,1,0,0:0:0:0:
270,70,106246,1,0,0:0:0:0:
135,122,106412,1,0,0:0:0:0:
140,165,106495,1,0,0:0:0:0:
157,203,106578,1,0,0:0:0:0:
186,234,106662,1,0,0:0:0:0:
222,255,106745,1,0,0:0:0:0:
365,281,106912,2,0,L|403:264,1,42.5
348,329,107079,2,0,L|376:361,1,42.5
325,292,107245,6,0,B|285:307|285:307|324:252|291:193|256:180,1,170,2|0,0:0|0:0,0:0:0:0:
184,67,107745,1,0,0:0:0:0:
58,155,107912,2,0,P|100:208|130:228,1,85
235,111,108245,2,0,P|168:120|135:136,1,85
184,287,108579,2,0,P|208:224|211:188,1,85
58,155,108912,2,0,P|100:208|130:228,1,85
355,83,109245,6,0,B|396:95|396:95|352:126|343:206,1,170,2|0,0:0|0:0,0:0:0:0:
218,322,109745,1,0,0:0:0:0:
149,165,109912,1,0,0:0:0:0:
157,140,109995,1,0,0:0:0:0:
169,117,110079,1,0,0:0:0:0:
331,164,110245,2,0,P|301:200|271:226,1,85
219,61,110579,1,0,0:0:0:0:
242,50,110662,1,0,0:0:0:0:
267,48,110745,1,0,0:0:0:0:
267,218,110912,2,0,P|226:243|187:242,1,85
78,52,111245,6,0,B|121:52|121:52|63:117|55:162,1,170,2|0,0:0|0:0,0:0:0:0:
150,290,111745,1,0,0:0:0:0:
231,150,111912,2,0,P|282:143|319:163,1,85
313,318,112245,1,0,0:0:0:0:
270,323,112329,1,0,0:0:0:0:
228,320,112412,1,0,0:0:0:0:
187,309,112495,1,0,0:0:0:0:
150,290,112579,1,0,0:0:0:0:
174,130,112745,1,0,0:0:0:0:
211,149,112829,1,0,0:0:0:0:
252,160,112912,1,0,0:0:0:0:
294,163,112995,1,0,0:0:0:0:
336,157,113079,1,0,0:0:0:0:
444,31,113245,6,0,P|396:28|322:57,1,127.500004863739
68,31,113745,2,0,P|116:28|190:57,1,127.500004863739
358,192,114245,2,0,B|336:232|312:200|312:200|280:232|256:200|256:200|232:232|200:200|200:200|176:232|152:192,1,255.000009727478
256,48,115079,1,0,0:0:0:0:
62,108,115245,6,0,B|76:149|76:149|123:85|191:115,1,170,2|0,0:0|0:0,0:0:0:0:
335,176,115745,1,0,0:0:0:0:
219,277,115912,2,0,L|136:295,2,85,0|0|0,0:0|0:0|0:0,0:0:0:0:
367,316,116412,2,0,P|426:294|445:276,1,85
441,126,116745,2,0,B|412:77|371:91|371:91|353:55|294:79,1,170
105,220,117245,6,0,B|105:258|105:258|146:221|227:200,1,170,2|0,0:0|0:0,0:0:0:0:
97,85,117745,1,0,0:0:0:0:
37,244,117912,2,8,P|48:300|76:321,1,85
100,149,118245,2,8,P|89:93|61:72,1,85
188,199,118579,2,8,P|199:255|227:276,1,85
232,102,118912,1,8,0:0:0:0:
357,217,119079,1,8,0:0:0:0:
460,83,119245,6,0,B|450:42|450:42|423:83|353:122,1,170,2|0,0:0|0:0,0:0:0:0:
278,276,119745,1,0,0:0:0:0:
175,140,119912,2,0,P|145:176|135:213,1,85
238,348,120245,2,0,P|268:312|278:275,1,85
331,113,120579,1,0,0:0:0:0:
331,113,120745,2,0,B|307:109|307:109|283:128|245:134,1,85
80,123,121079,1,0,0:0:0:0:
56,291,121245,6,0,B|60:249|60:249|103:285|174:308,1,170,2|0,0:0|0:0,0:0:0:0:
73,169,121745,2,0,P|108:200|143:223,1,85
307,254,122079,1,0,0:0:0:0:
387,105,122245,1,4,0:0:0:0:
52,41,122579,2,0,B|117:62|117:62|104:117|118:188|192:217,1,255,4|0,0:0|0:0,0:0:0:0:
332,190,123245,5,0,0:0:0:0:
415,71,123412,2,0,P|378:52|334:45,1,85
332,190,123745,1,0,0:0:0:0:
394,320,123912,2,0,P|428:297|457:262,1,85
332,190,124245,1,0,0:0:0:0:
187,178,124412,2,0,P|189:220|205:260,1,85
332,190,124745,2,0,P|360:156|312:54,1,170
178,293,125246,5,4,0:0:0:0:
256,88,125912,1,0,0:0:0:0:
115,54,126079,2,0,P|107:106|121:138,1,85
256,88,126412,1,0,0:0:0:0:
397,54,126579,2,0,P|405:106|391:138,1,85
168,214,126912,1,4,0:0:0:0:
448,89,127246,1,0,0:0:0:0:
448,101,127329,1,0,0:0:0:0:
448,113,127412,1,4,0:0:0:0:
140,84,127746,1,0,0:0:0:0:
140,96,127829,1,0,0:0:0:0:
140,108,127912,5,4,0:0:0:0:
393,134,128245,1,0,0:0:0:0:
99,267,128578,2,0,P|84:224|89:185,1,85
192,246,128912,1,0,0:0:0:0:
296,190,129078,2,0,P|310:229|306:271,1,85
223,166,129412,1,0,0:0:0:0:
89,186,129578,2,0,P|103:133|100:103,1,85
272,39,129912,2,0,P|310:77|338:90,1,85
307,272,130245,2,0,P|254:286|229:303,1,85
223,166,130578,6,4,B|284:126|315:117|355:130|372:156|398:174|393:195|392:235|391:266|373:300|338:330,1,340
219,340,131411,1,0,0:0:0:0:
164,215,131578,1,0,0:0:0:0:
307,214,131744,1,4,0:0:0:0:
219,340,131911,1,0,0:0:0:0:
92,239,132078,1,0,0:0:0:0:
243,163,132244,1,0,0:0:0:0:
219,340,132411,1,0,0:0:0:0:
34,313,132578,1,0,0:0:0:0:
132,155,132744,1,0,0:0:0:0:
318,134,132911,1,0,0:0:0:0:
304,321,133078,1,0,0:0:0:0:
210,160,133244,1,0,0:0:0:0:
168,274,133411,6,0,B|197:228|238:263|275:208,1,127.500004863739,4|0,0:0|0:0,0:0:0:0:
99,219,133911,5,4,0:0:0:0:
99,219,134077,1,0,0:0:0:0:
232,99,134244,2,0,B|284:135|284:135|349:133,1,127.500004863739
452,278,134577,1,8,0:0:0:0:
452,278,134744,1,0,0:0:0:0:
464,99,134911,2,0,B|399:97|399:97|347:133,1,127.500004863739
298,304,135244,5,0,0:0:0:0:
216,328,135411,1,0,0:0:0:0:
214,80,135577,1,0,0:0:0:0:
296,56,135744,1,0,0:0:0:0:
185,257,135911,1,8,0:0:0:0:
101,236,136078,1,0,0:0:0:0:
327,127,136244,1,0,0:0:0:0:
411,148,136411,1,0,0:0:0:0:
235,173,136577,5,0,0:0:0:0:
90,91,136744,1,0,0:0:0:0:
31,246,136911,2,0,P|59:317|113:347,1,127.500004863739
256,287,137244,1,8,0:0:0:0:
300,127,137411,1,0,0:0:0:0:
452,195,137578,2,0,P|482:265|465:324,1,127.500004863739
256,287,137911,5,0,0:0:0:0:
224,283,137994,1,0,0:0:0:0:
193,275,138077,1,0,0:0:0:0:
163,263,138161,1,0,0:0:0:0:
136,247,138244,1,0,0:0:0:0:
300,127,138411,5,0,0:0:0:0:
315,162,138494,1,0,0:0:0:0:
325,199,138577,1,0,0:0:0:0:
330,238,138661,1,0,0:0:0:0:
330,275,138744,1,0,0:0:0:0:
153,172,138911,5,0,0:0:0:0:
180,136,138994,1,0,0:0:0:0:
211,104,139077,1,0,0:0:0:0:
247,76,139161,1,0,0:0:0:0:
285,54,139244,5,4,0:0:0:0:
438,49,139411,1,0,0:0:0:0:
379,189,139577,2,0,P|340:232|245:281,1,127.500004863739
129,245,139911,1,8,0:0:0:0:
47,115,140078,1,0,0:0:0:0:
199,96,140244,2,0,P|255:108|345:166,1,127.500004863739
458,249,140577,5,0,0:0:0:0:
447,350,140744,1,8,0:0:0:0:
320,223,140911,1,0,0:0:0:0:
309,324,141078,1,0,0:0:0:0:
177,204,141244,2,0,P|133:161|88:92,1,127.500004863739,8|0,0:0|0:0,0:0:0:0:
268,60,141577,2,0,P|312:103|357:172,1,127.500004863739,8|0,0:0|0:0,0:0:0:0:
362,337,141911,6,0,P|306:296|270:251,1,127.500004863739,8|0,0:0|0:0,0:0:0:0:
237,12,142244,2,0,P|265:76|274:132,1,127.500004863739,8|0,0:0|0:0,0:0:0:0:
183,356,142577,2,0,P|191:287|212:233,1,127.500004863739,8|0,0:0|0:0,0:0:0:0:
401,85,142911,2,0,P|360:141|315:176,1,127.500004863739,8|0,0:0|0:0,0:0:0:0:
97,282,143244,6,0,P|139:193|280:120,1,255.000009727478,8|0,0:0|0:0,0:0:0:0:
400,113,143744,1,0,0:0:0:0:
478,213,143911,1,0,0:0:0:0:
458,226,143994,1,0,0:0:0:0:
437,238,144077,1,0,0:0:0:0:
414,246,144161,1,0,0:0:0:0:
391,251,144244,1,0,0:0:0:0:
367,252,144327,1,0,0:0:0:0:
343,250,144411,1,0,0:0:0:0:
320,245,144494,1,0,0:0:0:0:
298,237,144577,5,4,0:0:0:0:
175,125,144744,1,0,0:0:0:0:
312,31,144911,2,0,P|355:96|369:145,1,127.500004863739
383,308,145244,1,8,0:0:0:0:
219,338,145411,2,0,P|213:278|240:205,1,127.500004863739
351,98,145744,1,0,0:0:0:0:
194,153,145911,6,0,L|71:122,2,127.500004863739,8|0|0,0:0|0:0|0:0,0:0:0:0:
354,195,146411,2,0,L|477:226,2,127.500004863739,0|8|0,0:0|0:0|0:0,0:0:0:0:
252,63,146911,1,0,0:0:0:0:
165,231,147077,1,8,0:0:0:0:
4,208,147244,5,4,0:0:0:0:
146,130,147411,2,0,P|228:152|272:255,1,203.999993774414
149,362,147911,1,0,0:0:0:0:
87,212,148077,1,0,0:0:0:0:
225,296,148244,1,0,0:0:0:0:
358,205,148410,1,0,0:0:0:0:
201,165,148577,5,4,0:0:0:0:
244,347,148744,2,0,B|310:269|299:237|299:237|293:222|290:206|288:189|298:175|309:159,1,203.999993774414
445,44,149244,1,0,0:0:0:0:
272,104,149410,1,0,0:0:0:0:
422,210,149577,1,0,0:0:0:0:
323,54,149744,1,0,0:0:0:0:
130,119,149910,5,4,0:0:0:0:
70,274,150077,1,0,0:0:0:0:
221,340,150244,2,0,P|282:317|319:268,1,127.500004863739
178,180,150577,1,8,0:0:0:0:
37,91,150744,2,0,P|75:41|134:19,1,127.500004863739
299,37,151077,1,0,0:0:0:0:
403,166,151244,6,0,L|482:267,2,127.500004863739,8|0|0,0:0|0:0|0:0,0:0:0:0:
299,37,151744,2,0,P|236:61|187:101,1,127.500004863739,0|8,0:0|0:0,0:0:0:0:
154,260,152077,2,0,P|217:236|266:196,1,127.500004863739
365,67,152410,1,0,0:0:0:0:
209,136,152577,5,0,0:0:0:0:
61,50,152744,2,0,B|31:86|57:137|0:139|0:139|14:179|6:227,1,203.999993774414,4|0,0:0|0:0,0:0:0:0:
168,204,153244,1,8,0:0:0:0:
323,251,153410,1,8,0:0:0:0:
256,101,153577,1,8,0:0:0:0:
397,183,153744,1,8,0:0:0:0:
377,11,153910,5,0,0:0:0:0:
272,196,154077,2,0,B|222:201|222:201|195:141|96:124,1,203.999993774414,4|0,0:0|0:0,0:0:0:0:
17,290,154577,1,8,0:0:0:0:
197,325,154744,1,8,0:0:0:0:
303,176,154910,1,8,0:0:0:0:
153,68,155077,1,8,0:0:0:0:
174,259,155244,5,4,0:0:0:0:
348,294,155410,1,0,0:0:0:0:
221,167,155577,2,0,P|158:154|99:188,1,127.500004863739
170,348,155910,1,8,0:0:0:0:
297,222,156077,2,0,B|329:167|329:167|383:131,1,127.500004863739
220,207,156410,2,0,B|188:262|188:262|134:298,1,127.500004863739
58,134,156744,6,0,B|90:79|90:79|144:43,1,127.500004863739,8|0,0:0|0:0,0:0:0:0:
317,2,157077,1,0,0:0:0:0:
178,114,157244,2,0,B|149:171|149:171|149:234,1,127.500004863739,8|0,0:0|0:0,0:0:0:0:
238,326,157577,1,8,0:0:0:0:
353,274,157744,1,0,0:0:0:0:
448,192,157910,6,0,P|475:246|488:314,1,127.500004863739,8|0,0:0|0:0,0:0:0:0:
353,212,158244,2,0,P|380:157|393:90,1,127.500004863739,8|0,0:0|0:0,0:0:0:0:
238,226,158577,2,0,P|265:280|278:348,1,127.500004863739,8|0,0:0|0:0,0:0:0:0:
129,153,158910,2,0,P|156:98|169:31,1,127.500004863739,8|0,0:0|0:0,0:0:0:0:
40,40,159244,5,8,0:0:0:0:
45,179,159410,1,0,0:0:0:0:
159,281,159577,1,0,0:0:0:0:
325,284,159744,1,0,0:0:0:0:
414,130,159910,5,0,0:0:0:0:
392,81,159993,1,0,0:0:0:0:
356,45,160076,1,0,0:0:0:0:
309,33,160160,1,0,0:0:0:0:
264,37,160244,1,0,0:0:0:0:
226,53,160327,1,0,0:0:0:0:
199,80,160410,1,0,0:0:0:0:
187,113,160494,1,0,0:0:0:0:
185,145,160577,6,0,P|147:150|94:230,1,127.500004863739,4|0,0:0|0:0,0:0:0:0:
172,224,161077,2,0,P|141:278|81:295,1,127.500004863739
54,131,161743,2,0,L|20:132,2,31.8750012159348,0|0|8,0:0|0:0|0:0,0:0:0:0:
210,74,162243,2,0,P|252:72|339:85,1,127.500004863739
379,155,162743,2,0,P|337:157|250:144,1,127.500004863739
98,82,163410,2,0,L|93:47,2,31.8750012159348,0|0|8,0:0|0:0|0:0,0:0:0:0:
102,248,163910,6,0,P|163:279|221:285,1,127.500004863739
182,211,164410,2,0,P|250:207|303:183,1,127.500004863739
397,47,165076,1,0,0:0:0:0:
381,50,165160,1,0,0:0:0:0:
365,54,165243,2,0,P|328:71|243:87,1,127.500004863739,8|0,0:0|0:0,0:0:0:0:
78,65,165910,2,0,P|114:106|179:136,1,127.500004863739
134,206,166410,2,0,P|75:181|32:134,1,127.500004863739
167,39,167076,2,0,L|166:70,2,31.8750012159348,0|0|8,0:0|0:0|0:0,0:0:0:0:
330,70,167576,1,0,0:0:0:0:
171,120,167910,5,0,0:0:0:0:
96,87,168076,2,0,P|102:162|140:196,1,127.500004863739
328,107,168743,5,0,0:0:0:0:
349,72,168826,1,0,0:0:0:0:
361,32,168910,2,0,P|286:38|252:76,1,127.500004863739,8|0,0:0|0:0,0:0:0:0:
341,264,169576,5,0,0:0:0:0:
416,297,169742,2,0,P|410:222|372:188,1,127.500004863739
184,277,170410,5,0,0:0:0:0:
166,314,170493,1,0,0:0:0:0:
151,352,170576,2,0,P|226:346|260:308,1,127.500004863739,8|0,0:0|0:0,0:0:0:0:
218,91,171243,5,4,0:0:0:0:
141,55,171409,1,0,0:0:0:0:
218,91,171576,2,0,P|272:81|389:100,1,170
457,141,172076,1,0,0:0:0:0:
380,177,172243,2,0,P|326:167|209:186,1,170
140,228,172743,5,0,0:0:0:0:
217,264,172910,2,0,P|271:254|388:273,1,170
456,314,173410,1,0,0:0:0:0:
379,350,173577,2,0,P|325:340|208:359,1,170
134,324,174076,6,0,B|128:307|128:307|136:286|136:286|131:273|131:273|149:252|149:252|156:226|193:193,1,127.5
82,123,174576,2,0,B|93:109|93:109|115:105|115:105|124:94|124:94|151:99|151:99|178:93|224:108,1,127.5
305,167,174993,2,0,L|315:215,2,42.5
345,122,175243,2,0,P|461:70|416:213,2,340
321,240,176743,5,0,0:0:0:0:
216,312,176909,2,0,B|155:284|155:284|129:258|129:258|65:230,1,170
59,104,177409,1,0,0:0:0:0:
174,160,177576,2,0,B|234:186|234:186|260:212|260:212|321:240,1,170
441,285,178076,5,0,0:0:0:0:
416,159,178243,2,0,P|357:98|270:90,1,170
302,213,178743,1,0,0:0:0:0:
327,338,178909,2,0,P|244:327|187:267,1,170
129,152,179409,6,0,L|45:137,2,85
254,129,179909,1,0,0:0:0:0:
317,103,180076,1,0,0:0:0:0:
368,58,180243,1,0,0:0:0:0:
422,17,180409,1,0,0:0:0:0:
484,98,180576,5,0,0:0:0:0:
396,149,180742,1,0,0:0:0:0:
298,179,180909,1,0,0:0:0:0:
195,185,181076,1,0,0:0:0:0:
103,286,181243,5,0,0:0:0:0:
237,269,181409,1,0,0:0:0:0:
365,224,181576,2,0,P|396:250|419:291,1,85
298,335,181909,5,8,0:0:0:0:
276,335,181993,1,0,0:0:0:0:
254,335,182076,1,0,0:0:0:0:
186,226,182243,1,0,0:0:0:0:
276,137,182409,1,8,0:0:0:0:
402,151,182576,1,0,0:0:0:0:
400,108,182659,1,0,0:0:0:0:
384,69,182743,1,0,0:0:0:0:
356,37,182826,1,0,0:0:0:0:
320,16,182909,1,0,0:0:0:0:
276,137,183076,1,0,0:0:0:0:
169,207,183243,5,8,0:0:0:0:
169,80,183409,2,0,L|188:41,2,42.5,0|0|0,0:0|0:0|0:0,0:0:0:0:
58,143,183743,1,8,0:0:0:0:
91,265,183909,2,0,L|132:279,1,42.5
177,233,184076,2,0,L|223:228,1,42.5
248,171,184243,1,0,0:0:0:0:
256,44,184409,1,0,0:0:0:0:
372,114,184576,5,8,0:0:0:0:
313,237,184743,1,0,0:0:0:0:
290,256,184826,1,0,0:0:0:0:
261,264,184909,1,0,0:0:0:0:
135,210,185076,1,8,0:0:0:0:
102,77,185243,2,0,L|129:45,1,42.5
181,81,185409,2,0,L|208:113,1,42.5
255,69,185576,1,0,0:0:0:0:
323,186,185742,1,0,0:0:0:0:
415,297,185909,5,8,0:0:0:0:
272,322,186076,2,0,L|242:351,2,42.5
323,186,186409,1,8,0:0:0:0:
281,47,186576,1,0,0:0:0:0:
241,62,186659,1,0,0:0:0:0:
207,88,186742,1,0,0:0:0:0:
181,121,186826,1,0,0:0:0:0:
165,160,186909,1,0,0:0:0:0:
170,305,187076,1,0,0:0:0:0:
249,175,187242,5,8,0:0:0:0:
241,328,187409,2,0,L|206:355,2,42.5,0|0|0,0:0|0:0|0:0,0:0:0:0:
289,164,187742,5,8,0:0:0:0:
280,333,187909,2,0,L|241:362,2,42.5,0|0|0,0:0|0:0|0:0,0:0:0:0:
330,157,188242,5,8,0:0:0:0:
320,340,188409,2,0,L|278:372,2,42.5,0|0|0,0:0|0:0|0:0,0:0:0:0:
371,148,188742,5,8,0:0:0:0:
360,346,188909,2,0,L|314:381,2,42.5,0|0|0,0:0|0:0|0:0,0:0:0:0:
411,137,189242,5,8,0:0:0:0:
399,351,189409,2,0,L|350:388,2,42.5,0|0|0,0:0|0:0|0:0,0:0:0:0:
298,246,189742,1,0,0:0:0:0:
235,116,189909,5,0,0:0:0:0:
299,93,190076,1,0,0:0:0:0:
357,58,190242,1,0,0:0:0:0:
415,23,190409,1,0,0:0:0:0:
451,100,190576,5,0,0:0:0:0:
392,161,190742,1,0,0:0:0:0:
352,236,190909,1,0,0:0:0:0:
320,315,191076,1,0,0:0:0:0:
219,323,191242,5,0,0:0:0:0:
186,226,191409,1,0,0:0:0:0:
217,128,191576,1,0,0:0:0:0:
291,58,191742,1,0,0:0:0:0:
392,48,191909,6,0,B|413:108|413:108|407:172|407:172|434:238,1,191.250007295609,4|4,0:0|0:0,0:0:0:0:
256,192,192576,1,0,0:0:0:0:
256,192,192659,12,0,194909,0:0:0:0:
156,251,195242,5,4,0:0:0:0:
175,125,195409,1,0,0:0:0:0:
272,42,195576,2,0,P|316:99|401:261,1,255.000009727478,0|8,0:0|0:0,0:0:0:0:
310,350,196076,1,0,0:0:0:0:
258,233,196242,2,0,P|203:118|129:14,1,255.000009727478
103,139,196742,5,8,0:0:0:0:
156,254,196909,2,0,P|223:301|396:291,1,255.000009727478
341,176,197409,1,0,0:0:0:0:
330,168,197492,1,0,0:0:0:0:
317,165,197576,1,0,0:0:0:0:
164,74,197742,1,0,0:0:0:0:
175,82,197825,1,0,0:0:0:0:
188,85,197909,1,0,0:0:0:0:
244,228,198076,1,0,0:0:0:0:
344,342,198242,2,0,P|420:294|475:145,1,255.000009727478,0|8,0:0|0:0,0:0:0:0:
355,48,198742,1,0,0:0:0:0:
302,191,198909,2,0,P|213:279|84:267,1,255.000009727478,0|4,0:0|0:0,0:0:0:0:
163,132,199409,5,0,0:0:0:0:
36,45,199576,2,0,B|94:97|94:97|87:110|85:129|84:143|86:156|90:169|100:184|111:195|124:203|136:208|149:210|163:211|175:209|184:206,1,255.000009727478,0|8,0:0|0:0,0:0:0:0:
330,165,200076,1,0,0:0:0:0:
355,41,200242,2,0,P|228:38|103:60,1,255.000009727478,0|8,0:0|0:0,0:0:0:0:
74,210,200742,1,8,0:0:0:0:
103,61,200909,1,4,0:0:0:0:
353,106,201242,5,8,0:0:0:0:
371,232,201409,1,8,0:0:0:0:
353,106,201576,1,4,0:0:0:0:
156,158,201909,5,8,0:0:0:0:
136,258,202076,1,8,0:0:0:0:
156,158,202242,1,4,0:0:0:0:
308,176,202576,5,0,0:0:0:0:
301,251,202742,2,0,P|270:110|376:208,1,382.500014591218,8|4,0:0|0:0,0:0:0:0:
293,336,203409,5,0,0:0:0:0:
141,315,203576,2,0,B|122:253|122:253|202:154|202:154|183:95,1,255.000009727478,0|8,0:0|0:0,0:0:0:0:
41,37,204076,1,0,0:0:0:0:
183,94,204242,2,0,P|284:32|397:88,1,255.000009727478,0|4,0:0|0:0,0:0:0:0:
379,240,204742,5,0,0:0:0:0:
225,234,204909,2,0,P|120:178|112:52,1,255.000009727478,0|4,0:0|0:0,0:0:0:0:
237,142,205409,1,0,0:0:0:0:
348,248,205576,2,0,P|459:210|455:90,1,255.000009727478
333,49,206076,5,0,0:0:0:0:
373,169,206242,2,0,B|265:231|265:231|114:215,1,255.000009727478,0|8,0:0|0:0,0:0:0:0:
14,175,206742,1,0,0:0:0:0:
61,293,206909,2,0,B|169:355|169:355|320:339,1,255.000009727478
420,303,207409,5,0,0:0:0:0:
429,282,207492,1,0,0:0:0:0:
435,260,207575,1,0,0:0:0:0:
436,237,207659,1,0,0:0:0:0:
432,215,207742,1,0,0:0:0:0:
425,193,207825,1,0,0:0:0:0:
414,174,207909,1,0,0:0:0:0:
399,157,207992,1,0,0:0:0:0:
381,142,208075,1,0,0:0:0:0:
361,132,208159,1,0,0:0:0:0:
339,125,208242,1,0,0:0:0:0:
316,123,208325,1,0,0:0:0:0:
294,125,208409,1,0,0:0:0:0:
272,131,208492,1,0,0:0:0:0:
252,141,208575,5,8,0:0:0:0:
196,264,208742,1,0,0:0:0:0:
176,247,208826,1,0,0:0:0:0:
158,228,208909,1,0,0:0:0:0:
252,141,209076,5,8,0:0:0:0:
375,197,209242,1,0,0:0:0:0:
358,217,209326,1,0,0:0:0:0:
339,235,209409,1,0,0:0:0:0:
252,141,209576,5,8,0:0:0:0:
308,18,209742,1,0,0:0:0:0:
328,35,209826,1,0,0:0:0:0:
346,54,209909,1,0,0:0:0:0:
252,141,210076,5,8,0:0:0:0:
129,85,210242,1,0,0:0:0:0:
146,65,210326,1,0,0:0:0:0:
165,47,210409,1,0,0:0:0:0:
252,141,210576,5,0,0:0:0:0:
254,280,210742,1,0,0:0:0:0:
396,337,210909,1,0,0:0:0:0:
390,170,211076,1,0,0:0:0:0:
245,68,211242,5,4,0:0:0:0:
173,122,211409,1,0,0:0:0:0:
191,222,211576,1,0,0:0:0:0:
297,265,211742,1,0,0:0:0:0:
233,154,211909,5,0,0:0:0:0:
329,52,212076,1,0,0:0:0:0:
314,203,212242,1,0,0:0:0:0:
152,164,212409,1,0,0:0:0:0:
330,155,212576,5,0,0:0:0:0:
168,53,212742,1,0,0:0:0:0:
247,241,212909,1,0,0:0:0:0:
330,40,213076,1,0,0:0:0:0:
376,264,213242,6,0,B|376:288|376:288|368:312|368:312|360:328|360:328|344:344|344:344|328:352|328:352|304:360|304:360|280:360|280:360|176:360,1,255.000009727478,4|0,0:0|0:0,0:0:0:0:
256,115,213909,6,0,P|177:127|133:153,1,127.500004863739
76,291,214242,2,0,P|163:322|326:324,1,255.000009727478
411,198,214742,2,0,P|289:160|162:164,1,255.000009727478
25,231,215242,2,0,P|112:262|275:264,1,255.000009727478
370,145,215742,1,0,0:0:0:0:
255,43,215909,2,0,L|286:169,1,127.500004863739,8|0,0:0|0:0,0:0:0:0:
161,76,216242,2,0,L|192:202,1,127.500004863739
79,305,216576,6,0,L|48:181,1,127.500004863739
161,76,216909,2,0,B|191:201|191:201|167:324,1,255.000009727478,0|8,0:0|0:0,0:0:0:0:
297,245,217409,2,0,B|321:121|321:121|397:17,1,255.000009727478
488,139,217909,2,0,B|463:262|463:262|388:367,1,255.000009727478
234,361,218409,1,0,0:0:0:0:
102,281,218576,1,8,0:0:0:0:
121,129,218742,2,0,P|195:72|452:178,1,382.500014591218,0|4,0:0|0:0,0:0:0:0:
430,310,219409,5,0,0:0:0:0:
313,211,219576,2,0,P|295:109|164:57,1,255.000009727478,0|8,0:0|0:0,0:0:0:0:
190,182,220076,2,0,P|270:90|391:109,1,255.000009727478
313,211,220576,2,0,P|232:302|111:283,1,255.000009727478
72,161,221076,1,0,0:0:0:0:
152,62,221242,1,8,0:0:0:0:
272,107,221409,1,0,0:0:0:0:
235,229,221576,1,0,0:0:0:0:
342,297,221742,1,0,0:0:0:0:
380,175,221909,6,0,P|407:110|416:54,1,127.500004863739
272,107,222242,2,0,B|308:211|308:211|318:235|357:274|411:262|444:229,1,255.000009727478,0|8,0:0|0:0,0:0:0:0:
339,327,222742,2,0,B|264:307|237:251|229:221|229:221|195:123,1,255.000009727478
77,89,223242,2,0,B|122:120|122:120|128:104|137:83|151:65|170:56|187:52|205:52|224:57|240:64|250:73|272:107,1,255.000009727478,8|0,0:0|0:0,0:0:0:0:
342,243,223742,1,0,0:0:0:0:
210,165,223909,2,0,P|157:203|135:261,1,127.500004863739,8|0,0:0|0:0,0:0:0:0:
98,110,224242,2,0,P|45:148|23:206,1,127.500004863739,8|0,0:0|0:0,0:0:0:0:
60,353,224576,6,0,P|113:315|135:257,1,127.500004863739
228,139,224909,2,0,B|184:109|174:85|174:85|153:156|150:196|134:263,1,255.000009727478,4|0,0:0|0:0,0:0:0:0:
98,110,225409,2,0,B|99:98|109:84|109:65|106:46|119:35|137:20|156:9|169:14|181:16|199:20|209:22|221:31|231:37|228:47|234:52|225:62|247:71|277:83,1,255.000009727478
351,215,225909,1,0,0:0:0:0:
137,252,226076,1,0,0:0:0:0:
137,252,226576,1,0,0:0:0:0:
232,58,226742,1,0,0:0:0:0:
232,58,227242,6,0,P|192:114|170:170,1,127.500004863739,4|0,0:0|0:0,0:0:0:0:
226,278,227576,2,0,P|263:131|338:54,1,255.000009727478,0|8,0:0|0:0,0:0:0:0:
474,116,228076,2,0,P|392:212|368:335,1,255.000009727478
215,344,228576,2,0,P|190:220|109:124,1,255.000009727478
207,6,229076,1,0,0:0:0:0:
329,96,229242,2,0,P|279:157|240:189,1,127.500004863739,8|0,0:0|0:0,0:0:0:0:
394,208,229576,2,0,P|344:269|305:301,1,127.500004863739,8|0,0:0|0:0,0:0:0:0:
153,287,229909,6,0,B|98:283|98:283|157:223|166:96,1,255.000009727478
298,22,230409,1,0,0:0:0:0:
399,136,230576,2,0,L|344:251,1,127.500004863739,8|0,0:0|0:0,0:0:0:0:
479,178,230909,2,0,L|424:293,1,127.500004863739,8|0,0:0|0:0,0:0:0:0:
270,297,231242,1,0,0:0:0:0:
92,102,231742,1,0,0:0:0:0:
92,102,231909,2,0,B|137:115|137:115|145:135|145:135|175:139|175:139|190:169|190:169|221:173|221:173|240:202|240:202|260:207|260:207|292:226,1,255.000009727478,8|0,0:0|0:0,0:0:0:0:
435,278,232409,1,0,0:0:0:0:
416,87,232576,6,0,P|350:79|274:92,1,127.500004863739,4|0,0:0|0:0,0:0:0:0:
103,262,233076,2,0,L|57:218,2,63.7500024318696,0|0|0,0:0|0:0|0:0,0:0:0:0:
207,334,233409,1,0,0:0:0:0:
153,84,233742,1,0,0:0:0:0:
279,100,233909,6,0,L|361:125,2,85.0000032424928
210,150,234242,2,0,L|142:169,2,70.8333333333333
242,229,234576,2,0,L|324:254,2,56.6666666666667,0|0|0,0:0|0:0|0:0,0:0:0:0:
173,278,234909,2,0,L|105:297,2,42.5000016212464
235,335,235242,5,0,0:0:0:0:
311,337,235409,1,0,0:0:0:0:
375,295,235576,1,0,0:0:0:0:
413,229,235742,1,0,0:0:0:0:
407,152,235909,2,0,P|385:111|361:93,1,63.7500024318696,4|0,0:0|0:0,0:0:0:0:
297,114,236242,2,0,P|319:155|343:173,1,63.7500024318696
314,241,236576,5,0,0:0:0:0:
239,257,236742,1,0,0:0:0:0:
163,241,236909,1,0,0:0:0:0:
100,197,237076,1,0,0:0:0:0:
68,127,237242,2,0,L|41:63,1,63.7500024318696,4|0,0:0|0:0,0:0:0:0:
105,22,237576,2,0,L|129:80,1,63.7500024318696
192,124,237909,5,0,0:0:0:0:
253,169,238076,1,0,0:0:0:0:
281,239,238242,1,0,0:0:0:0:
274,315,238409,1,0,0:0:0:0:
212,360,238576,2,0,P|168:374|141:368,1,63.7500024318696,4|0,0:0|0:0,0:0:0:0:
173,298,238909,2,0,L|135:245,1,63.7500024318696
91,183,239242,5,0,0:0:0:0:
97,106,239409,1,0,0:0:0:0:
150,50,239576,1,0,0:0:0:0:
225,44,239742,1,0,0:0:0:0:
288,87,239909,2,0,P|322:127|328:152,1,63.7500024318696,4|0,0:0|0:0,0:0:0:0:
250,153,240242,2,0,P|263:181|287:202,1,63.7500024318696
364,202,240576,5,0,0:0:0:0:
430,165,240742,1,0,0:0:0:0:
441,89,240909,1,0,0:0:0:0:
399,24,241076,1,0,0:0:0:0:
322,23,241242,2,0,P|332:64|352:85,1,63.7500024318696,4|0,0:0|0:0,0:0:0:0:
399,135,241576,2,0,P|373:153|342:158,1,63.7500024318696
270,130,241909,5,0,0:0:0:0:
202,93,242076,1,0,0:0:0:0:
126,83,242242,1,0,0:0:0:0:
53,108,242409,1,0,0:0:0:0:
27,180,242576,2,0,L|58:238,1,63.7500024318696,4|0,0:0|0:0,0:0:0:0:
110,291,242909,2,0,L|141:349,1,63.7500024318696
212,320,243242,5,0,0:0:0:0:
139,215,243409,1,0,0:0:0:0:
136,87,243576,1,0,0:0:0:0:
158,64,243659,1,0,0:0:0:0:
186,48,243742,1,0,0:0:0:0:
216,40,243826,1,0,0:0:0:0:
248,39,243909,1,8,0:0:0:0:
235,166,244076,2,0,P|239:196|255:227,1,63.7500024318696
330,167,244409,2,0,P|326:137|310:106,1,63.7500024318696,8|0,0:0|0:0,0:0:0:0:
248,39,244742,6,0,L|225:18,2,31.8750012159348,0|0|0,0:0|0:0|0:0,0:0:0:0:
356,56,245076,1,0,0:0:0:0:
406,165,245242,1,0,0:0:0:0:
277,128,245409,1,0,0:0:0:0:
176,235,245576,1,0,0:0:0:0:
143,80,245742,1,0,0:0:0:0:
267,226,245909,6,0,P|282:254|309:272,1,63.7500024318696
217,361,246242,2,0,P|201:332|175:315,1,63.7500024318696
47,315,246576,2,0,P|56:238|107:201,1,127.500004863739,2|2,0:0|0:0,0:0:0:0:
333,284,247242,5,0,0:0:0:0:
246,241,247409,1,0,0:0:0:0:
172,177,247576,1,0,0:0:0:0:
106,106,247742,1,0,0:0:0:0:
46,31,247909,2,0,P|10:95|22:151,1,127.500004863739,2|2,0:0|0:0,0:0:0:0:
215,309,248576,5,0,0:0:0:0:
307,288,248742,1,0,0:0:0:0:
387,235,248909,1,0,0:0:0:0:
427,148,249076,1,0,0:0:0:0:
411,54,249242,2,0,P|357:57|283:82,1,127.500004863739,2|2,0:0|0:0,0:0:0:0:
199,319,249909,5,0,0:0:0:0:
107,293,250075,1,0,0:0:0:0:
46,217,250242,1,0,0:0:0:0:
24,124,250409,1,0,0:0:0:0:
42,30,250576,2,0,P|81:51|163:46,1,127.500004863739,2|2,0:0|0:0,0:0:0:0:
402,131,251242,5,0,0:0:0:0:
380,38,251409,1,8,0:0:0:0:
304,97,251576,2,0,P|293:136|285:160,1,63.7500024318696
223,305,251909,1,10,0:0:0:0:
77,95,252242,1,0,0:0:0:0:
226,40,252409,1,8,0:0:0:0:
254,197,252576,5,0,0:0:0:0:
330,254,252742,2,0,L|393:238,1,63.7500024318696,8|0,0:0|0:0,0:0:0:0:
466,177,253076,1,0,0:0:0:0:
345,73,253242,1,10,0:0:0:0:
244,308,253576,1,0,0:0:0:0:
193,257,253742,22,2,P|154:224|123:215,1,85,2|0,0:0|0:0,0:0:0:0:
161,113,254242,6,0,P|200:109|224:120,1,63.7500024318696
351,113,254576,2,0,P|312:109|288:120,1,63.7500024318696
256,208,254909,1,0,0:0:0:0:
272,296,255076,2,0,P|309:280|336:242,1,63.7500024318696
386,136,255409,5,8,0:0:0:0:
457,72,255576,1,0,0:0:0:0:
468,166,255742,1,0,0:0:0:0:
377,274,255909,5,8,0:0:0:0:
290,315,256076,1,0,0:0:0:0:
195,306,256242,1,0,0:0:0:0:
143,226,256409,1,0,0:0:0:0:
130,56,256576,5,4,0:0:0:0:
234,90,256742,1,0,0:0:0:0:
344,92,256909,1,0,0:0:0:0:
448,54,257076,1,0,0:0:0:0:
431,222,257242,1,8,0:0:0:0:
99,143,257576,2,0,P|121:221|182:288,1,170
285,320,258076,5,0,0:0:0:0:
392,296,258242,1,0,0:0:0:0:
444,198,258409,1,0,0:0:0:0:
480,31,258576,1,8,0:0:0:0:
198,221,258909,2,0,P|303:191|356:153,1,170
420,69,259409,5,0,0:0:0:0:
309,71,259576,2,0,P|242:82|227:93,1,85
211,200,259909,2,0,P|278:189|293:178,1,85,8|0,0:0|0:0,0:0:0:0:
420,69,260242,1,0,0:0:0:0:
387,174,260409,2,0,P|349:216|325:236,1,85
230,287,260742,5,0,0:0:0:0:
123,257,260909,1,0,0:0:0:0:
79,155,261076,1,0,0:0:0:0:
195,32,261242,1,2,0:0:0:0:
305,142,261409,1,2,0:0:0:0:
305,32,261576,1,2,0:0:0:0:
194,142,261742,1,2,0:0:0:0:
77,17,261909,5,0,0:0:0:0:
77,128,262076,1,0,0:0:0:0:
155,206,262242,1,0,0:0:0:0:
257,249,262409,1,0,0:0:0:0:
378,126,262576,1,8,0:0:0:0:
116,343,262909,2,0,P|195:281|267:245,1,170
382,228,263409,1,0,0:0:0:0:
465,155,263576,1,0,0:0:0:0:
434,49,263742,1,0,0:0:0:0:
308,164,263909,1,8,0:0:0:0:
184,196,264076,2,0,L|121:260,1,85
171,356,264409,1,0,0:0:0:0:
264,296,264576,6,0,P|267:243|253:211,1,85
123,168,264909,1,0,0:0:0:0:
123,168,265076,2,0,P|155:125|189:110,1,85
335,96,265409,1,0,0:0:0:0:
335,96,265576,2,0,P|303:53|269:38,1,85
148,48,265909,6,0,L|123:40,4,21.25
251,122,266242,1,2,0:0:0:0:
303,176,266409,1,2,0:0:0:0:
250,230,266576,1,2,0:0:0:0:
196,176,266742,2,2,L|164:144,2,42.5
180,268,267076,1,2,0:0:0:0:
276,320,267242,5,0,0:0:0:0:
381,286,267409,1,0,0:0:0:0:
444,195,267576,1,0,0:0:0:0:
447,85,267742,1,0,0:0:0:0:
339,217,267909,2,0,P|296:237|253:215,1,85,8|0,0:0|0:0,0:0:0:0:
212,126,268242,2,0,L|220:83,2,42.5
108,168,268576,5,0,0:0:0:0:
143,272,268742,1,0,0:0:0:0:
248,306,268909,1,0,0:0:0:0:
347,263,269076,1,0,0:0:0:0:
228,141,269242,2,2,L|209:123,4,21.25,10|2|2|2|2,0:0|0:0|0:0|0:0|0:0,0:0:0:0:
399,131,269576,2,2,L|418:113,4,21.25
296,207,269909,5,0,0:0:0:0:
185,210,270076,2,0,P|198:261|231:299,1,85
311,343,270409,1,0,0:0:0:0:
418,210,270576,1,8,0:0:0:0:
332,140,270742,1,0,0:0:0:0:
230,94,270909,2,0,B|214:78|214:78|206:94|206:94|190:78|190:78|182:94|182:94|166:78|166:78|158:94|158:94|142:78|142:78|134:94|134:94|118:78|118:78,1,170
72,152,271409,6,2,L|48:152,2,21.25
75,207,271576,2,2,L|54:219,2,21.25
112,247,271742,2,2,L|100:267,2,21.25
172,185,271909,5,8,0:0:0:0:
479,41,272242,2,0,P|389:69|339:135,1,170
312,232,272742,5,0,0:0:0:0:
224,299,272909,2,0,P|177:285|146:258,1,85
39,256,273242,2,0,P|74:222|113:208,1,85,8|0,0:0|0:0,0:0:0:0:
169,117,273576,2,0,P|180:164|172:205,1,85
129,300,273909,5,0,0:0:0:0:
244,328,274076,1,0,0:0:0:0:
355,286,274242,1,0,0:0:0:0:
393,173,274409,1,0,0:0:0:0:
434,7,274576,2,0,B|472:41|472:41|494:69,1,85,8|0,0:0|0:0,0:0:0:0:
448,232,274909,1,0,0:0:0:0:
330,214,275076,1,0,0:0:0:0:
211,214,275242,5,0,0:0:0:0:
126,129,275409,2,0,L|36:129,2,85,0|0|0,0:0|0:0|0:0,0:0:0:0:
210,44,275909,1,8,0:0:0:0:
294,128,276076,2,0,P|214:133|197:136,1,85
144,232,276409,2,0,B|160:264|160:264|216:264|216:320|216:320|256:336,1,170
374,318,276909,5,2,0:0:0:0:
283,227,277076,1,2,0:0:0:0:
417,213,277242,1,2,0:0:0:0:
285,151,277409,1,2,0:0:0:0:
425,89,277576,1,2,0:0:0:0:
264,78,277742,1,2,0:0:0:0:
108,147,277909,5,0,0:0:0:0:
78,262,278076,2,0,L|75:352,2,85,0|0|0,0:0|0:0|0:0,0:0:0:0:
55,93,278576,2,0,P|111:71|143:80,1,85
285,151,278909,1,0,0:0:0:0:
239,223,279076,2,0,B|230:242|230:242|214:256|214:256|217:278|217:278|232:291|232:291|232:313|232:313|240:332|240:332|262:336|262:336|277:350|277:350|298:346|298:346|320:347|320:347|336:334|336:334|360:330,1,255
144,64,279909,2,2,L|120:40,2,21.25,10|2|2,0:0|0:0|0:0,0:0:0:0:
153,114,280076,2,2,L|119:114,2,21.25
189,148,280242,2,2,L|165:172,2,21.25
245,83,280409,5,0,0:0:0:0:
350,138,280576,1,0,0:0:0:0:
460,96,280742,2,0,L|485:15,2,85,0|0|0,0:0|0:0|0:0,0:0:0:0:
440,216,281242,1,8,0:0:0:0:
320,216,281409,2,0,B|304:216|304:216|280:224|280:224|256:240|256:240|232:264|232:264|216:288|216:288|208:312|208:312|208:328,1,170
97,279,281909,1,0,0:0:0:0:
86,160,282076,1,0,0:0:0:0:
200,123,282242,1,0,0:0:0:0:
269,219,282409,1,0,0:0:0:0:
410,48,282576,1,8,0:0:0:0:
93,355,282909,2,0,P|175:345|278:302,1,170
425,171,283576,6,0,P|357:176|332:186,1,85
254,297,283909,2,0,P|283:235|287:208,1,85
229,85,284242,2,0,P|267:141|288:158,1,85
409,53,284576,2,0,P|457:122|468:150,1,85
361,263,284909,2,0,P|409:194|420:166,1,85
306,47,285242,2,0,P|354:116|365:144,1,85,8|0,0:0|0:0,0:0:0:0:
239,266,285576,2,0,P|287:197|298:169,1,85
108,117,285909,6,0,L|38:104,2,56.6666666666667
152,125,286242,1,0,0:0:0:0:
87,336,286576,2,0,P|123:308|161:303,1,85
331,303,286909,2,0,P|295:275|257:270,1,85
88,247,287242,2,0,P|121:235|167:232,2,56.6666666666667
46,275,287576,1,0,0:0:0:0:
388,113,287909,2,0,L|398:183,2,70.8333333333333,8|0|0,0:0|0:0|0:0,0:0:0:0:
300,172,288242,2,0,L|310:242,2,70.8333333333333,8|0|0,0:0|0:0|0:0,0:0:0:0:
212,231,288576,6,0,P|107:235|23:123,1,255.000009727478,4|0,0:0|0:0,0:0:0:0:
171,85,289076,2,0,P|276:81|360:193,1,255.000009727478
212,231,289576,2,0,P|261:138|400:121,1,255.000009727478
292,231,290076,2,0,P|243:323|104:340,1,255.000009727478
211,231,290576,2,0,P|260:323|399:340,1,255.000009727478,8|0,0:0|0:0,0:0:0:0:
494,219,291076,1,0,0:0:0:0:
379,118,291242,6,0,B|259:164|259:164|192:273,1,255.000009727478,4|0,0:0|0:0,0:0:0:0:
326,347,291742,2,0,B|445:300|445:300|512:191,1,255.000009727478
460,47,292242,2,0,B|393:155|393:155|273:202,1,255.000009727478
120,191,292742,2,0,B|186:82|186:82|306:35,1,255.000009727478
416,140,293242,2,0,B|296:186|296:186|229:295,1,255.000009727478,8|0,0:0|0:0,0:0:0:0:
92,362,293742,1,0,0:0:0:0:
67,211,293909,6,0,L|240:14,1,255.000009727478,4|0,0:0|0:0,0:0:0:0:
198,168,294409,1,0,0:0:0:0:
309,273,294576,2,0,L|428:224,1,127.500004863739,8|0,0:0|0:0,0:0:0:0:
433,71,294909,2,0,L|189:171,1,255.000009727478,8|0,0:0|0:0,0:0:0:0:
75,261,295409,2,0,L|173:25,1,255.000009727478,8|0,0:0|0:0,0:0:0:0:
172,25,295826,1,0,0:0:0:0:
172,25,295909,1,0,0:0:0:0:
306,97,296076,1,0,0:0:0:0:
340,245,296242,1,0,0:0:0:0:
254,371,296409,1,0,0:0:0:0:
120,296,296576,6,0,P|105:248|118:168,1,127.500004863739,8|0,0:0|0:0,0:0:0:0:
231,228,296909,1,0,0:0:0:0:
304,27,297076,6,0,P|345:57|381:130,1,127.500004863739,8|0,0:0|0:0,0:0:0:0:
255,148,297409,1,0,0:0:0:0:
312,353,297576,6,0,P|262:352|190:315,1,127.500004863739,8|0,0:0|0:0,0:0:0:0:
282,226,297909,1,0,0:0:0:0:
115,94,298076,6,0,P|156:65|236:53,1,127.500004863739,12|0,0:0|0:0,0:0:0:0:
214,179,298409,1,0,0:0:0:0:
427,187,298576,5,10,0:0:0:0:
354,306,298742,1,2,0:0:0:0:
297,177,298909,1,2,0:0:0:0:
371,58,299076,1,2,0:0:0:0:
361,197,299242,6,0,P|310:262|147:292,1,255.000009727478,4|0,0:0|0:0,0:0:0:0:
30,368,299742,2,0,P|84:253|88:127,1,255.000009727478
207,78,300242,2,0,P|264:43|419:121,1,255.000009727478
299,167,300742,2,0,P|242:202|87:124,1,255.000009727478
207,78,301242,2,0,P|176:199|378:269,1,382.500014591218,8|0,0:0|0:0,0:0:0:0:
299,167,301909,6,0,B|196:243|196:243|69:256,1,255.000009727478,4|0,0:0|0:0,0:0:0:0:
179,320,302409,2,0,B|205:321|223:320|246:302|246:302|394:188,1,255.000009727478
476,94,302909,2,0,P|400:61|267:162,1,255.000009727478
253,277,303409,2,0,B|256:226|256:226|217:214|198:193|185:166|192:129|205:89|247:51,1,255.000009727478
305,169,303909,2,0,B|318:173|336:200|334:228|334:228|329:289|329:289|327:306|319:332|302:342|283:356|257:359|234:354,1,255.000009727478,8|4,0:0|0:0,0:0:0:0:
123,300,304409,1,0,0:0:0:0:
73,182,304576,6,0,B|185:178|185:178|190:146|220:118|245:111|279:120|298:133,1,255.000009727478,4|0,0:0|0:0,0:0:0:0:
439,202,305076,2,0,B|327:206|327:206|322:238|292:266|267:273|233:264|214:251,1,255.000009727478
165,102,305576,2,0,L|256:192,1,127.500004863739
290,315,305909,2,0,L|199:225,1,127.500004863739
283,129,306242,2,0,L|373:220,1,127.500004863739,4|0,0:0|0:0,0:0:0:0:
261,306,306576,1,10,0:0:0:0:
141,232,306742,1,2,0:0:0:0:
147,91,306909,1,2,0:0:0:0:
279,42,307076,1,2,0:0:0:0:
393,144,307242,6,0,B|341:144|341:144|279:144|265:163,1,127.500004863739,8|0,0:0|0:0,0:0:0:0:
103,230,307576,2,0,B|155:230|155:230|217:230|231:211,1,127.500004863739,8|0,0:0|0:0,0:0:0:0:
386,107,307909,2,0,B|334:107|334:107|272:107|258:126,1,127.500004863739,8|0,0:0|0:0,0:0:0:0:
116,266,308242,2,0,B|168:266|168:266|230:266|244:247,1,127.500004863739,8|0,0:0|0:0,0:0:0:0:
368,73,308576,1,8,0:0:0:0:
178,145,308742,1,0,0:0:0:0:
190,159,308826,1,0,0:0:0:0:
204,171,308909,1,0,0:0:0:0:
389,220,309076,1,0,0:0:0:0:
237,313,309242,2,0,L|216:342,2,31.8750012159348,0|0|0,0:0|0:0|0:0,0:0:0:0:
284,152,309576,1,0,0:0:0:0:
163,59,309742,1,0,0:0:0:0:
138,67,309826,1,0,0:0:0:0:
118,82,309909,5,4,0:0:0:0:
110,235,310076,1,0,0:0:0:0:
256,275,310242,2,0,B|299:223|299:223|318:154,1,127.500004863739
349,14,310576,1,8,0:0:0:0:
412,152,310742,2,0,P|396:209|353:261,1,127.500004863739
223,343,311076,1,0,0:0:0:0:
111,204,311242,6,0,L|14:115,2,127.500004863739
274,276,311742,2,0,P|354:286|396:270,1,127.500004863739,0|8,0:0|0:0,0:0:0:0:
448,97,312076,2,0,B|371:83|320:108|207:165,1,255.000009727478,0|8,0:0|0:0,0:0:0:0:
95,293,312576,5,4,0:0:0:0:
299,236,312742,2,0,B|342:249|362:246|374:247|374:247|354:294|303:357,1,203.999993774414
121,355,313242,1,0,0:0:0:0:
145,172,313409,1,0,0:0:0:0:
304,79,313576,1,0,0:0:0:0:
211,236,313742,1,0,0:0:0:0:
140,66,313909,5,4,0:0:0:0:
48,239,314076,2,0,B|79:265|127:272|132:265|132:265|128:281|128:281|134:273|180:278|220:302,1,203.999993774414
405,316,314576,1,0,0:0:0:0:
456,140,314742,1,0,0:0:0:0:
459,221,314909,1,0,0:0:0:0:
357,67,315076,1,0,0:0:0:0:
212,146,315242,5,4,0:0:0:0:
59,132,315409,1,0,0:0:0:0:
102,279,315576,2,0,P|161:242|204:200,1,127.500004863739
306,89,315909,1,8,0:0:0:0:
372,227,316076,2,0,B|415:272|415:272|469:316,2,127.500004863739
246,118,316576,6,0,P|179:97|123:118,1,127.500004863739
102,279,316909,1,0,0:0:0:0:
266,302,317076,2,0,P|307:248|311:172,1,127.500004863739,0|8,0:0|0:0,0:0:0:0:
292,26,317409,2,0,B|327:102|327:102|353:98|379:101|406:122|410:158|411:176|436:202|443:218,1,255.000009727478,0|0,0:0|0:0,0:0:0:0:
319,351,317909,5,0,0:0:0:0:
155,268,318076,2,0,B|241:247|199:192|156:137|255:117,1,203.999993774414,4|0,0:0|0:0,0:0:0:0:
266,302,318576,1,8,0:0:0:0:
117,194,318742,1,8,0:0:0:0:
186,23,318909,1,8,0:0:0:0:
44,140,319076,1,8,0:0:0:0:
210,215,319242,5,0,0:0:0:0:
384,156,319409,2,0,P|431:155|388:255,1,203.999993774414,4|0,0:0|0:0,0:0:0:0:
285,116,319909,1,8,0:0:0:0:
103,84,320076,1,8,0:0:0:0:
243,199,320242,1,8,0:0:0:0:
59,210,320409,1,8,0:0:0:0:
210,279,320576,5,0,0:0:0:0:
374,260,320742,2,0,L|492:313,2,127.500004863739
270,129,321242,1,8,0:0:0:0:
136,30,321409,2,0,P|91:91|76:144,1,127.500004863739
65,305,321742,2,0,P|110:244|125:191,1,127.500004863739
254,89,322076,6,0,P|209:150|194:203,1,127.500004863739,8|0,0:0|0:0,0:0:0:0:
183,364,322409,2,0,P|228:303|243:250,1,127.500004863739,0|8,0:0|0:0,0:0:0:0:
301,155,322742,1,0,0:0:0:0:
370,63,322909,1,8,0:0:0:0:
476,106,323076,2,0,P|452:159|407:213,1,127.500004863739
408,212,323576,6,0,P|347:245|286:249,1,127.500004863739,12|0,0:0|0:0,0:0:0:0:
111,259,323909,1,0,0:0:0:0:
194,100,324076,2,0,B|158:83|158:83|127:50|127:50|77:31,2,127.500004863739,8|0|0,0:0|0:0|0:0,0:0:0:0:
376,97,324576,1,0,0:0:0:0:
376,97,324909,6,0,P|337:172|309:213,1,127.500004863739,12|0,0:0|0:0,0:0:0:0:
186,334,325242,1,0,0:0:0:0:
59,317,325409,1,0,0:0:0:0:
60,285,325492,1,0,0:0:0:0:
71,255,325575,1,0,0:0:0:0:
92,231,325658,1,0,0:0:0:0:
120,216,325742,1,0,0:0:0:0:
310,173,325909,1,0,0:0:0:0:
310,173,326242,6,0,P|294:120|238:64,1,127.500004863739,12|0,0:0|0:0,0:0:0:0:
54,42,326576,1,0,0:0:0:0:
82,165,326742,2,0,P|146:168|161:171,1,63.7500024318696,8|0,0:0|0:0,0:0:0:0:
145,232,326909,2,0,P|209:235|224:238,1,63.7500024318696
208,299,327076,1,0,0:0:0:0:
407,351,327242,2,0,P|423:306|383:156,1,203.999993774414,0|8,0:0|0:0,0:0:0:0:
274,69,327742,6,0,L|256:22,2,50.9999984436036
235,193,328076,1,8,0:0:0:0:
238,224,328159,1,0,0:0:0:0:
248,254,328242,1,0,0:0:0:0:
266,281,328326,1,0,0:0:0:0:
289,302,328409,1,0,0:0:0:0:
407,351,328576,2,0,B|366:302|366:302|351:240,1,127.500004863739
314,52,328909,1,8,0:0:0:0:
372,135,329076,2,0,B|309:146|309:146|247:127,1,127.500004863739
66,66,329409,1,8,0:0:0:0:
130,247,329576,1,0,0:0:0:0:
147,220,329659,1,0,0:0:0:0:
173,201,329742,1,0,0:0:0:0:
203,192,329825,1,0,0:0:0:0:
235,193,329909,5,0,0:0:0:0:
392,302,330076,1,0,0:0:0:0:
358,114,330242,1,8,0:0:0:0:
444,207,330409,1,0,0:0:0:0:
431,209,330492,1,0,0:0:0:0:
418,210,330576,1,0,0:0:0:0:
253,114,330742,1,8,0:0:0:0:
190,297,330909,1,0,0:0:0:0:
139,290,330992,1,0,0:0:0:0:
100,256,331076,1,0,0:0:0:0:
80,208,331159,1,0,0:0:0:0:
85,157,331242,5,0,0:0:0:0:
140,81,331409,1,0,0:0:0:0:
206,147,331576,2,0,L|288:173,1,85
394,241,331909,1,8,0:0:0:0:
339,317,332076,1,0,0:0:0:0:
273,251,332242,2,0,L|191:225,1,85
71,267,332576,6,0,B|49:208|49:208|53:179,1,85
156,51,332909,1,8,0:0:0:0:
322,88,333076,1,0,0:0:0:0:
292,98,333159,1,0,0:0:0:0:
265,115,333242,1,0,0:0:0:0:
242,137,333326,1,0,0:0:0:0:
224,164,333409,1,8,0:0:0:0:
133,247,333576,1,0,0:0:0:0:
157,252,333659,1,0,0:0:0:0:
182,253,333742,1,0,0:0:0:0:
207,251,333826,1,0,0:0:0:0:
231,244,333909,5,8,0:0:0:0:
269,225,333992,1,0,0:0:0:0:
305,202,334076,1,0,0:0:0:0:
334,172,334159,1,0,0:0:0:0:
355,135,334242,2,0,L|428:177,1,85
231,244,334576,5,8,0:0:0:0:
193,225,334659,1,0,0:0:0:0:
157,202,334742,1,0,0:0:0:0:
128,172,334826,1,0,0:0:0:0:
107,135,334909,2,0,L|34:177,1,85
96,331,335242,6,0,P|176:336|256:264,1,191.250007295609
416,331,335909,2,0,P|336:336|256:264,1,191.250007295609
256,128,336576,5,4,0:0:0:0:
