osu file format v14

[General]
AudioFilename: audio.mp3
AudioLeadIn: 0
PreviewTime: 62307
Countdown: 0
SampleSet: Soft
StackLeniency: 0.3
Mode: 0
LetterboxInBreaks: 0
WidescreenStoryboard: 0

[Editor]
DistanceSpacing: 1.2
BeatDivisor: 4
GridSize: 32
TimelineZoom: 1.5

[Metadata]
Title:Eon (Cut Ver.)
TitleUnicode:Eon (Cut Ver.)
Artist:Celldweller
ArtistUnicode:Celldweller
Creator:Cris-
Version:Hazu's Hard
Source:osu!
Tags:Gero Hazu- Krisom Featured Artist FA Mappers' Guild MG Klayton Rock English
BeatmapID:2699870
BeatmapSetID:1244150

[Difficulty]
HPDrainRate:4.4
CircleSize:3.5
OverallDifficulty:5.5
ApproachRate:8
SliderMultiplier:1.5
SliderTickRate:1

[Events]
//Background and Video events
0,0,"bg.jpg",0,0
//Break Periods
2,591,4641
2,5924,9974
//Storyboard Layer 0 (Background)
//Storyboard Layer 1 (Fail)
//Storyboard Layer 2 (Pass)
//Storyboard Layer 3 (Foreground)
//Storyboard Layer 4 (Overlay)
//Storyboard Sound Samples

[TimingPoints]
58,333.333333333333,4,2,1,70,1,0
58,-200,4,2,1,70,0,0
557,-100,4,2,1,5,0,0
5391,-200,4,2,1,70,0,0
5891,-100,4,2,1,5,0,0
10724,-111.111111111111,4,2,1,70,0,0
12057,-111.111111111111,4,2,1,60,0,0
13391,-111.111111111111,4,2,1,70,0,0
14724,-111.111111111111,4,2,1,60,0,0
16057,-111.111111111111,4,2,1,70,0,0
17391,-111.111111111111,4,2,1,60,0,0
18724,-111.111111111111,4,2,1,70,0,0
20057,-111.111111111111,4,2,1,55,0,0
20724,-111.111111111111,4,2,1,65,0,0
20974,-111.111111111111,4,2,1,5,0,0
21057,-111.111111111111,4,2,1,65,0,0
21141,-111.111111111111,4,2,1,65,0,0
21307,-111.111111111111,4,2,1,5,0,0
21391,-100,4,2,1,80,0,1
26391,-100,4,2,1,80,0,0
26724,-100,4,2,1,80,0,1
31724,-100,4,2,1,80,0,0
32057,-100,4,2,1,80,0,1
37391,333.333333333333,6,2,1,70,1,0
37391,-100,4,2,1,70,0,0
37641,-100,4,2,1,5,0,0
37724,-100,4,2,1,70,0,0
37974,-100,4,2,1,70,0,0
39391,-100,4,2,1,70,0,0
39641,-100,4,2,1,5,0,0
39724,-100,4,2,1,70,0,0
39974,-100,4,2,1,70,0,0
41391,-100,4,2,1,70,0,0
41641,-100,4,2,1,5,0,0
41724,-100,4,2,1,70,0,0
42057,-100,4,2,1,70,0,0
43391,-100,4,2,1,70,0,0
43641,-100,4,2,1,5,0,0
43724,-100,4,2,1,70,0,0
43974,-100,4,2,1,70,0,0
44057,-100,4,2,1,50,0,0
45391,-100,4,2,1,70,0,0
45641,-100,4,2,1,5,0,0
45724,-100,4,2,1,70,0,0
46307,-100,4,2,1,5,0,0
46391,-100,4,2,1,70,0,0
47641,-100,4,2,1,5,0,0
47724,-100,4,2,1,70,0,0
49641,-100,4,2,1,5,0,0
49724,-100,4,2,1,70,0,0
50307,-100,4,2,1,5,0,0
50391,-100,4,2,1,70,0,0
51391,-250,4,2,1,70,0,0
52724,-500,4,2,1,60,0,0
52807,-100,4,2,1,60,0,0
52974,-100,4,2,1,5,0,0
53057,-100,4,2,1,60,0,0
53391,-100,4,2,1,70,0,0
53641,-100,4,2,1,5,0,0
53724,-100,4,2,1,70,0,0
54307,-100,4,2,1,5,0,0
54391,-100,4,2,1,70,0,0
55641,-100,4,2,1,5,0,0
55724,-100,4,2,1,70,0,0
55974,-100,4,2,1,5,0,0
56057,-100,4,2,1,70,0,0
56641,-100,4,2,1,5,0,0
56724,-100,4,2,1,70,0,0
56974,-100,4,2,1,5,0,0
57057,-100,4,2,1,70,0,0
57641,-100,4,2,1,5,0,0
57724,-100,4,2,1,70,0,0
58307,-100,4,2,1,5,0,0
58391,-100,4,2,1,70,0,0
59391,333.333333333333,4,2,1,70,1,0
59974,-100,4,2,1,5,0,0
60057,-100,4,2,1,70,0,0
60641,-100,4,2,1,5,0,0
60724,-100,4,2,1,70,0,0
61057,-100,4,2,1,5,0,0
61224,-100,4,2,1,60,0,0
63391,-100,4,2,1,70,0,0
63974,-100,4,2,1,5,0,0
64057,-100,4,2,1,60,0,0
65057,-100,4,2,1,70,0,0
66724,-100,4,2,1,60,0,0
68724,-100,4,2,1,70,0,0
69307,-100,4,2,1,5,0,0
69391,-100,4,2,1,70,0,0
71224,-100,4,2,1,5,0,0
71391,-100,4,2,1,70,0,0
71974,-100,4,2,1,5,0,0
72057,333.333333333333,4,2,1,70,1,0
72057,-100,4,2,1,80,0,1
77057,-100,4,2,1,80,0,0
77390,-100,4,2,1,80,0,1
81390,-100,4,2,1,70,0,0
81723,-100,4,2,1,50,0,0
82056,-100,4,2,1,60,0,0
82473,-100,4,2,1,70,0,0
82723,-100,4,2,1,80,0,1
85390,-100,4,2,1,80,0,0
88056,-100,4,2,1,80,0,1
90723,-100,4,2,1,80,0,0
93390,-100,4,2,1,80,0,1
96056,-100,4,2,1,80,0,0
96390,-100,4,2,1,80,0,1
97390,-100,4,2,1,80,0,0
97723,-100,4,2,1,80,0,1
98723,-100,4,2,1,80,0,0
99056,-100,4,2,1,80,0,1
100056,-100,4,2,1,80,0,0
101390,-100,4,2,1,80,0,1
102390,-100,4,2,1,80,0,0
102723,-100,4,2,1,80,0,1
104056,-111.111111111111,4,2,1,70,0,0
105389,-111.111111111111,4,2,1,60,0,0
106723,-111.111111111111,4,2,1,70,0,0
108056,-200,4,2,1,60,0,0
108390,-200,4,2,1,5,0,0
108723,-133.333333333333,4,2,1,60,0,0
109056,-133.333333333333,4,2,1,5,0,0
109389,-111.111111111111,4,2,1,70,0,0
109473,-111.111111111111,4,2,1,40,0,0
117723,-133.333333333333,4,2,1,50,0,0
119140,-133.333333333333,4,2,1,5,0,0
119223,-133.333333333333,4,2,1,50,0,0
119556,-133.333333333333,4,2,1,5,0,0
120056,-133.333333333333,4,2,1,60,0,0

[Colours]
Combo1 : 226,201,114
Combo2 : 166,122,239
Combo3 : 252,88,88
Combo4 : 104,121,242

[HitObjects]
112,95,58,6,0,P|120:128|124:145,2,37.5,6|0|2,3:2|3:0|3:2,0:0:0:0:
400,95,5391,6,0,P|392:128|388:145,2,37.5,6|0|2,3:2|3:0|3:2,0:0:0:0:
31,110,10724,6,0,P|70:104|116:97,1,67.4999979400635,10|0,0:0|3:0,0:0:0:0:
165,43,11057,1,2,3:2:0:0:
165,43,11224,1,0,3:0:0:0:
236,93,11391,2,0,P|228:129|216:181,1,67.4999979400635,10|0,0:0|3:0,0:0:0:0:
298,199,11724,2,0,P|306:235|318:287,1,67.4999979400635,2|0,3:2|3:0,0:0:0:0:
248,324,12057,6,0,P|214:316|171:307,2,67.4999979400635,6|0|10,3:0|1:2|0:0,0:0:0:0:
333,372,12557,1,10,3:0:0:0:
333,372,12641,1,0,1:2:0:0:
333,372,12724,2,0,P|367:373|402:355,1,67.4999979400635,0|10,1:2|0:0,0:0:0:0:
446,286,13057,2,0,B|458:254|458:254|439:208,1,67.4999979400635,0|0,1:2|1:0,0:0:0:0:
438,215,13307,1,0,1:2:0:0:
432,207,13391,6,0,P|394:215|347:222,1,67.4999979400635,10|0,0:0|3:0,0:0:0:0:
302,279,13724,1,2,3:2:0:0:
302,279,13890,1,0,3:0:0:0:
222,236,14057,2,0,P|215:206|198:140,1,67.4999979400635,10|0,0:0|3:0,0:0:0:0:
117,166,14391,2,0,P|125:198|132:231,1,67.4999979400635,2|0,3:2|3:0,0:0:0:0:
55,273,14724,6,0,P|47:240|39:207,2,67.4999979400635,6|0|10,3:0|1:2|0:0,0:0:0:0:
123,344,15224,1,0,1:2:0:0:
123,344,15307,1,0,1:2:0:0:
123,344,15390,2,0,B|158:348|158:348|196:335,1,67.4999979400635,0|10,1:2|0:0,0:0:0:0:
247,271,15724,2,0,B|277:260|277:260|312:264,1,67.4999979400635,0|0,1:2|1:2,0:0:0:0:
322,270,15974,1,0,1:2:0:0:
331,277,16057,6,0,P|341:319|352:365,1,67.4999979400635,10|0,0:0|3:0,0:0:0:0:
435,371,16391,1,2,3:2:0:0:
435,371,16557,1,0,3:0:0:0:
497,309,16724,2,0,P|487:267|476:221,1,67.4999979400635,10|0,0:0|3:0,0:0:0:0:
404,199,17057,2,0,P|394:157|383:111,1,67.4999979400635,2|0,3:2|3:0,0:0:0:0:
306,98,17391,6,0,P|296:56|285:10,2,67.4999979400635,6|0|10,3:0|1:2|0:0,0:0:0:0:
237,149,17891,1,10,3:2:0:0:
237,149,17974,1,0,1:2:0:0:
237,149,18057,2,0,P|198:142|150:131,1,67.4999979400635,0|10,1:2|0:0,0:0:0:0:
114,67,18391,2,0,P|75:60|27:49,1,67.4999979400635,0|0,1:2|1:2,0:0:0:0:
40,60,18641,1,0,1:2:0:0:
32,66,18724,6,0,P|42:110|50:150,1,67.4999979400635,10|0,0:0|3:0,0:0:0:0:
1,201,19057,2,0,P|11:245|19:285,1,67.4999979400635,2|0,3:2|3:0,0:0:0:0:
95,304,19391,2,0,L|108:254,3,33.7499989700318,10|0|0|0,0:0|3:0|3:0|3:0,0:0:0:0:
142,250,19724,1,2,3:2:0:0:
195,320,19891,1,0,3:0:0:0:
442,219,20724,6,0,P|416:118|364:188,1,236.249992790222,6|0,0:0|0:0,0:0:0:0:
362,181,21391,6,0,B|326:196|326:196|267:177,1,75,6|0,3:2|3:0,0:0:0:0:
228,120,21724,2,0,B|193:109|193:109|157:123,1,75,2|0,3:2|3:0,0:0:0:0:
98,191,22057,1,10,0:0:0:0:
20,150,22224,1,0,3:0:0:0:
20,150,22391,2,0,P|5:106|23:59,1,75,2|0,3:2|3:0,0:0:0:0:
82,24,22724,6,0,P|130:33|186:43,1,75,2|0,3:2|3:0,0:0:0:0:
240,8,23057,2,0,P|288:17|344:27,1,75,2|0,3:2|3:0,0:0:0:0:
402,3,23391,1,10,0:0:0:0:
466,72,23557,1,0,3:0:0:0:
466,72,23724,2,0,P|476:117|490:169,1,75,2|0,3:2|3:0,0:0:0:0:
415,203,24057,6,0,P|367:194|311:184,1,75,2|0,3:2|3:0,0:0:0:0:
285,117,24391,1,2,3:2:0:0:
214,172,24557,1,0,3:0:0:0:
214,172,24724,2,0,P|224:219|235:264,1,75,10|0,0:0|3:0,0:0:0:0:
143,269,25057,2,0,P|133:316|122:361,1,75,2|0,3:2|3:0,0:0:0:0:
211,375,25391,5,2,3:2:0:0:
288,328,25557,1,0,3:0:0:0:
288,328,25724,2,0,P|336:319|392:309,1,75,2|0,3:2|3:0,0:0:0:0:
446,252,26057,2,0,B|455:214|455:214|439:171,1,75,14|0,0:0|3:0,0:0:0:0:
388,114,26391,1,2,3:2:0:0:
388,114,26557,1,0,3:0:0:0:
285,139,26724,6,0,P|276:184|267:227,1,75,6|0,3:2|3:0,0:0:0:0:
186,247,27057,2,0,P|177:292|168:335,1,75,2|0,3:2|3:0,0:0:0:0:
87,355,27391,1,10,0:0:0:0:
12,301,27557,1,0,3:0:0:0:
12,301,27724,2,0,P|19:264|26:227,1,75,2|0,3:2|3:0,0:0:0:0:
94,168,28057,6,0,B|132:158|132:158|183:179,1,75,2|0,3:2|3:0,0:0:0:0:
203,253,28391,2,0,B|236:266|236:266|274:256,1,75,2|0,3:2|3:0,0:0:0:0:
331,187,28724,1,10,0:0:0:0:
400,252,28891,1,0,3:0:0:0:
400,252,29057,2,0,P|410:296|420:341,1,75,2|0,3:2|3:0,0:0:0:0:
507,328,29391,6,0,P|497:284|487:239,1,75,2|0,3:2|3:0,0:0:0:0:
499,165,29724,1,2,3:2:0:0:
420,126,29891,1,0,3:0:0:0:
420,126,30057,2,0,P|368:119|337:140,1,75,10|0,0:0|3:0,0:0:0:0:
290,197,30391,2,0,P|255:208|219:199,1,75,2|0,3:2|3:0,0:0:0:0:
146,146,30724,6,0,L|134:92,3,37.5,10|0|0|0,0:0|3:0|3:0|3:0,0:0:0:0:
96,90,31057,1,2,3:2:0:0:
39,161,31224,1,10,0:0:0:0:
39,161,31307,1,0,0:0:0:0:
39,161,31391,2,0,L|47:197,3,37.5,2|0|0|0,3:2|3:0|3:0|0:0,0:0:0:0:
26,238,31724,1,6,3:2:0:0:
192,169,32057,6,0,B|230:162|230:162|293:191,1,75,6|0,3:2|3:0,0:0:0:0:
316,250,32391,2,0,B|354:257|354:257|417:228,1,75,2|0,3:2|3:0,0:0:0:0:
457,163,32724,1,14,0:0:0:0:
457,163,32891,1,0,3:0:0:0:
506,237,33057,2,0,P|495:284|482:335,1,75,2|0,3:2|3:0,0:0:0:0:
413,360,33391,6,0,P|402:313|389:262,1,75,2|0,3:2|3:0,0:0:0:0:
322,233,33724,2,0,P|311:280|298:331,1,75,2|0,3:2|3:0,0:0:0:0:
218,367,34057,2,0,P|207:320|194:269,1,75,14|0,0:0|3:0,0:0:0:0:
127,240,34390,2,0,P|116:287|103:338,1,75,2|0,3:2|3:0,0:0:0:0:
29,356,34724,5,2,3:2:0:0:
4,274,34891,1,0,3:0:0:0:
4,274,35057,2,0,P|13:237|21:201,1,75,2|0,3:2|3:0,0:0:0:0:
104,135,35391,2,0,P|143:130|189:123,1,75,14|0,0:0|3:0,0:0:0:0:
252,175,35724,2,0,P|291:170|337:163,1,75,2|0,3:2|3:0,0:0:0:0:
407,204,36057,5,2,3:2:0:0:
480,151,36224,1,10,0:0:0:0:
427,77,36391,2,0,P|388:72|342:65,1,75,10|0,0:0|3:0,0:0:0:0:
275,19,36724,2,0,P|236:18|191:50,1,75,10|0,0:0|3:2,0:0:0:0:
155,110,37057,2,0,P|165:154|175:199,1,75,2|0,3:2|3:0,0:0:0:0:
66,196,37391,6,0,P|54:264|34:360,1,150,6|6,3:2|3:2,0:0:0:0:
120,378,37891,1,0,3:0:0:0:
191,324,38057,2,0,B|241:318|241:318|285:339|285:339|342:332,1,150,2|2,3:2|3:2,0:0:0:0:
417,370,38557,1,10,0:0:0:0:
470,297,38724,2,0,L|525:307,2,37.5,2|0|0,3:2|3:0|3:0,0:0:0:0:
415,225,39057,2,0,B|381:209|381:209|323:219,1,75,2|2,3:2|3:2,0:0:0:0:
276,296,39391,6,0,P|207:304|104:315,1,150,6|6,3:2|3:2,0:0:0:0:
58,370,39891,1,0,3:0:0:0:
6,296,40057,2,0,P|-13:220|35:154,1,150,2|2,3:2|3:2,0:0:0:0:
104,123,40557,1,10,0:0:0:0:
104,123,40724,2,0,P|146:131|193:139,1,75,2|0,3:2|3:0,0:0:0:0:
198,224,41057,2,0,P|156:216|109:208,1,75,2|2,3:2|3:2,0:0:0:0:
59,294,41391,6,0,P|136:307|237:324,1,150,6|6,3:2|3:2,0:0:0:0:
276,376,41891,1,0,3:0:0:0:
347,321,42057,2,0,B|378:289|378:289|348:174,1,150,2|2,3:2|3:2,0:0:0:0:
268,151,42557,1,10,0:0:0:0:
204,214,42724,2,0,L|213:266,2,37.5,2|0|0,3:2|3:0|3:0,0:0:0:0:
121,175,43058,2,0,P|114:139|103:80,1,75,2|2,3:2|3:2,0:0:0:0:
184,29,43391,6,0,P|261:42|362:59,1,150,6|6,3:2|3:2,0:0:0:0:
416,22,43891,1,0,3:0:0:0:
459,100,44057,1,4,3:0:0:0:
459,100,45391,6,0,P|493:157|459:248,1,150,6|6,3:2|3:2,0:0:0:0:
396,281,45891,1,0,3:0:0:0:
326,223,46057,2,0,B|275:219|275:219|228:251|228:251|167:248,2,150,2|2|2,3:2|3:2|3:2,0:0:0:0:
505,239,47057,1,2,3:2:0:0:
415,82,47391,6,0,P|345:56|282:102,1,150,6|6,3:2|3:2,0:0:0:0:
264,181,47891,1,0,3:0:0:0:
201,116,48057,2,0,P|130:107|41:94,1,150,2|2,3:2|3:2,0:0:0:0:
6,179,48557,2,0,P|18:229|29:276,1,75,4|2,3:2|3:2,0:0:0:0:
12,298,48807,1,0,3:0:0:0:
12,298,48891,1,0,3:0:0:0:
95,330,49057,2,0,P|145:332|179:306,1,75,2|0,3:2|3:0,0:0:0:0:
240,245,49391,6,0,B|314:236|306:317|394:293,1,150,6|6,3:2|3:2,0:0:0:0:
444,239,49891,1,0,3:0:0:0:
378,177,50057,2,0,P|368:106|357:22,2,150,2|2|10,3:2|3:2|0:0,0:0:0:0:
444,239,50891,1,10,0:0:0:0:
499,168,51057,1,0,1:2:0:0:
277,114,51391,6,0,P|193:102|34:78,1,240,14|4,0:0|3:0,0:0:0:0:
294,20,53057,1,4,3:0:0:0:
294,20,53224,1,0,3:0:0:0:
385,72,53391,6,0,P|396:137|414:239,1,150,6|6,3:2|3:2,0:0:0:0:
483,272,53891,1,0,3:0:0:0:
411,326,54057,2,0,P|344:339|279:292,2,150,2|2|2,3:2|3:2|3:2,0:0:0:0:
509,174,55057,1,2,3:2:0:0:
360,72,55391,6,0,P|293:63|198:48,1,150,6|6,3:2|3:2,0:0:0:0:
129,12,55891,1,0,3:0:0:0:
53,61,56057,2,0,P|29:121|75:209,1,150,2|2,3:2|3:2,0:0:0:0:
139,238,56557,2,0,B|178:244|178:244|216:229,1,75,4|2,3:2|3:2,0:0:0:0:
246,202,56807,1,0,3:0:0:0:
246,202,56891,1,0,3:0:0:0:
287,122,57057,2,0,B|320:108|320:108|359:114,1,75,2|0,3:2|3:0,0:0:0:0:
441,181,57391,6,0,P|426:249|402:346,1,150,6|6,3:2|3:2,0:0:0:0:
322,359,57891,1,0,3:0:0:0:
290,274,58057,2,0,P|223:261|158:308,1,150,2|2,3:2|3:2,0:0:0:0:
111,383,58557,1,0,3:0:0:0:
111,383,58724,1,2,3:2:0:0:
41,318,58891,2,0,B|14:286|14:286|34:147,1,150,10|10,0:0|0:0,0:0:0:0:
132,160,59391,6,0,P|126:197|117:261,1,75,14|0,0:0|3:2,0:0:0:0:
152,273,59641,1,0,3:2:0:0:
152,273,59724,1,0,3:2:0:0:
230,229,59891,2,0,P|235:191|252:61,1,150,10|4,0:0|3:0,0:0:0:0:
342,29,60391,5,14,0:0:0:0:
133,7,60724,2,0,P|123:81|106:201,1,187.5,14|0,0:0|0:0,0:0:0:0:
67,214,61224,1,4,3:0:0:0:
135,273,61391,2,0,P|183:265|225:257,2,75,10|0|2,0:0|3:0|0:0,0:0:0:0:
72,339,61891,2,0,P|24:331|-18:323,2,75,4|2|0,3:0|0:0|3:0,0:0:0:0:
154,375,62391,5,6,3:0:0:0:
226,321,62557,2,0,P|219:281|210:226,1,75,0|0,3:0|3:0,0:0:0:0:
293,202,62891,1,6,3:0:0:0:
293,202,63057,2,0,P|300:162|309:107,1,75,0|0,3:0|3:0,0:0:0:0:
229,54,63391,6,0,P|132:31|197:145,1,300,14|10,0:0|0:0,0:0:0:0:
278,125,64224,2,0,B|316:118|316:118|357:135,1,75,0|2,3:0|0:0,0:0:0:0:
412,196,64557,2,0,P|467:188|520:181,2,75,4|2|0,3:0|0:0|3:0,0:0:0:0:
349,280,65057,6,0,P|296:314|208:277,1,150,14|0,0:0|3:0,0:0:0:0:
191,258,65474,1,0,3:0:0:0:
191,258,65557,2,0,P|140:267|26:285,1,150,14|0,0:0|3:0,0:0:0:0:
4,365,66057,1,14,0:0:0:0:
4,365,66224,1,10,0:0:0:0:
59,193,66557,5,8,0:0:0:0:
59,193,66724,2,0,P|133:181|168:175,1,75,14|0,0:0|3:0,0:0:0:0:
200,121,67057,1,2,0:0:0:0:
273,173,67224,2,0,P|263:225|254:270,2,75,4|2|2,3:0|0:0|3:2,0:0:0:0:
352,127,67724,5,6,3:0:0:0:
352,127,67891,1,2,3:2:0:0:
417,190,68057,2,0,P|407:242|398:287,1,75,2|2,3:2|3:2,0:0:0:0:
486,298,68391,2,0,P|493:261|500:224,1,75,2|0,0:0|3:0,0:0:0:0:
479,121,68724,6,0,P|406:69|267:172,1,262.5,14|0,0:0|0:0,0:0:0:0:
286,189,69391,1,14,0:0:0:0:
218,247,69557,2,0,P|174:239|119:230,1,75,0|0,3:0|3:0,0:0:0:0:
76,152,69891,1,10,0:0:0:0:
76,152,70057,2,0,P|120:144|182:133,1,75,0|2,3:0|3:2,0:0:0:0:
208,69,70391,1,10,0:0:0:0:
283,117,70557,1,10,0:0:0:0:
346,52,70724,1,10,3:2:0:0:
440,97,70891,6,0,P|426:177|408:268,1,150,14|0,0:0|0:0,0:0:0:0:
339,320,71391,2,0,B|286:353|193:305|257:271|169:216|106:252,1,262.5,14|0,0:0|0:0,0:0:0:0:
109,250,72057,5,6,3:2:0:0:
63,327,72224,1,0,3:0:0:0:
1,261,72391,2,0,P|-7:219|13:174,1,75,2|0,3:2|3:0,0:0:0:0:
77,138,72724,2,0,P|126:131|175:123,1,75,10|0,0:0|3:0,0:0:0:0:
225,178,73057,2,0,P|274:171|323:163,1,75,2|0,3:2|3:0,0:0:0:0:
380,207,73391,5,2,3:2:0:0:
446,146,73557,1,0,3:0:0:0:
446,146,73724,2,0,B|453:103|453:103|432:63,1,75,2|0,3:2|3:0,0:0:0:0:
353,47,74057,2,0,B|312:62|312:62|288:100,1,75,10|0,0:0|3:0,0:0:0:0:
314,178,74391,2,0,B|347:205|347:205|392:207,1,75,2|0,3:2|3:0,0:0:0:0:
446,146,74724,5,2,3:2:0:0:
507,219,74891,1,0,3:0:0:0:
507,219,75057,2,0,P|515:259|498:304,1,75,2|0,3:2|3:0,0:0:0:0:
437,350,75391,1,10,0:0:0:0:
369,290,75557,1,0,3:0:0:0:
369,290,75724,2,0,P|320:283|271:275,1,75,2|0,3:2|3:0,0:0:0:0:
218,327,76057,6,0,P|169:320|120:312,1,75,2|0,3:2|3:0,0:0:0:0:
75,256,76391,2,0,P|69:214|94:168,1,75,2|0,3:2|3:0,0:0:0:0:
171,132,76724,2,0,P|208:137|245:142,1,75,14|0,0:0|3:0,0:0:0:0:
314,209,77057,1,2,3:2:0:0:
314,209,77224,1,0,3:0:0:0:
395,142,77391,6,0,B|404:103|404:103|391:58,1,75,6|0,3:2|3:0,0:0:0:0:
321,15,77724,1,2,3:2:0:0:
245,61,77891,1,0,3:0:0:0:
245,61,78057,2,0,P|207:55|170:50,1,75,10|0,0:0|3:0,0:0:0:0:
97,103,78391,2,0,P|105:147|115:199,1,75,2|0,3:2|3:0,0:0:0:0:
32,221,78724,6,0,P|24:265|14:317,1,75,2|0,3:2|3:0,0:0:0:0:
82,358,79057,1,2,3:2:0:0:
162,316,79224,1,0,3:0:0:0:
162,316,79391,2,0,P|199:310|246:303,1,75,10|0,0:0|3:0,0:0:0:0:
273,222,79724,2,0,P|235:216|189:209,1,75,2|0,3:2|3:0,0:0:0:0:
123,162,80056,5,10,0:0:0:0:
103,73,80223,1,2,3:2:0:0:
182,29,80391,2,0,P|228:25|275:54,1,75,10|2,0:0|3:2,0:0:0:0:
324,92,80724,2,0,P|332:136|342:188,1,75,10|2,0:0|3:2,0:0:0:0:
422,195,81056,1,10,0:0:0:0:
448,281,81223,1,2,3:2:0:0:
389,350,81391,6,0,P|323:338|250:327,1,112.5,10|8,0:0|0:0,0:0:0:0:
278,330,81724,1,10,0:0:0:0:
202,379,81891,1,2,3:2:0:0:
120,341,82057,2,0,L|112:293,3,37.5,2|0|0|0,3:2|3:0|3:0|3:0,0:0:0:0:
73,283,82391,2,0,L|65:235,3,37.5,0|2|2|2,3:0|3:2|3:2|3:2,0:0:0:0:
38,211,82724,6,0,P|27:166|40:127,1,75,6|0,3:2|3:0,0:0:0:0:
113,95,83057,1,2,3:2:0:0:
195,143,83224,1,0,3:0:0:0:
195,143,83391,2,0,P|250:137|296:132,1,75,10|2,0:0|3:2,0:0:0:0:
308,215,83724,2,0,P|270:219|233:223,1,75,0|2,3:0|3:2,0:0:0:0:
221,312,84056,5,2,3:2:0:0:
221,312,84223,2,0,P|258:307|295:303,1,75,0|0,3:0|3:0,0:0:0:0:
378,338,84557,1,2,3:2:0:0:
466,280,84724,2,0,P|475:230|462:196,1,75,14|2,0:0|3:2,0:0:0:0:
390,163,85057,2,0,P|352:167|315:172,1,75,0|8,3:0|0:0,0:0:0:0:
235,111,85391,5,14,0:0:0:0:
235,111,85557,2,0,P|161:99|78:85,1,150,0|6,3:0|3:0,0:0:0:0:
15,141,86057,2,0,P|23:185|33:237,1,75,2|2,3:2|3:2,0:0:0:0:
110,253,86391,2,0,P|118:297|128:349,1,75,2|2,3:2|3:2,0:0:0:0:
227,363,86724,5,14,0:0:0:0:
227,363,86890,2,0,P|237:300|256:183,1,150,0|0,3:0|3:0,0:0:0:0:
338,192,87391,2,0,B|351:156|351:156|334:112,1,75,6|2,3:0|3:2,0:0:0:0:
248,109,87724,2,0,B|234:74|234:74|247:38,1,75,2|2,3:2|3:2,0:0:0:0:
346,1,88057,5,6,3:2:0:0:
427,50,88224,1,0,3:0:0:0:
427,50,88391,2,0,P|437:103|447:150,1,75,2|0,3:2|3:0,0:0:0:0:
386,195,88724,2,0,P|328:186|282:179,1,75,8|2,0:0|3:2,0:0:0:0:
245,122,89057,2,0,P|187:131|141:138,1,75,0|2,3:0|3:2,0:0:0:0:
99,189,89391,5,2,3:2:0:0:
159,254,89556,2,0,P|217:245|263:238,1,75,2|0,3:2|3:0,0:0:0:0:
315,280,89890,1,2,3:2:0:0:
354,183,90056,2,0,P|403:177|439:197,1,75,14|2,0:0|3:2,0:0:0:0:
474,263,90391,2,0,P|464:316|454:363,1,75,2|0,3:2|3:0,0:0:0:0:
364,376,90724,5,10,0:0:0:0:
364,376,90890,2,0,P|326:370|205:354,1,150,6|0,3:2|3:0,0:0:0:0:
130,323,91391,2,0,P|123:286|115:249,1,75,6|2,3:0|3:2,0:0:0:0:
190,200,91724,2,0,P|196:163|204:126,1,75,2|2,3:2|3:2,0:0:0:0:
152,40,92057,5,10,0:0:0:0:
152,40,92224,2,0,P|198:86|290:74,1,150,6|0,3:2|3:0,0:0:0:0:
336,12,92724,2,0,B|374:5|374:5|415:22,1,75,6|2,3:0|3:2,0:0:0:0:
432,105,93057,2,0,P|422:158|412:205,1,75,2|2,3:2|3:2,0:0:0:0:
334,245,93391,5,6,3:2:0:0:
254,204,93557,1,0,3:0:0:0:
254,204,93724,2,0,P|244:151|234:104,1,75,2|0,3:2|3:0,0:0:0:0:
164,80,94057,1,14,0:0:0:0:
83,119,94224,1,2,3:2:0:0:
83,119,94391,2,0,P|73:172|63:219,1,75,0|2,3:0|3:2,0:0:0:0:
11,262,94724,5,2,3:2:0:0:
88,318,94891,1,10,0:0:0:0:
88,318,95057,2,0,P|133:324|174:302,1,75,0|2,3:0|3:2,0:0:0:0:
205,235,95391,2,0,B|243:228|243:228|284:245,1,75,14|0,0:0|3:0,0:0:0:0:
349,295,95724,2,0,P|359:348|369:395,1,75,14|2,0:0|3:2,0:0:0:0:
363,368,96057,5,0,3:2:0:0:
441,205,96391,1,10,0:0:0:0:
375,143,96557,2,0,P|329:137|276:129,1,75,2|2,3:2|3:2,0:0:0:0:
231,74,96891,1,10,0:0:0:0:
156,123,97057,2,0,P|164:161|176:222,1,75,2|2,3:2|3:2,0:0:0:0:
171,196,97391,5,0,3:0:0:0:
28,86,97724,1,10,0:0:0:0:
90,20,97891,2,0,P|136:14|189:6,1,75,2|2,3:2|3:2,0:0:0:0:
243,52,98224,1,10,0:0:0:0:
320,98,98391,2,0,P|366:92|419:84,1,75,2|2,3:2|3:2,0:0:0:0:
394,87,98724,5,0,3:0:0:0:
321,251,99057,1,10,0:0:0:0:
260,183,99224,2,0,P|179:166|125:223,1,150,2|10,3:2|0:0,0:0:0:0:
71,272,99724,2,0,P|79:310|91:371,1,75,2|2,3:2|3:2,0:0:0:0:
171,374,100057,6,0,P|179:336|191:275,1,75,10|0,3:2|3:0,0:0:0:0:
264,254,100391,1,10,0:0:0:0:
345,290,100557,2,0,P|353:328|365:389,1,75,2|0,3:2|3:0,0:0:0:0:
454,369,100891,1,10,0:0:0:0:
454,369,101057,2,0,P|446:331|434:270,1,75,10|10,0:0|0:0,0:0:0:0:
387,202,101391,6,0,P|314:191|215:177,1,150,14|14,0:0|0:0,0:0:0:0:
165,233,101891,2,0,P|173:271|185:332,1,75,2|0,3:2|3:0,0:0:0:0:
111,364,102224,1,10,0:0:0:0:
26,333,102391,2,0,P|18:296|10:259,1,75,0|0,3:0|3:0,0:0:0:0:
24,170,102724,6,0,P|72:111|169:131,1,150,10|10,0:0|0:0,0:0:0:0:
210,169,103224,1,2,3:2:0:0:
292,133,103391,2,0,P|300:96|308:59,1,75,0|2,3:0|3:2,0:0:0:0:
387,18,103724,2,0,P|395:55|403:92,1,75,2|2,3:2|3:2,0:0:0:0:
476,140,104057,5,10,0:0:0:0:
412,201,104224,1,0,3:0:0:0:
412,201,104391,2,0,P|373:195|327:188,1,67.4999979400635,2|0,3:2|3:0,0:0:0:0:
269,146,104724,2,0,P|261:113|254:80,1,67.4999979400635,10|0,0:0|3:0,0:0:0:0:
176,39,105057,2,0,P|168:71|161:104,1,67.4999979400635,2|0,3:2|3:0,0:0:0:0:
96,165,105391,6,0,P|57:159|11:152,2,67.4999979400635,6|0|10,3:0|1:2|0:0,0:0:0:0:
163,236,105891,1,10,3:2:0:0:
163,236,105974,1,0,1:2:0:0:
163,236,106057,2,0,P|196:241|229:246,1,67.4999979400635,0|10,1:2|0:0,0:0:0:0:
302,195,106391,2,0,P|335:200|368:205,1,67.4999979400635,0|0,1:2|1:2,0:0:0:0:
431,266,106724,6,0,L|440:320,3,33.7499989700318,10|0|0|0,0:0|3:0|3:0|3:0,0:0:0:0:
408,332,107057,2,0,P|374:326|341:321,1,67.4999979400635,2|0,3:2|3:0,0:0:0:0:
261,360,107391,2,0,L|211:370,3,33.7499989700318,10|2|2|2,0:0|3:2|3:2|3:2,0:0:0:0:
185,377,107724,1,2,3:2:0:0:
114,324,107891,1,0,3:0:0:0:
167,250,108057,5,2,0:0:0:0:
167,250,108724,2,0,B|274:233|248:334|363:304,1,196.875007510186,2|0,0:0|0:0,0:0:0:0:
345,307,109391,5,6,3:2:0:0:
256,192,109474,12,6,114724,3:2:0:0:
193,300,117724,6,0,P|205:245|220:179,2,112.500004291535,2|2|2,0:0|0:0|0:0,0:0:0:0:
77,201,118724,1,2,0:0:0:0:
77,201,118891,1,2,0:0:0:0:
189,90,119224,2,0,B|252:61|335:110|288:164|378:216|445:168,1,281.250010728836,2|4,0:0|3:0,0:0:0:0:
