osu file format v14

[General]
AudioFilename: audio.mp3
AudioLeadIn: 0
PreviewTime: 62307
Countdown: 0
SampleSet: Soft
StackLeniency: 0.4
Mode: 0
LetterboxInBreaks: 0
WidescreenStoryboard: 0

[Editor]
Bookmarks: 891,1057,1224,1391,1557,1724,1891,2057,2224,2391,2557,2724,2891,3057,3224,3391,3557,3724,3891,4057,4224,4391,4557,4724,6057,6224,6391,6557,6724,6891,7057,7224,7391,7557,7724,7891,8057,8224,8391,8557,8724,8891,9057,9224,9391,9557,9724,9891,10057
DistanceSpacing: 1
BeatDivisor: 4
GridSize: 4
TimelineZoom: 2.899999

[Metadata]
Title:Eon (Cut Ver.)
TitleUnicode:Eon (Cut Ver.)
Artist:Celldweller
ArtistUnicode:Celldweller
Creator:Cris-
Version:Endless Night
Source:osu!
Tags:Gero Hazu- Krisom Featured Artist FA Mappers' Guild MG Klayton Rock English
BeatmapID:2586272
BeatmapSetID:1244150

[Difficulty]
HPDrainRate:6
CircleSize:0
OverallDifficulty:8.8
ApproachRate:9.3
SliderMultiplier:2.4
SliderTickRate:1

[Events]
//Background and Video events
0,0,"bg.jpg",0,0
//Break Periods
2,757,4837
2,6090,10170
//Storyboard Layer 0 (Background)
//Storyboard Layer 1 (Fail)
//Storyboard Layer 2 (Pass)
//Storyboard Layer 3 (Foreground)
//Storyboard Layer 4 (Overlay)
//Storyboard Sound Samples

[TimingPoints]
58,333.333333333333,4,2,1,70,1,0
58,-100,4,2,1,70,0,0
557,-100,4,2,1,5,0,0
5391,-100,4,2,1,70,0,0
5891,-100,4,2,1,5,0,0
10724,-125,4,2,1,70,0,0
11391,-100,4,2,1,70,0,0
12057,-125,4,2,1,60,0,0
13057,-200,4,2,1,60,0,0
13224,-500,4,2,1,60,0,0
13391,-83.3333333333333,4,2,1,70,0,0
14057,-71.4285714285714,4,2,1,70,0,0
14724,-125,4,2,1,60,0,0
15724,-200,4,2,1,60,0,0
15891,-500,4,2,1,60,0,0
16057,-71.4285714285714,4,2,1,70,0,0
16724,-62.5,4,2,1,70,0,0
17391,-125,4,2,1,60,0,0
18391,-200,4,2,1,60,0,0
18557,-333.333333333333,4,2,1,60,0,0
18724,-62.5,4,2,1,70,0,0
19391,-55.5555555555556,4,2,1,70,0,0
20057,-200,4,2,1,55,0,0
20724,-133.333333333333,4,2,1,65,0,0
20974,-133.333333333333,4,2,1,5,0,0
21057,-100,4,2,1,65,0,0
21307,-100,4,2,1,5,0,0
21391,-71.4285714285714,4,2,1,80,0,1
26391,-71.4285714285714,4,2,1,80,0,0
26724,-71.4285714285714,4,2,1,80,0,1
31724,-50,4,2,1,80,0,0
32057,-71.4285714285714,4,2,1,80,0,1
37391,333.333333333333,6,2,1,70,1,0
37391,-125,4,2,1,70,0,0
37641,-125,4,2,1,5,0,0
37724,-83.3333333333333,4,2,1,70,0,0
39391,-125,4,2,1,70,0,0
39641,-125,4,2,1,5,0,0
39724,-83.3333333333333,4,2,1,70,0,0
41391,-125,4,2,1,70,0,0
41641,-125,4,2,1,5,0,0
41724,-83.3333333333333,4,2,1,70,0,0
43391,-125,4,2,1,70,0,0
43641,-125,4,2,1,5,0,0
43724,-83.3333333333333,4,2,1,70,0,0
44057,-200,4,2,1,50,0,0
45391,-83.3333333333333,4,2,1,70,0,0
45641,-83.3333333333333,4,2,1,5,0,0
45724,-55.5555555555556,4,2,1,70,0,0
46057,-133.333333333333,4,2,1,70,0,0
46307,-133.333333333333,4,2,1,5,0,0
46391,-90.9090909090909,4,2,1,70,0,0
47391,-83.3333333333333,4,2,1,70,0,0
47641,-83.3333333333333,4,2,1,5,0,0
47724,-55.5555555555556,4,2,1,70,0,0
48057,-133.333333333333,4,2,1,70,0,0
48391,-90.9090909090909,4,2,1,70,0,0
49391,-83.3333333333333,4,2,1,70,0,0
49641,-83.3333333333333,4,2,1,5,0,0
49724,-55.5555555555556,4,2,1,70,0,0
50057,-133.333333333333,4,2,1,70,0,0
50307,-133.333333333333,4,2,1,5,0,0
50391,-90.9090909090909,4,2,1,70,0,0
51391,-133.333333333333,4,2,1,70,0,0
52974,-133.333333333333,4,2,1,5,0,0
53057,-133.333333333333,4,2,1,70,0,0
53391,-83.3333333333333,4,2,1,70,0,0
53641,-83.3333333333333,4,2,1,5,0,0
53724,-55.5555555555556,4,2,1,70,0,0
54057,-133.333333333333,4,2,1,70,0,0
54307,-133.333333333333,4,2,1,5,0,0
54391,-90.9090909090909,4,2,1,70,0,0
55391,-83.3333333333333,4,2,1,70,0,0
55641,-83.3333333333333,4,2,1,5,0,0
55724,-55.5555555555556,4,2,1,70,0,0
56057,-133.333333333333,4,2,1,70,0,0
56391,-90.9090909090909,4,2,1,70,0,0
57391,-83.3333333333333,4,2,1,70,0,0
57641,-83.3333333333333,4,2,1,5,0,0
57724,-55.5555555555556,4,2,1,70,0,0
58057,-133.333333333333,4,2,1,70,0,0
58307,-133.333333333333,4,2,1,5,0,0
58391,-90.9090909090909,4,2,1,70,0,0
59391,333.333333333333,4,2,1,70,1,0
59391,-66.6666666666667,4,2,1,70,0,0
59974,-66.6666666666667,4,2,1,5,0,0
60057,-66.6666666666667,4,2,1,70,0,0
60391,-66.6666666666667,4,2,1,70,0,0
60641,-66.6666666666667,4,2,1,5,0,0
60724,-76.9230769230769,4,2,1,70,0,0
61057,-76.9230769230769,4,2,1,5,0,0
61224,-100,4,2,1,60,0,0
62391,-133.333333333333,4,2,1,60,0,0
63391,-66.6666666666667,4,2,1,70,0,0
63974,-66.6666666666667,4,2,1,5,0,0
64057,-100,4,2,1,60,0,0
65057,-66.6666666666667,4,2,1,70,0,0
66724,-133.333333333333,4,2,1,60,0,0
68724,-66.6666666666667,4,2,1,70,0,0
69307,-66.6666666666667,4,2,1,5,0,0
69391,-66.6666666666667,4,2,1,70,0,0
70891,-80,4,2,1,70,0,0
71224,-80,4,2,1,5,0,0
71391,-55.5555555555556,4,2,1,70,0,0
71974,-55.5555555555556,4,2,1,5,0,0
72057,333.333333333333,4,2,1,70,1,0
72057,-71.4285714285714,4,2,1,80,0,1
77057,-71.4285714285714,4,2,1,80,0,0
77390,-71.4285714285714,4,2,1,80,0,1
81390,-100,4,2,1,70,0,0
81723,-200,4,2,1,50,0,0
82056,-142.857142857143,4,2,1,60,0,0
82473,-100,4,2,1,70,0,0
82723,-71.4285714285714,4,2,1,80,0,1
85390,-83.3333333333333,4,2,1,80,0,0
88056,-62.5,4,2,1,80,0,1
90723,-71.4285714285714,4,2,1,80,0,0
93390,-55.5555555555556,4,2,1,80,0,1
96056,-50,4,2,1,80,0,0
96390,-50,4,2,1,80,0,1
97390,-45.4545454545455,4,2,1,80,0,0
97723,-45.4545454545455,4,2,1,80,0,1
98723,-41.6666666666667,4,2,1,80,0,0
99056,-41.6666666666667,4,2,1,80,0,1
100056,-50,4,2,1,80,0,0
101390,-41.6666666666667,4,2,1,80,0,1
101890,-83.3333333333333,4,2,1,80,0,1
102223,-41.6666666666667,4,2,1,80,0,1
102390,-41.6666666666667,4,2,1,80,0,0
102723,-38.4615384615385,4,2,1,80,0,1
104056,-125,4,2,1,70,0,0
104723,-100,4,2,1,70,0,0
105389,-125,4,2,1,60,0,0
106389,-200,4,2,1,60,0,0
106556,-500,4,2,1,60,0,0
106723,-83.3333333333333,4,2,1,70,0,0
107389,-71.4285714285714,4,2,1,70,0,0
108056,-66.6666666666667,4,2,1,60,0,0
108390,-66.6666666666667,4,2,1,5,0,0
108723,-45.4545454545455,4,2,1,60,0,0
109056,-45.4545454545455,4,2,1,5,0,0
109389,-100,4,2,1,70,0,0
109473,-100,4,2,1,40,0,0
117723,-133.333333333333,4,2,1,50,0,0
119140,-133.333333333333,4,2,1,5,0,0
119223,-133.333333333333,4,2,1,50,0,0
119556,-133.333333333333,4,2,1,5,0,0
120056,-133.333333333333,4,2,1,60,0,0

[Colours]
Combo1 : 226,201,114
Combo2 : 166,122,239
Combo3 : 252,88,88
Combo4 : 104,121,242

[HitObjects]
321,286,58,5,6,3:2:0:0:
483,334,224,1,0,3:0:0:0:
421,51,391,2,0,P|433:106|444:168,1,120,2|0,3:2|0:0,0:0:0:0:
191,286,5391,5,6,3:2:0:0:
29,334,5557,1,0,3:0:0:0:
91,51,5724,2,0,P|79:106|68:168,1,120,2|0,3:2|0:0,0:0:0:0:
447,239,10724,6,0,B|406:216|406:216|358:224,1,96,10|0,0:0|3:0,0:0:0:0:
260,298,11057,1,2,3:2:0:0:
266,325,11224,1,0,3:0:0:0:
495,117,11391,6,0,B|441:85|441:85|384:94,1,120,10|0,0:0|3:0,0:0:0:0:
166,201,11724,1,2,3:2:0:0:
386,346,11891,1,0,3:0:0:0:
232,92,12057,6,0,P|187:74|140:77,1,96,6|0,3:0|1:2,0:0:0:0:
330,210,12391,1,10,0:0:0:0:
89,346,12557,1,10,3:0:0:0:
81,327,12641,1,0,1:2:0:0:
79,307,12724,1,0,1:2:0:0:
82,288,12807,1,0,1:2:0:0:
88,269,12891,6,0,P|96:241|107:226,1,48,10|0,0:0|1:2,0:0:0:0:
211,298,13057,6,0,P|216:282|227:269,1,30,0|0,1:2|1:2,0:0:0:0:
331,336,13224,6,0,P|332:330|336:325,1,12,0|0,1:0|1:2,0:0:0:0:
220,131,13391,6,0,B|306:163|306:163|330:209,1,143.999995605469,10|0,0:0|3:0,0:0:0:0:
107,226,13724,1,2,3:2:0:0:
79,215,13891,1,0,3:0:0:0:
282,26,14057,6,0,B|389:68|389:68|412:115,1,167.999994873047,10|0,0:0|3:0,0:0:0:0:
51,204,14391,1,2,3:2:0:0:
282,26,14557,1,0,3:0:0:0:
207,348,14724,6,0,B|218:309|218:309|214:291|214:291|224:255,1,96,6|0,3:0|1:2,0:0:0:0:
97,24,15057,1,10,0:0:0:0:
412,115,15224,1,0,1:2:0:0:
394,122,15307,1,0,1:2:0:0:
377,130,15391,1,0,1:2:0:0:
359,137,15474,1,0,1:2:0:0:
341,145,15557,6,0,L|322:101,1,48,10|0,0:0|1:2,0:0:0:0:
230,189,15724,6,0,L|218:162,1,30,0|0,1:2|1:2,0:0:0:0:
119,233,15891,6,0,L|114:223,1,12,0|0,1:2|1:2,0:0:0:0:
348,273,16057,6,0,P|263:295|199:341,1,167.999994873047,10|0,0:0|3:0,0:0:0:0:
341,145,16391,1,2,3:2:0:0:
388,160,16557,1,0,3:0:0:0:
202,371,16724,6,0,P|275:309|370:292,1,192,10|0,0:0|3:0,0:0:0:0:
65,236,17057,1,2,3:2:0:0:
366,108,17224,1,0,3:0:0:0:
43,248,17391,6,0,P|82:273|101:318,1,96,6|0,3:0|1:2,0:0:0:0:
7,81,17724,1,10,0:0:0:0:
266,189,17891,1,10,3:2:0:0:
275,205,17974,1,0,1:2:0:0:
258,213,18057,1,0,1:2:0:0:
248,196,18141,1,0,1:2:0:0:
259,201,18224,6,0,P|250:224|241:251,1,48,10|0,0:0|1:2,0:0:0:0:
121,153,18391,6,0,P|128:168|132:180,1,30,0|0,1:2|1:2,0:0:0:0:
228,70,18557,6,0,P|225:78|222:86,1,17.9999994506836,0|0,1:2|1:2,0:0:0:0:
73,30,18724,6,0,B|19:57|19:57|0:187,1,192,10|0,0:0|3:0,0:0:0:0:
362,40,19057,1,2,3:2:0:0:
197,337,19224,1,0,3:0:0:0:
73,30,19391,5,10,0:0:0:0:
134,18,19474,1,0,3:0:0:0:
195,34,19557,1,0,3:0:0:0:
244,76,19641,1,0,3:0:0:0:
268,135,19724,1,2,3:2:0:0:
128,165,19891,1,0,3:0:0:0:
128,165,20224,5,2,0:0:0:0:
44,245,20391,2,0,L|60:304,1,60,2|2,0:0|0:0,0:0:0:0:
268,135,20724,6,0,B|276:176|276:176|245:266,1,135.000005149841,6|0,0:0|0:0,0:0:0:0:
262,287,21057,6,0,B|308:156|308:156|300:115,1,180,2|0,0:0|0:0,0:0:0:0:
7,305,21391,6,0,P|76:349|156:333,1,167.999994873047,6|0,3:2|3:0,0:0:0:0:
46,138,21724,1,2,3:2:0:0:
7,305,21891,1,0,3:0:0:0:
305,105,22057,2,0,P|385:89|453:134,1,167.999994873047,10|0,0:0|3:0,0:0:0:0:
215,198,22391,1,2,3:2:0:0:
305,105,22558,1,0,3:0:0:0:
321,367,22724,6,0,P|357:294|333:216,3,167.999994873047,2|0|2|0,3:2|3:0|3:2|3:0,0:0:0:0:
94,320,23391,2,0,P|175:331|243:284,1,167.999994873047,10|0,0:0|3:0,0:0:0:0:
53,103,23724,2,0,P|78:181|149:221,1,167.999994873047,2|0,3:2|3:0,0:0:0:0:
341,40,24057,6,0,P|316:118|244:158,1,167.999994873047,2|0,3:2|3:0,0:0:0:0:
227,43,24391,1,2,3:2:0:0:
353,244,24557,1,0,3:0:0:0:
132,162,24724,2,0,P|156:83|228:43,1,167.999994873047,10|0,0:0|3:0,0:0:0:0:
245,158,25057,1,2,3:2:0:0:
59,10,25223,1,0,3:0:0:0:
245,158,25391,6,0,P|220:236|148:276,3,167.999994873047,2|0|2|0,3:2|3:0|3:2|3:0,0:0:0:0:
398,156,26057,2,0,P|322:187|245:158,1,167.999994873047,14|0,0:0|3:0,0:0:0:0:
146,43,26391,2,0,P|218:80|245:158,1,167.999994873047,2|0,3:2|3:0,0:0:0:0:
48,362,26724,6,0,L|23:195,1,167.999994873047,6|0,3:2|3:0,0:0:0:0:
3,73,27057,1,2,3:2:0:0:
48,362,27224,1,0,3:0:0:0:
292,28,27391,2,0,L|125:53,1,167.999994873047,10|0,0:0|3:0,0:0:0:0:
3,73,27724,1,2,3:2:0:0:
292,28,27891,1,0,3:0:0:0:
48,362,28057,6,0,L|215:337,3,167.999994873047,2|0|2|0,3:2|3:0|3:2|3:0,0:0:0:0:
109,205,28724,2,0,L|48:362,1,167.999994873047,10|0,0:0|3:0,0:0:0:0:
214,337,29057,2,0,L|108:204,1,167.999994873047,2|0,3:2|3:0,0:0:0:0:
374,314,29391,6,0,L|437:159,1,167.999994873047,2|0,3:2|3:0,0:0:0:0:
214,337,29724,1,2,3:2:0:0:
374,314,29891,1,0,3:0:0:0:
170,53,30057,2,0,L|336:29,1,167.999994873047,10|0,0:0|3:0,0:0:0:0:
110,205,30391,1,2,3:2:0:0:
170,53,30557,1,0,3:0:0:0:
437,158,30724,5,10,0:0:0:0:
373,153,30807,1,0,3:0:0:0:
315,178,30890,1,0,3:0:0:0:
273,225,30974,1,0,3:0:0:0:
257,287,31057,1,2,3:2:0:0:
400,298,31224,1,10,0:0:0:0:
295,33,31391,1,2,3:2:0:0:
213,51,31474,1,0,3:0:0:0:
174,126,31558,1,0,3:0:0:0:
469,16,31724,6,0,B|474:64|474:64|495:84|495:84|519:281|519:281|506:312|506:312|512:362,1,360,6|0,3:2|0:0,0:0:0:0:
252,274,32057,6,0,B|333:249|333:249|400:298,1,167.999994873047,6|0,3:2|3:0,0:0:0:0:
147,367,32391,1,2,3:2:0:0:
252,274,32557,1,0,3:0:0:0:
14,77,32724,2,0,B|-10:158|-10:158|38:225,1,167.999994873047,14|0,0:0|3:0,0:0:0:0:
131,18,33058,1,2,3:2:0:0:
14,77,33224,1,0,3:0:0:0:
357,145,33391,6,0,B|289:96|289:96|208:120,3,167.999994873047,2|0|2|0,3:2|3:0|3:2|3:0,0:0:0:0:
303,369,34057,2,0,B|377:332|377:332|394:249,1,167.999994873047,14|0,0:0|3:0,0:0:0:0:
144,212,34391,2,0,B|129:295|129:295|186:356,1,167.999994873047,2|0,3:2|3:0,0:0:0:0:
357,145,34724,6,0,B|276:169|276:169|208:120,1,167.999994873047,2|0,3:2|3:0,0:0:0:0:
448,37,35057,1,2,3:2:0:0:
357,145,35224,1,0,3:0:0:0:
38,85,35391,2,0,B|14:166|14:166|63:234,1,167.999994873047,14|0,0:0|3:0,0:0:0:0:
152,15,35724,1,2,3:2:0:0:
38,85,35891,1,0,3:0:0:0:
255,369,36057,5,2,3:2:0:0:
330,258,36224,1,10,0:0:0:0:
120,354,36391,1,10,0:0:0:0:
63,234,36557,1,0,3:0:0:0:
274,136,36724,1,10,0:0:0:0:
330,258,36891,1,0,3:2:0:0:
140,125,37057,1,2,3:2:0:0:
63,234,37224,1,0,3:0:0:0:
216,13,37391,6,0,B|242:8|242:8|334:31|334:31|354:22,1,144,6|0,3:2|0:0,0:0:0:0:
355,22,37724,6,0,B|335:11|335:11|241:21|241:21|215:12,1,144,6|0,3:2|3:0,0:0:0:0:
215,12,38057,5,2,3:2:0:0:
445,257,38224,1,0,1:2:0:0:
464,247,38307,1,2,3:2:0:0:
476,234,38391,2,0,P|497:204|506:171,1,71.9999978027344,2|0,3:2|3:0,0:0:0:0:
332,299,38557,2,0,P|353:329|362:362,1,71.9999978027344,10|0,0:0|3:0,0:0:0:0:
344,175,38724,5,2,3:2:0:0:
280,162,38807,1,0,3:0:0:0:
229,197,38891,1,0,3:0:0:0:
198,254,38974,1,0,3:0:0:0:
211,317,39057,2,0,P|181:338|148:347,1,71.9999978027344,2|0,3:2|3:0,0:0:0:0:
0,218,39224,2,0,P|34:227|63:249,1,71.9999978027344,2|0,3:2|3:0,0:0:0:0:
223,40,39391,6,0,P|164:65|119:130,1,144,6|0,3:2|0:0,0:0:0:0:
120,129,39724,6,0,P|179:104|223:40,1,143.999995605469,6|0,3:2|3:0,0:0:0:0:
223,39,40057,5,2,3:2:0:0:
505,177,40224,1,0,1:2:0:0:
500,155,40307,1,2,3:2:0:0:
489,141,40391,2,0,P|468:111|441:90,1,71.9999978027344,2|0,3:2|3:0,0:0:0:0:
334,238,40557,2,0,P|355:208|382:187,1,71.9999978027344,10|0,0:0|3:0,0:0:0:0:
450,292,40724,5,2,3:2:0:0:
410,343,40807,1,0,3:0:0:0:
349,367,40891,1,0,3:0:0:0:
283,358,40974,1,0,3:0:0:0:
232,317,41057,2,0,P|206:279|187:262,1,71.9999978027344,2|0,3:2|3:0,0:0:0:0:
21,343,41224,2,0,P|42:302|60:283,1,71.9999978027344,2|0,3:2|3:0,0:0:0:0:
165,72,41391,6,0,B|146:55|146:55|95:47|52:73|52:73|44:93,1,144,6|0,3:2|0:0,0:0:0:0:
44,92,41724,6,0,B|61:108|61:108|112:117|156:91|156:91|165:71,1,144,6|0,3:2|3:0,0:0:0:0:
165,71,42057,5,2,3:2:0:0:
150,367,42224,1,0,1:2:0:0:
145,336,42307,1,2,3:2:0:0:
140,310,42391,2,0,P|129:270|116:243,1,71.9999978027344,2|0,3:2|3:0,0:0:0:0:
397,303,42557,2,0,P|377:333|365:367,1,71.9999978027344,10|0,0:0|3:0,0:0:0:0:
272,172,42724,5,2,3:2:0:0:
289,110,42807,1,0,3:0:0:0:
336,64,42891,1,0,3:0:0:0:
401,47,42974,1,0,3:0:0:0:
463,67,43057,2,0,P|468:102|463:138,1,71.9999978027344,2|0,3:2|3:0,0:0:0:0:
170,77,43224,2,0,P|165:42|170:6,1,71.9999978027344,2|0,3:2|3:0,0:0:0:0:
282,292,43391,6,0,B|241:304|204:284|222:278|183:256|141:267,1,144,6|0,3:2|0:0,0:0:0:0:
145,267,43724,6,0,B|177:289|221:283|207:271|248:268|283:292,1,143.999995605469,6|0,3:2|3:0,0:0:0:0:
282,291,44057,5,4,3:0:0:0:
420,232,44225,1,0,3:2:0:0:
429,247,44308,1,0,3:0:0:0:
431,264,44391,1,0,3:0:0:0:
298,145,44557,1,2,3:2:0:0:
436,86,44724,5,0,3:0:0:0:
445,101,44807,1,0,3:0:0:0:
447,118,44890,1,0,3:0:0:0:
319,10,45057,1,2,3:2:0:0:
298,145,45224,1,0,3:0:0:0:
0,30,45391,6,0,B|135:80|135:80|202:55,1,215.999993408203,6|0,3:2|0:0,0:0:0:0:
203,55,45724,6,0,B|68:5|68:5|1:30,1,215.999993408203,6|0,3:2|3:0,0:0:0:0:
147,331,46057,6,0,P|161:265|178:200,1,135.000005149841,2|0,3:2|0:0,0:0:0:0:
114,322,46391,2,0,P|132:256|146:194,1,132.00000402832,2|0,3:2|3:0,0:0:0:0:
396,298,46724,2,0,P|348:341|285:357,1,132.00000402832,2|0,3:2|3:0,0:0:0:0:
393,171,47057,2,0,P|456:186|505:230,1,132.00000402832,2|0,3:2|3:0,0:0:0:0:
267,43,47391,6,0,B|226:91|237:160|266:134|276:193|247:247,1,215.999993408203,6|0,3:2|0:0,0:0:0:0:
247,248,47724,6,0,B|216:193|240:127|263:157|284:101|267:44,1,215.999993408203,6|0,3:2|3:0,0:0:0:0:
23,168,48057,6,0,P|62:142|105:137,1,90.0000034332277,2|0,3:2|3:0,0:0:0:0:
104,136,48307,1,0,3:0:0:0:
104,136,48391,1,2,3:2:0:0:
366,199,48557,1,4,3:2:0:0:
127,345,48724,1,2,3:2:0:0:
100,307,48807,1,0,3:0:0:0:
101,260,48891,1,0,3:0:0:0:
329,357,49057,1,2,3:2:0:0:
247,248,49224,1,0,3:0:0:0:
483,75,49391,6,0,B|490:129|490:129|504:150|504:150|513:210|513:210|504:231|504:231|512:282,1,215.999993408203,6|0,3:2|0:0,0:0:0:0:
512,283,49724,6,0,B|504:228|504:228|490:207|490:207|481:147|481:147|490:126|490:126|482:75,1,215.999993408203,6|0,3:2|3:0,0:0:0:0:
247,248,50057,6,0,P|314:259|377:280,1,135.000005149841,2|0,3:2|0:0,0:0:0:0:
242,273,50391,2,0,P|306:295|370:307,1,132.00000402832,2|0,3:2|3:0,0:0:0:0:
134,24,50724,1,10,0:0:0:0:
42,303,50891,1,10,0:0:0:0:
140,220,51057,1,0,1:2:0:0:
120,200,51141,1,0,1:2:0:0:
85,182,51224,1,0,1:2:0:0:
45,176,51307,1,0,1:2:0:0:
4,180,51391,5,14,0:0:0:0:
4,180,52724,6,0,B|2:193|2:193|12:202|12:202|7:215|7:215|18:223|18:223|14:237|14:237|26:247|26:247|22:263|22:263|34:273|34:273|32:290,1,135.000005149841,4|0,3:0|0:0,0:0:0:0:
31,291,53057,5,4,3:0:0:0:
151,220,53224,1,0,3:0:0:0:
421,363,53391,6,0,P|330:306|228:329,1,215.999993408203,6|0,3:2|0:0,0:0:0:0:
37,296,53724,6,0,P|127:352|229:329,1,215.999993408203,6|0,3:2|3:0,0:0:0:0:
190,95,54057,6,0,B|167:120|167:120|150:220,1,135.000005149841,2|0,3:2|0:0,0:0:0:0:
213,102,54391,2,0,B|196:202|196:202|177:226,1,132.00000402832,2|0,3:2|3:0,0:0:0:0:
0,42,54724,2,0,P|63:29|128:10,1,132.00000402832,2|0,3:2|3:0,0:0:0:0:
128,330,55057,2,0,P|65:309|0:296,1,132.00000402832,2|0,3:2|3:0,0:0:0:0:
213,91,55391,6,0,B|311:122|311:122|341:230,1,215.999993408203,6|0,3:2|0:0,0:0:0:0:
469,371,55724,6,0,B|370:339|370:339|341:232,1,215.999993408203,6|0,3:2|3:0,0:0:0:0:
484,30,56057,6,0,L|508:116,1,90.0000034332277,2|0,3:2|3:0,0:0:0:0:
508,116,56307,1,0,3:0:0:0:
508,116,56391,1,2,3:2:0:0:
199,20,56557,1,4,3:2:0:0:
341,231,56724,1,2,3:2:0:0:
353,193,56807,1,0,3:0:0:0:
366,155,56891,1,0,3:0:0:0:
187,243,57057,1,2,3:2:0:0:
285,367,57224,1,0,3:0:0:0:
5,158,57391,6,0,B|9:122|43:110|43:110|192:134,1,215.999993408203,6|0,3:2|0:0,0:0:0:0:
379,110,57724,6,0,B|375:146|341:158|341:158|192:134,1,215.999993408203,6|0,3:2|3:0,0:0:0:0:
429,347,58057,6,0,P|474:304|481:231,1,135.000005149841,2|0,3:2|0:0,0:0:0:0:
398,334,58391,2,0,P|404:268|448:224,1,132.00000402832,2|0,3:2|3:0,0:0:0:0:
220,342,58724,1,2,3:2:0:0:
308,78,58891,2,0,P|284:136|266:202,1,132.00000402832,10|0,0:0|3:0,0:0:0:0:
266,202,59223,1,10,0:0:0:0:
2,68,59391,6,0,P|69:14|161:22,1,180.000006866455,14|0,0:0|3:2,0:0:0:0:
108,133,59641,1,0,3:2:0:0:
108,133,59724,1,0,3:2:0:0:
491,42,59891,2,0,P|449:30|407:12,1,90.0000034332277,10|0,0:0|0:0,0:0:0:0:
511,175,60057,5,2,0:0:0:0:
511,175,60224,1,4,3:0:0:0:
272,46,60391,6,0,B|237:97|237:97|218:253|218:253|184:291,1,270.000010299683,14|0,0:0|0:0,0:0:0:0:
173,360,60724,6,0,B|247:276|247:276|263:122|263:122|332:21,1,389.999982147218,14|0,0:0|0:0,0:0:0:0:
332,20,61224,1,4,3:0:0:0:
384,168,61391,6,0,L|501:195,2,120,10|0|2,0:0|3:0|0:0,0:0:0:0:
127,220,61891,1,4,3:0:0:0:
127,220,62057,2,0,L|243:247,1,120,2|0,0:0|3:0,0:0:0:0:
448,7,62391,6,0,P|466:48|465:92,2,90.0000034332277,6|0|0,3:0|3:0|3:0,0:0:0:0:
277,135,62891,2,0,P|275:90|293:49,1,90.0000034332277,6|0,3:0|3:0,0:0:0:0:
292,49,63224,1,0,3:0:0:0:
463,328,63391,6,0,B|432:264|432:264|131:366|131:366|83:266|83:266|206:223,1,630.000024032594,14|0,0:0|0:0,0:0:0:0:
338,168,64057,6,0,L|298:55,2,120,10|0|2,0:0|3:0|0:0,0:0:0:0:
56,61,64557,2,0,L|169:21,1,120,4|2,3:0|0:0,0:0:0:0:
169,20,64890,1,0,3:0:0:0:
138,334,65057,6,0,B|247:253|200:132|200:132|115:143|106:206,1,360.000013732911,14|0,0:0|3:0,0:0:0:0:
333,369,65474,1,0,3:0:0:0:
333,369,65557,6,0,B|399:302|382:183|311:218|292:102|364:37,1,360.000013732911,14|0,0:0|3:0,0:0:0:0:
496,138,65974,1,0,3:0:0:0:
496,138,66057,1,14,0:0:0:0:
157,77,66224,6,0,B|216:115|216:115|426:100|426:100|496:138,1,360.000013732911,10|8,0:0|0:0,0:0:0:0:
197,337,66724,6,0,P|183:291|153:262,2,90.0000034332277,14|0|2,0:0|3:0|0:0,0:0:0:0:
46,212,67224,2,0,P|32:257|2:286,1,90.0000034332277,4|2,3:0|0:0,0:0:0:0:
1,286,67557,5,2,3:2:0:0:
163,126,67724,1,6,3:0:0:0:
260,211,67891,1,2,3:2:0:0:
23,94,68057,1,2,3:2:0:0:
120,6,68224,1,2,3:2:0:0:
154,263,68391,2,0,P|142:300|132:350,1,90.0000034332277,2|0,0:0|3:0,0:0:0:0:
499,280,68724,6,0,B|532:166|494:63|374:-4|241:16|183:93|195:197|265:246|335:229,1,630.000024032594,14|0,0:0|0:0,0:0:0:0:
160,29,69391,6,0,P|120:116|124:198,2,180.000006866455,14|0|0,0:0|3:0|3:0,0:0:0:0:
45,283,69891,2,0,P|5:196|7:112,2,180.000006866455,10|0|2,0:0|3:0|3:2,0:0:0:0:
457,100,70391,1,10,0:0:0:0:
274,365,70558,1,10,0:0:0:0:
160,29,70724,1,10,3:2:0:0:
172,291,70891,6,0,B|233:201|369:221|311:292|453:313|507:236,1,375,14|0,0:0|0:0,0:0:0:0:
457,100,71391,6,0,B|357:85|268:190|359:199|285:321|172:291|172:291|224:210|350:215|309:273|437:325|507:236,1,755.999976928712,14|0,0:0|0:0,0:0:0:0:
179,32,72057,6,0,B|132:62|132:62|112:175,1,167.999994873047,6|0,3:2|3:0,0:0:0:0:
334,86,72391,1,2,3:2:0:0:
179,32,72557,1,0,3:0:0:0:
240,366,72724,2,0,B|286:335|286:335|306:222,1,167.999994873047,10|0,0:0|3:0,0:0:0:0:
85,312,73058,1,2,3:2:0:0:
240,366,73224,1,0,3:0:0:0:
179,32,73391,6,0,B|67:51|67:51|37:97,3,167.999994873047,2|0|2|0,3:2|3:0|3:2|3:0,0:0:0:0:
268,267,74057,2,0,B|295:157|295:157|265:111,1,167.999994873047,10|0,0:0|3:0,0:0:0:0:
42,209,74391,2,0,B|103:303|103:303|157:313,1,167.999994873047,2|0,3:2|3:0,0:0:0:0:
500,192,74724,6,0,B|400:244|400:244|385:298,1,167.999994873047,2|0,3:2|3:0,0:0:0:0:
422,54,75057,1,2,3:2:0:0:
500,192,75224,1,0,3:0:0:0:
191,150,75391,2,0,B|243:50|243:50|297:35,1,167.999994873047,10|0,0:0|0:0,0:0:0:0:
262,281,75724,1,2,3:2:0:0:
191,150,75891,1,0,3:0:0:0:
500,192,76057,6,0,B|454:223|454:223|439:335,3,167.999994873047,2|0|2|0,3:2|3:0|3:2|3:0,0:0:0:0:
417,108,76724,2,0,B|365:127|365:127|321:231,1,167.999994873047,14|0,0:0|3:0,0:0:0:0:
350,12,77057,2,0,B|295:17|295:17|225:106,1,167.999994873047,2|0,3:2|3:0,0:0:0:0:
439,334,77391,6,0,B|400:345|400:345|390:355|390:355|339:364|339:364|325:359|325:359|280:371,1,167.999994873047,6|0,3:2|3:0,0:0:0:0:
500,192,77724,1,2,3:2:0:0:
439,334,77891,1,0,3:0:0:0:
225,106,78057,2,0,B|264:95|264:95|274:85|274:85|325:76|325:76|339:81|339:81|384:69,1,167.999994873047,10|0,0:0|3:0,0:0:0:0:
164,247,78390,1,2,3:2:0:0:
225,106,78557,1,0,3:0:0:0:
439,334,78724,6,0,B|447:294|447:294|457:283|457:283|463:232|463:232|457:218|457:218|467:173,3,167.999994873047,2|0|2|0,3:2|3:0|3:2|3:0,0:0:0:0:
313,227,79391,2,0,B|342:254|342:254|347:267|347:267|388:299|388:299|403:301|403:301|437:332,1,167.999994873047,10|0,0:0|3:0,0:0:0:0:
467,173,79724,2,0,B|428:184|428:184|414:181|414:181|366:201|366:201|357:213|357:213|314:227,1,167.999994873047,2|0,3:2|3:0,0:0:0:0:
20,89,80057,5,10,0:0:0:0:
111,6,80224,1,2,3:2:0:0:
98,303,80391,1,10,0:0:0:0:
14,213,80556,1,2,3:2:0:0:
313,227,80724,1,10,0:0:0:0:
223,310,80890,1,2,3:2:0:0:
235,10,81057,1,10,0:0:0:0:
319,102,81224,1,2,3:2:0:0:
98,303,81391,6,0,P|122:248|155:198,1,120,10|0,0:0|3:0,0:0:0:0:
155,198,81641,1,8,0:0:0:0:
155,198,81724,1,10,0:0:0:0:
346,345,81891,1,2,3:2:0:0:
400,78,82057,5,2,3:2:0:0:
384,72,82141,1,0,3:0:0:0:
367,70,82224,1,0,3:0:0:0:
347,73,82307,2,0,P|329:84|319:101,1,41.9999987182618,0|0,3:0|3:0,0:0:0:0:
468,359,82474,1,2,3:2:0:0:
506,305,82557,1,2,3:2:0:0:
501,238,82641,1,2,3:2:0:0:
471,188,82724,6,0,B|403:164|342:218|342:218|370:227,1,167.999994873047,6|0,3:2|3:0,0:0:0:0:
512,26,83057,1,2,3:2:0:0:
471,188,83224,1,0,3:0:0:0:
178,54,83391,1,10,0:0:0:0:
178,54,83557,2,0,B|127:103|149:182|149:182|169:161,1,167.999994873047,2|0,3:2|3:0,0:0:0:0:
342,37,83890,1,2,3:2:0:0:
239,327,84057,6,0,B|219:305|219:305|300:290|345:344,1,167.999994873047,2|0,3:2|3:0,0:0:0:0:
344,343,84391,1,0,3:0:0:0:
460,215,84557,1,2,3:2:0:0:
129,62,84724,2,0,B|106:129|161:189|161:189|169:160,2,167.999994873047,14|2|0,0:0|3:2|3:0,0:0:0:0:
129,62,85224,1,8,0:0:0:0:
489,6,85391,6,0,P|420:29|368:76,2,143.999995605469,14|0|0,0:0|3:0|3:0,0:0:0:0:
294,254,85891,1,6,3:0:0:0:
205,175,86057,1,2,3:2:0:0:
250,67,86224,1,2,3:2:0:0:
368,76,86391,1,2,3:2:0:0:
394,191,86557,1,2,3:2:0:0:
20,32,86724,6,0,P|67:85|90:153,3,143.999995605469,14|0|0|0,0:0|3:0|3:0|3:0,0:0:0:0:
356,364,87391,1,6,3:0:0:0:
458,295,87556,1,2,3:2:0:0:
394,191,87723,1,2,3:2:0:0:
289,256,87890,1,2,3:2:0:0:
449,20,88056,6,0,B|442:71|473:112|484:88|521:136|512:192,1,192,6|0,3:2|3:0,0:0:0:0:
259,76,88390,1,2,3:2:0:0:
449,20,88557,1,0,3:0:0:0:
182,280,88724,1,8,0:0:0:0:
182,280,88891,2,0,B|233:273|274:304|250:315|298:352|354:343,1,192,2|0,3:2|3:0,0:0:0:0:
353,213,89224,1,2,3:2:0:0:
68,337,89391,6,0,B|39:294|47:242|68:259|77:199|42:154,1,192,2|2,3:2|3:2,0:0:0:0:
42,154,89724,1,0,3:0:0:0:
6,7,89891,1,2,3:2:0:0:
353,213,90057,2,0,B|301:208|260:240|285:251|237:288|182:279,2,192,14|2|2,0:0|3:2|3:2,0:0:0:0:
353,213,90557,1,0,3:0:0:0:
352,338,90724,1,10,0:0:0:0:
36,55,90891,6,0,B|2:119|2:119|85:370,1,335.999989746094,6|0,3:2|3:0,0:0:0:0:
436,6,91391,1,6,3:0:0:0:
500,148,91557,1,2,3:2:0:0:
358,218,91723,1,2,3:2:0:0:
287,70,91890,1,2,3:2:0:0:
394,110,92057,1,10,0:0:0:0:
10,279,92224,6,0,B|74:245|74:245|325:328,1,335.999989746094,6|0,3:2|3:0,0:0:0:0:
95,14,92724,1,6,3:0:0:0:
287,70,92891,1,2,3:2:0:0:
142,210,93057,1,2,3:2:0:0:
173,98,93224,1,2,3:2:0:0:
439,352,93391,6,0,P|457:244|500:148,1,215.999993408203,6|0,3:2|3:0,0:0:0:0:
246,301,93724,1,2,3:2:0:0:
439,352,93891,1,0,3:0:0:0:
408,54,94057,2,0,P|315:112|215:142,1,215.999993408203,14|2,0:0|3:2,0:0:0:0:
376,230,94391,1,0,3:0:0:0:
95,14,94557,6,0,P|37:105|6:208,1,215.999993408203,2|2,3:2|3:2,0:0:0:0:
271,51,94891,2,0,P|213:142|182:245,1,215.999993408203,10|0,0:0|3:0,0:0:0:0:
182,244,95224,1,2,3:2:0:0:
447,88,95391,2,0,P|389:179|358:282,1,215.999993408203,14|0,0:0|3:0,0:0:0:0:
95,14,95724,1,14,0:0:0:0:
6,208,95891,1,2,3:2:0:0:
6,208,96057,5,0,3:2:0:0:
333,15,96391,5,10,0:0:0:0:
400,35,96474,1,2,3:2:0:0:
447,88,96557,1,2,3:2:0:0:
453,160,96641,1,2,3:2:0:0:
411,217,96724,2,0,P|360:189|336:135,1,120,2|0,3:2|3:0,0:0:0:0:
114,348,96891,2,0,P|176:258|285:293,1,240,10|2,0:0|3:2,0:0:0:0:
285,293,97141,1,2,3:2:0:0:
285,293,97224,1,2,3:2:0:0:
6,208,97391,5,0,3:0:0:0:
469,360,97724,6,0,B|514:297|514:297|476:114,1,264.000008056641,10|2,0:0|3:2,0:0:0:0:
343,20,97974,1,2,3:2:0:0:
343,20,98057,2,0,L|370:149,1,132.00000402832,2|0,3:2|3:0,0:0:0:0:
149,277,98224,2,0,B|212:232|212:232|394:269,1,264.000008056641,10|2,0:0|3:2,0:0:0:0:
188,41,98474,1,2,3:2:0:0:
127,84,98557,1,2,3:2:0:0:
68,127,98641,1,2,3:2:0:0:
5,173,98724,5,0,3:0:0:0:
458,237,99057,6,0,B|482:265|481:307|468:296|465:335|492:370,1,143.999995605469,10|0,0:0|3:0,0:0:0:0:
371,149,99224,2,0,B|337:170|326:211|342:204|333:243|298:268,1,143.999995605469,2|0,3:2|3:0,0:0:0:0:
447,56,99391,1,0,3:0:0:0:
447,56,99474,1,0,3:0:0:0:
447,56,99557,2,0,B|397:1|297:12|322:63|240:77|181:21,1,287.999991210938,10|2,0:0|3:2,0:0:0:0:
5,173,99807,1,2,3:2:0:0:
49,248,99891,1,2,3:2:0:0:
129,274,99974,1,2,3:2:0:0:
209,242,100057,6,0,P|291:164|398:204,1,240,10|0,3:2|3:0,0:0:0:0:
126,151,100391,1,10,0:0:0:0:
390,368,100557,1,2,3:2:0:0:
451,329,100641,1,0,3:0:0:0:
467,260,100724,1,0,3:0:0:0:
434,198,100807,1,0,3:0:0:0:
371,161,100891,6,0,P|361:103|391:52,1,120,10|0,0:0|3:0,0:0:0:0:
209,242,101057,1,10,0:0:0:0:
129,274,101141,1,2,3:2:0:0:
49,248,101224,1,10,0:0:0:0:
5,173,101307,1,0,3:2:0:0:
21,87,101391,6,0,P|144:28|245:118,1,287.999991210938,14|0,0:0|3:0,0:0:0:0:
55,367,101724,1,14,0:0:0:0:
371,161,101891,2,0,P|359:193|357:230,1,71.9999978027344,2|0,3:2|3:0,0:0:0:0:
475,258,102057,2,0,P|487:226|489:189,1,71.9999978027344,0|0,3:0|3:0,0:0:0:0:
256,334,102224,6,0,P|326:335|391:369,1,143.999995605469,10|0,0:0|3:0,0:0:0:0:
245,118,102391,1,0,3:0:0:0:
160,134,102474,1,0,3:0:0:0:
106,201,102557,1,0,3:0:0:0:
132,284,102641,1,0,3:0:0:0:
132,284,102724,6,0,P|90:218|27:175,1,155.999992858887,10|0,0:0|3:0,0:0:0:0:
357,230,102891,2,0,P|375:153|420:92,1,155.999992858887,2|0,3:2|3:0,0:0:0:0:
122,322,103057,6,0,P|69:264|0:232,1,155.999992858887,10|0,0:0|3:0,0:0:0:0:
376,261,103224,2,0,P|407:189|462:136,1,155.999992858887,2|0,3:2|3:0,0:0:0:0:
268,364,103391,5,0,3:0:0:0:
262,340,103474,1,0,3:0:0:0:
257,319,103557,2,0,P|239:246|214:170,1,155.999992858887,2|0,3:2|3:0,0:0:0:0:
512,7,103724,1,2,3:2:0:0:
491,97,103807,1,2,3:2:0:0:
465,187,103891,1,2,3:2:0:0:
434,275,103974,1,2,3:2:0:0:
403,363,104057,6,0,P|450:350|495:337,1,96,10|0,0:0|3:0,0:0:0:0:
346,175,104391,1,2,3:2:0:0:
329,224,104557,1,0,3:0:0:0:
33,370,104724,2,0,P|15:312|0:254,1,120,10|0,0:0|3:0,0:0:0:0:
284,330,105056,1,2,3:2:0:0:
83,115,105223,1,0,3:0:0:0:
157,349,105391,6,0,P|143:302|129:257,1,96,6|0,3:0|1:2,0:0:0:0:
200,85,105723,1,10,0:0:0:0:
411,307,105891,1,10,3:2:0:0:
388,310,105973,1,0,1:2:0:0:
369,315,106056,1,0,1:2:0:0:
349,319,106140,1,0,1:2:0:0:
331,322,106223,6,0,P|300:328|283:330,1,48,10|0,0:0|1:2,0:0:0:0:
336,191,106391,6,0,P|321:181|309:172,1,30,0|0,1:2|1:2,0:0:0:0:
443,128,106557,6,0,P|441:123|440:116,1,12,0|0,1:2|1:2,0:0:0:0:
218,16,106724,5,10,0:0:0:0:
200,85,106807,1,0,3:0:0:0:
182,154,106891,1,0,3:0:0:0:
164,223,106974,1,0,3:0:0:0:
146,292,107057,1,2,3:2:0:0:
336,191,107224,1,0,3:0:0:0:
93,8,107391,5,10,0:0:0:0:
68,94,107474,1,2,3:2:0:0:
45,182,107556,1,2,3:2:0:0:
23,269,107641,1,2,3:2:0:0:
0,358,107724,1,2,3:2:0:0:
443,128,107891,1,0,3:0:0:0:
200,362,108057,6,0,B|125:315|125:315|116:249|116:249|179:222|179:222|342:323|342:323|405:304|405:304|401:231|401:231|336:191,1,630.000024032594,2|0,0:0|0:0,0:0:0:0:
78,145,108724,6,0,B|188:99|188:99|401:231|401:231|405:304|405:304|342:323|342:323|179:222|179:222|116:249|116:249|125:315|125:315|200:362,1,924.000028198243,2|0,0:0|0:0,0:0:0:0:
199,361,109390,5,6,3:2:0:0:
256,192,109474,12,6,114724,3:2:0:0:
46,295,117724,6,0,P|36:248|13:214,1,90.0000034332277,2|0,0:0|0:0,0:0:0:0:
173,355,118057,2,0,P|176:271|231:195,1,180.000006866455,2|2,0:0|0:0,0:0:0:0:
231,195,118724,5,2,0:0:0:0:
319,319,118891,2,0,P|385:305|446:329,1,135.000005149841,2|0,0:0|0:0,0:0:0:0:
495,363,119224,6,0,B|554:252|463:144|430:229|339:107|395:11,1,405.000015449524,2|0,0:0|0:0,0:0:0:0:
394,11,120057,5,4,3:0:0:0:
