osu file format v14

[General]
AudioFilename: audio.mp3
AudioLeadIn: 0
PreviewTime: 62307
Countdown: 0
SampleSet: Soft
StackLeniency: 0.3
Mode: 0
LetterboxInBreaks: 0
WidescreenStoryboard: 1

[Editor]
DistanceSpacing: 1
BeatDivisor: 4
GridSize: 4
TimelineZoom: 2.899999

[Metadata]
Title:Eon (Cut Ver.)
TitleUnicode:Eon (Cut Ver.)
Artist:Celldweller
ArtistUnicode:Celldweller
Creator:Cris-
Version:Easy
Source:osu!
Tags:Gero Hazu- Krisom Featured Artist FA Mappers' Guild MG Klayton Rock English
BeatmapID:2595888
BeatmapSetID:1244150

[Difficulty]
HPDrainRate:3
CircleSize:2.2
OverallDifficulty:3
ApproachRate:4.5
SliderMultiplier:0.999999999999999
SliderTickRate:1

[Events]
//Background and Video events
0,0,"bg.jpg",0,0
//Break Periods
2,591,4071
2,5924,9404
2,114923,116403
//Storyboard Layer 0 (Background)
//Storyboard Layer 1 (Fail)
//Storyboard Layer 2 (Pass)
//Storyboard Layer 3 (Foreground)
//Storyboard Layer 4 (Overlay)
//Storyboard Sound Samples

[TimingPoints]
58,333.333333333333,4,2,1,70,1,0
58,-100,4,2,1,70,0,0
557,-100,4,2,1,5,0,0
5391,-100,4,2,1,70,0,0
5891,-100,4,2,1,5,0,0
10724,-100,4,2,1,70,0,0
11391,-100,4,2,1,70,0,0
12057,-100,4,2,1,60,0,0
13057,-100,4,2,1,60,0,0
13224,-100,4,2,1,60,0,0
13391,-100,4,2,1,70,0,0
14057,-100,4,2,1,70,0,0
14724,-100,4,2,1,60,0,0
15724,-100,4,2,1,60,0,0
15891,-100,4,2,1,60,0,0
16057,-100,4,2,1,70,0,0
16724,-100,4,2,1,70,0,0
17391,-100,4,2,1,60,0,0
18391,-100,4,2,1,60,0,0
18557,-100,4,2,1,60,0,0
18724,-100,4,2,1,70,0,0
19391,-100,4,2,1,70,0,0
20057,-100,4,2,1,55,0,0
20724,-100,4,2,1,65,0,0
20974,-100,4,2,1,5,0,0
21057,-100,4,2,1,65,0,0
21307,-100,4,2,1,5,0,0
21391,-100,4,2,1,80,0,1
26391,-100,4,2,1,80,0,0
26724,-100,4,2,1,80,0,1
31724,-100,4,2,1,80,0,0
32057,-100,4,2,1,80,0,1
37391,333.333333333333,6,2,1,70,1,0
37391,-100,6,2,1,70,0,0
37641,-100,6,2,1,5,0,0
37724,-100,6,2,1,70,0,0
39391,-100,6,2,1,70,0,0
39641,-100,6,2,1,5,0,0
39724,-100,6,2,1,70,0,0
41391,-100,6,2,1,70,0,0
41641,-100,6,2,1,5,0,0
41724,-100,6,2,1,70,0,0
43391,-100,6,2,1,70,0,0
43641,-100,6,2,1,5,0,0
43724,-100,6,2,1,70,0,0
44057,-100,6,2,1,50,0,0
45391,-100,6,2,1,70,0,0
45641,-100,6,2,1,5,0,0
45724,-100,6,2,1,70,0,0
46057,-100,6,2,1,70,0,0
46307,-100,6,2,1,5,0,0
46391,-100,6,2,1,70,0,0
47391,-100,6,2,1,70,0,0
47641,-100,6,2,1,5,0,0
47724,-100,6,2,1,70,0,0
48057,-100,6,2,1,70,0,0
48391,-100,6,2,1,70,0,0
49391,-100,6,2,1,70,0,0
49641,-100,6,2,1,5,0,0
49724,-100,6,2,1,70,0,0
50057,-100,6,2,1,70,0,0
50307,-100,6,2,1,5,0,0
50391,-100,6,2,1,70,0,0
51391,-100,6,2,1,70,0,0
52974,-100,6,2,1,5,0,0
53057,-100,6,2,1,70,0,0
53391,-100,6,2,1,70,0,0
53641,-100,6,2,1,5,0,0
53724,-100,6,2,1,70,0,0
54057,-100,6,2,1,70,0,0
54307,-100,6,2,1,5,0,0
54391,-100,6,2,1,70,0,0
55391,-100,6,2,1,70,0,0
55641,-100,6,2,1,5,0,0
55724,-100,6,2,1,70,0,0
56057,-100,6,2,1,70,0,0
56391,-100,6,2,1,70,0,0
57391,-100,6,2,1,70,0,0
57641,-100,6,2,1,5,0,0
57724,-100,6,2,1,70,0,0
58057,-100,6,2,1,70,0,0
58307,-100,6,2,1,5,0,0
58391,-100,6,2,1,70,0,0
59391,333.333333333333,4,2,1,70,1,0
59391,-100,6,2,1,70,0,0
59974,-100,6,2,1,5,0,0
60057,-100,6,2,1,70,0,0
60391,-100,6,2,1,70,0,0
60641,-100,6,2,1,5,0,0
60724,-100,6,2,1,70,0,0
61057,-100,6,2,1,5,0,0
61224,-100,6,2,1,60,0,0
62391,-100,6,2,1,60,0,0
63391,-100,6,2,1,70,0,0
63974,-100,6,2,1,5,0,0
64057,-100,6,2,1,60,0,0
65057,-100,6,2,1,70,0,0
66724,-100,6,2,1,60,0,0
68724,-100,6,2,1,70,0,0
69307,-100,6,2,1,5,0,0
69391,-100,6,2,1,70,0,0
70891,-100,6,2,1,70,0,0
71224,-100,6,2,1,5,0,0
71391,-100,6,2,1,70,0,0
71974,-100,6,2,1,5,0,0
72057,333.333333333333,4,2,1,70,1,0
72057,-100,6,2,1,80,0,1
77057,-100,6,2,1,80,0,0
77390,-100,6,2,1,80,0,1
81390,-100,6,2,1,70,0,0
81723,-100,6,2,1,50,0,0
82056,-100,6,2,1,60,0,0
82473,-100,6,2,1,70,0,0
82723,-100,6,2,1,80,0,1
85390,-100,6,2,1,80,0,0
88056,-100,6,2,1,80,0,1
90723,-100,6,2,1,80,0,0
93390,-100,6,2,1,80,0,1
96056,-100,6,2,1,80,0,0
96390,-100,6,2,1,80,0,1
97390,-100,6,2,1,80,0,0
97723,-100,6,2,1,80,0,1
98723,-100,6,2,1,80,0,0
99056,-100,6,2,1,80,0,1
100056,-100,6,2,1,80,0,0
101390,-100,6,2,1,80,0,1
101890,-100,6,2,1,80,0,1
102223,-100,6,2,1,80,0,1
102390,-100,6,2,1,80,0,0
102723,-100,6,2,1,80,0,1
104056,-100,6,2,1,70,0,0
104723,-100,6,2,1,70,0,0
105389,-100,6,2,1,60,0,0
106389,-100,6,2,1,60,0,0
106556,-100,6,2,1,60,0,0
106723,-100,6,2,1,70,0,0
107389,-100,6,2,1,70,0,0
108056,-100,6,2,1,60,0,0
108390,-100,6,2,1,5,0,0
108723,-100,6,2,1,60,0,0
109056,-100,6,2,1,5,0,0
109389,-100,6,2,1,70,0,0
109556,-100,6,2,1,40,0,0
117723,-100,6,2,1,50,0,0
119140,-100,6,2,1,5,0,0
119223,-100,6,2,1,50,0,0
119556,-100,6,2,1,5,0,0
120056,-100,6,2,1,60,0,0

[Colours]
Combo1 : 226,201,114
Combo2 : 166,122,239
Combo3 : 252,88,88
Combo4 : 104,121,242

[HitObjects]
128,192,58,6,0,L|120:143,2,50,6|0|2,3:2|3:0|3:2,0:0:0:0:
384,192,5391,6,0,L|392:143,2,50,6|0|2,3:2|3:0|3:2,0:0:0:0:
82,87,10724,6,0,P|132:93|182:101,1,99.9999999999999,10|2,0:0|3:2,0:0:0:0:
258,36,11391,1,10,0:0:0:0:
313,119,11724,1,2,3:2:0:0:
237,184,12057,6,0,P|215:228|224:276,1,99.9999999999999,6|10,3:0|0:0,0:0:0:0:
330,382,12891,1,10,0:0:0:0:
454,297,13391,6,0,P|475:252|467:203,1,99.9999999999999,10|2,0:0|3:2,0:0:0:0:
382,149,14057,2,0,P|388:98|396:49,1,99.9999999999999,10|2,0:0|3:2,0:0:0:0:
307,1,14724,5,6,3:0:0:0:
235,71,15057,1,10,0:0:0:0:
96,12,15557,1,10,0:0:0:0:
55,156,16057,6,0,B|43:205|43:205|66:248,1,99.9999999999999,10|2,0:0|3:2,0:0:0:0:
164,227,16724,2,0,B|175:177|175:177|152:134,1,99.9999999999999,10|2,0:0|3:2,0:0:0:0:
86,57,17391,6,0,P|128:32|178:35,1,99.9999999999999,6|10,3:0|0:0,0:0:0:0:
286,139,18224,1,10,0:0:0:0:
164,227,18724,6,0,P|121:202|72:205,1,99.9999999999999,10|2,0:0|3:2,0:0:0:0:
0,276,19391,1,10,0:0:0:0:
40,367,19724,1,2,3:2:0:0:
229,303,20391,5,2,0:0:0:0:
311,360,20724,2,0,P|332:315|322:267,1,99.9999999999999,6|2,0:0|0:0,0:0:0:0:
253,194,21391,6,0,P|264:143|277:96,1,99.9999999999999,6|2,3:2|3:2,0:0:0:0:
215,18,22057,1,10,0:0:0:0:
127,67,22391,1,2,3:2:0:0:
48,4,22724,6,0,P|23:46|30:95,1,99.9999999999999,2|2,3:2|3:2,0:0:0:0:
97,168,23391,1,10,0:0:0:0:
15,225,23724,1,2,3:2:0:0:
79,301,24057,6,0,P|127:288|176:277,1,99.9999999999999,2|2,3:2|3:2,0:0:0:0:
242,352,24724,2,0,P|277:317|314:282,1,99.9999999999999,10|2,0:0|3:2,0:0:0:0:
399,334,25391,2,0,P|412:286|427:238,1,99.9999999999999,2|2,3:2|3:2,0:0:0:0:
512,185,26057,1,14,0:0:0:0:
462,96,26391,1,2,3:2:0:0:
372,146,26724,6,0,P|322:148|283:120,1,99.9999999999999,6|2,3:2|3:2,0:0:0:0:
213,48,27391,1,10,0:0:0:0:
310,24,27724,1,2,3:2:0:0:
283,120,28057,6,0,P|269:167|259:216,1,99.9999999999999,2|2,3:2|3:2,0:0:0:0:
232,313,28724,1,10,0:0:0:0:
329,289,29057,1,2,3:2:0:0:
259,217,29391,6,0,P|219:188|169:189,1,99.9999999999999,2|2,3:2|3:2,0:0:0:0:
100,261,30057,2,0,P|69:222|71:173,1,99.9999999999999,10|2,0:0|3:2,0:0:0:0:
87,74,30724,2,0,P|37:72|0:102,2,99.9999999999999,10|2|2,0:0|3:2|3:2,0:0:0:0:
163,138,31724,1,6,3:2:0:0:
211,50,32057,6,0,P|259:63|307:77,1,99.9999999999999,6|2,3:2|3:2,0:0:0:0:
393,27,32724,1,14,0:0:0:0:
444,114,33057,1,2,3:2:0:0:
358,168,33391,6,0,P|333:210|340:259,1,99.9999999999999,2|2,3:2|3:2,0:0:0:0:
403,336,34057,1,14,0:0:0:0:
438,243,34391,1,2,3:2:0:0:
340,259,34724,6,0,P|293:246|244:232,1,99.9999999999999,2|2,3:2|3:2,0:0:0:0:
158,282,35391,1,14,0:0:0:0:
107,195,35724,1,2,3:2:0:0:
193,141,36057,6,0,P|218:99|211:50,1,99.9999999999999,2|10,3:2|0:0,0:0:0:0:
114,77,36724,1,10,0:0:0:0:
193,141,37057,1,2,3:2:0:0:
107,195,37391,6,0,P|92:242|79:291,2,99.9999999999999,6|6|2,3:2|3:2|3:2,0:0:0:0:
193,141,38391,1,2,3:2:0:0:
243,227,38724,2,0,P|228:274|215:323,1,99.9999999999999,2|2,3:2|3:2,0:0:0:0:
299,377,39391,6,0,P|340:351|389:356,2,99.9999999999999,6|6|2,3:2|3:2|3:2,0:0:0:0:
215,323,40391,1,2,3:2:0:0:
255,231,40724,2,0,P|303:236|345:210,1,99.9999999999999,2|2,3:2|3:2,0:0:0:0:
425,266,41390,6,0,P|472:251|520:235,2,99.9999999999999,6|6|2,3:2|3:2|3:2,0:0:0:0:
345,209,42390,1,2,3:2:0:0:
265,152,42724,2,0,P|218:167|170:183,1,99.9999999999999,2|2,3:2|3:2,0:0:0:0:
94,248,43390,6,0,P|67:206|72:157,1,99.9999999999999,6|6,3:2|3:2,0:0:0:0:
170,183,44057,1,4,3:0:0:0:
170,183,45390,6,0,P|217:167|265:152,1,99.9999999999999,6|6,3:2|3:2,0:0:0:0:
312,63,46057,1,2,3:2:0:0:
398,113,46390,2,0,P|425:155|420:204,1,99.9999999999999,2|2,3:2|3:2,0:0:0:0:
375,292,47057,1,2,3:2:0:0:
288,242,47390,6,0,P|261:200|266:151,2,99.9999999999999,6|6|2,3:2|3:2|3:2,0:0:0:0:
375,292,48390,1,2,3:2:0:0:
318,375,48724,2,0,P|270:359|222:344,1,99.9999999999999,2|2,3:2|3:2,0:0:0:0:
124,368,49390,6,0,P|120:319|146:278,1,99.9999999999999,6|6,3:2|3:2,0:0:0:0:
231,225,50057,1,2,3:2:0:0:
148,169,50390,1,2,3:2:0:0:
217,97,50724,2,0,P|264:112|312:127,1,99.9999999999999,10|0,0:0|1:2,0:0:0:0:
402,84,51390,6,0,B|450:153|389:238|343:189|285:277|329:342|329:342|339:290|388:268,1,400,14|4,0:0|3:0,0:0:0:0:
428,362,53057,1,4,3:0:0:0:
498,288,53390,6,0,P|520:244|512:196,1,99.9999999999999,6|6,3:2|3:2,0:0:0:0:
472,104,54057,1,2,3:2:0:0:
403,176,54390,2,0,P|380:219|388:268,1,99.9999999999999,2|2,3:2|3:2,0:0:0:0:
428,362,55057,1,2,3:2:0:0:
328,349,55390,6,0,P|281:364|233:379,2,99.9999999999999,6|6|2,3:2|3:2|3:2,0:0:0:0:
388,268,56390,1,2,3:2:0:0:
297,225,56724,2,0,P|249:240|201:255,1,99.9999999999999,2|2,3:2|3:2,0:0:0:0:
111,212,57390,6,0,P|88:168|96:119,1,99.9999999999999,6|6,3:2|3:2,0:0:0:0:
150,35,58057,1,2,3:2:0:0:
231,92,58390,2,0,B|273:79|273:79|327:113|327:113|367:102,1,150,2|10,3:2|0:0,0:0:0:0:
476,205,59391,6,0,B|440:234|447:277|447:277|468:306|468:306|477:349|442:379,1,200,14|2,0:0|0:0,0:0:0:0:
359,322,60391,1,14,0:0:0:0:
267,362,60724,6,0,B|237:326|253:286|253:286|279:261|279:261|293:220|264:184,1,200,14|10,0:0|0:0,0:0:0:0:
155,80,61891,1,4,3:0:0:0:
288,10,62391,2,0,P|360:25|434:42,1,150,6|6,3:0|3:0,0:0:0:0:
511,170,63390,6,0,B|464:143|405:182|439:206|389:248|337:226,1,200,14|10,0:0|0:0,0:0:0:0:
231,333,64557,1,4,3:0:0:0:
160,200,65057,2,0,P|140:130|180:69,1,150,14|14,0:0|0:0,0:0:0:0:
330,89,66057,5,14,0:0:0:0:
160,200,66724,2,0,P|86:183|13:167,1,150,14|4,0:0|3:0,0:0:0:0:
28,317,67724,2,0,P|76:305|124:295,1,99.9999999999999,6|2,3:0|3:2,0:0:0:0:
160,200,68390,1,2,0:0:0:0:
195,105,68724,6,0,P|243:93|292:83,1,99.9999999999999,14|0,0:0|0:0,0:0:0:0:
356,7,69390,2,0,P|397:67|378:137,1,150,14|10,0:0|0:0,0:0:0:0:
300,265,70390,6,0,P|226:247|153:232,1,150,10|14,0:0|0:0,0:0:0:0:
44,335,71390,1,14,0:0:0:0:
0,139,72057,6,0,P|48:127|97:115,1,99.9999999999999,6|2,3:2|3:2,0:0:0:0:
150,30,72723,1,10,0:0:0:0:
235,83,73057,1,2,3:2:0:0:
183,170,73390,6,0,P|176:218|201:260,1,99.9999999999999,2|2,3:2|3:2,0:0:0:0:
272,330,74057,1,10,0:0:0:0:
297,233,74390,1,2,3:2:0:0:
202,261,74723,6,0,P|153:273|105:287,1,99.9999999999999,2|2,3:2|3:2,0:0:0:0:
34,215,75390,2,0,P|82:202|130:188,1,99.9999999999999,10|2,0:0|3:2,0:0:0:0:
156,91,76057,2,0,P|107:104|59:117,1,99.9999999999999,2|2,3:2|3:2,0:0:0:0:
34,215,76723,1,14,0:0:0:0:
105,287,77057,1,2,3:2:0:0:
183,224,77390,6,0,P|231:217|273:242,1,99.9999999999999,6|2,3:2|3:2,0:0:0:0:
344,313,78057,1,10,0:0:0:0:
247,339,78390,1,2,3:2:0:0:
274,242,78723,6,0,P|286:193|300:145,1,99.9999999999999,2|2,3:2|3:2,0:0:0:0:
331,50,79390,1,10,0:0:0:0:
233,71,79723,1,2,3:2:0:0:
300,146,80057,6,0,P|339:174|389:173,1,99.9999999999999,10|10,0:0|0:0,0:0:0:0:
420,78,80723,2,0,P|380:49|330:50,1,99.9999999999999,10|10,0:0|0:0,0:0:0:0:
233,71,81390,2,0,P|185:58|137:44,1,99.9999999999999,10|10,0:0|0:0,0:0:0:0:
55,102,82056,1,2,3:2:0:0:
154,286,82723,6,0,P|202:273|250:259,1,99.9999999999999,6|2,3:2|3:2,0:0:0:0:
336,309,83390,1,10,0:0:0:0:
387,222,83723,1,0,3:0:0:0:
301,168,84057,6,0,P|276:126|283:77,1,99.9999999999999,2|0,3:2|3:0,0:0:0:0:
346,0,84723,1,14,0:0:0:0:
381,93,85057,1,0,3:0:0:0:
283,77,85390,6,0,P|212:96|139:117,1,150,14|6,0:0|3:0,0:0:0:0:
59,244,86390,1,2,3:2:0:0:
122,320,86723,2,0,B|170:343|226:300|191:279|238:233|291:251,1,200,14|6,0:0|3:0,0:0:0:0:
368,314,87723,1,2,3:2:0:0:
424,231,88056,6,0,P|430:182|405:140,1,99.9999999999999,6|2,3:2|3:2,0:0:0:0:
325,83,88723,1,8,0:0:0:0:
270,166,89056,1,0,3:0:0:0:
187,109,89390,6,0,P|139:123|90:136,1,99.9999999999999,2|0,3:2|3:0,0:0:0:0:
17,68,90056,1,14,0:0:0:0:
112,36,90390,1,2,3:2:0:0:
91,136,90723,6,0,B|106:192|106:192|58:263|58:263|71:317,1,200,10|6,0:0|3:0,0:0:0:0:
149,379,91723,1,2,3:2:0:0:
198,292,92056,2,0,P|296:271|393:248,1,200,10|6,0:0|3:0,0:0:0:0:
444,161,93056,1,2,3:2:0:0:
364,100,93390,6,0,P|315:111|266:123,1,99.9999999999999,6|2,3:2|3:2,0:0:0:0:
181,69,94056,2,0,P|161:138|201:199,1,150,14|2,0:0|3:2,0:0:0:0:
278,264,94890,1,10,0:0:0:0:
195,319,95223,2,0,B|159:305|120:333|141:348|102:375|62:363,1,150,2|14,3:2|0:0,0:0:0:0:
0,284,96056,1,0,3:2:0:0:
49,196,96390,6,0,B|89:176|89:176|187:213,1,150,10|10,0:0|0:0,0:0:0:0:
326,270,97390,1,0,3:0:0:0:
404,207,97723,6,0,P|384:134|363:62,1,150,10|10,0:0|0:0,0:0:0:0:
225,2,98723,1,0,3:0:0:0:
160,78,99056,6,0,P|139:147|179:208,1,150,10|10,0:0|0:0,0:0:0:0:
277,321,100056,2,0,B|237:300|237:300|138:335,1,150,10|2,3:2|3:2,0:0:0:0:
43,368,100890,1,10,0:0:0:0:
3,223,101390,6,0,P|74:199|145:174,1,150,14|2,0:0|3:2,0:0:0:0:
239,140,102223,1,10,0:0:0:0:
333,23,102723,6,0,P|349:70|366:118,1,99.9999999999999,10|10,0:0|0:0,0:0:0:0:
455,162,103390,1,0,3:0:0:0:
411,253,103723,1,2,3:2:0:0:
320,208,104056,6,0,P|273:224|226:241,1,99.9999999999999,10|2,0:0|3:2,0:0:0:0:
154,311,104723,2,0,P|106:295|59:278,1,99.9999999999999,10|2,0:0|3:2,0:0:0:0:
31,181,105390,5,6,3:0:0:0:
106,115,105723,2,0,P|178:106|230:156,1,150,10|10,0:0|0:0,0:0:0:0:
368,97,106723,6,0,P|384:144|401:192,1,99.9999999999999,10|2,0:0|3:2,0:0:0:0:
488,236,107390,1,10,0:0:0:0:
446,327,107723,1,2,3:2:0:0:
355,282,108056,6,0,B|304:265|254:314|291:331|250:382|195:371,2,200,2|2|6,0:0|0:0|3:2,0:0:0:0:
256,192,109556,12,6,114723,3:2:0:0:
54,244,117723,5,2,0:0:0:0:
121,317,118056,2,0,P|167:302|215:286,1,99.9999999999999,2|2,0:0|0:0,0:0:0:0:
285,359,118723,1,2,0:0:0:0:
374,238,119223,6,0,B|414:180|363:109|324:150|276:76|312:23,1,250,2|4,0:0|3:0,0:0:0:0:
