osu file format v14

[General]
AudioFilename: audio.mp3
AudioLeadIn: 0
PreviewTime: -1
Countdown: 0
SampleSet: None
StackLeniency: 0.7
Mode: 0
LetterboxInBreaks: 0
WidescreenStoryboard: 0

[Editor]
Bookmarks: 450108
DistanceSpacing: 2.6
BeatDivisor: 4
GridSize: 4
TimelineZoom: 1.4

[Metadata]
Title:End of an Empire
TitleUnicode:End of an Empire
Artist:Celldweller
ArtistUnicode:Celldweller
Creator:Skellen
Version:Downfall
Source:
Tags:
BeatmapID:980061
BeatmapSetID:457358

[Difficulty]
HPDrainRate:7
CircleSize:4.5
OverallDifficulty:8.5
ApproachRate:9.5
SliderMultiplier:1.4
SliderTickRate:1

[Events]
//Background and Video events
0,0,"407491747.jpg",0,0
//Break Periods
2,307331,312434
//Storyboard Layer 0 (Background)
//Storyboard Layer 1 (Fail)
//Storyboard Layer 2 (Pass)
//Storyboard Layer 3 (Foreground)
//Storyboard Sound Samples

[TimingPoints]
274,685.714285714286,4,2,0,40,1,0
66102,-100,4,1,0,50,0,0
71588,-66.6666666666667,4,3,0,60,0,0
125074,-66.6666666666667,4,1,0,60,0,0
131931,-66.6666666666667,4,3,0,60,0,1
159359,-66.6666666666667,4,3,0,60,0,0
165531,-66.6666666666667,4,1,0,60,0,0
167588,-66.6666666666667,4,3,0,60,0,0
190902,-66.6666666666667,4,1,0,60,0,0
203245,-66.6666666666667,4,3,0,60,0,1
230674,-66.6666666666667,4,3,0,60,0,0
252616,-100,4,2,0,40,0,0
312959,-66.6666666666667,4,3,0,50,0,0
334902,-66.6666666666667,4,3,0,60,0,1
373302,-50,4,3,0,60,0,0
416502,-66.6666666666667,4,1,0,60,0,0
417188,-50,4,3,0,60,0,0
432959,-66.6666666666667,4,1,0,60,0,0
433645,-50,4,3,0,60,0,0
436388,-66.6666666666667,4,1,0,60,0,0
439131,-50,4,3,0,60,0,0

[Colours]
Combo1 : 192,192,192
Combo2 : 255,40,40
Combo3 : 244,250,37
Combo4 : 0,191,255

[HitObjects]
156,40,274,6,0,B|244:160|244:160|312:40|312:40|392:172|392:172|496:172,1,525
308,168,3016,6,0,B|244:292|244:292|168:176|168:176|92:296|92:296|48:200,1,525
148,40,5759,6,0,B|232:152|232:152|312:40|312:40|388:156|388:156|456:68,1,525
456,144,8502,6,0,B|484:220|484:220|424:204|424:204|464:268|464:268|408:244|408:244|428:324|428:324|384:288|384:288|384:336|384:336|320:300,1,525
248,336,11245,6,0,B|164:340|80:280|80:192|80:192|268:192|268:192|344:144,1,525
348,256,13988,6,0,B|400:248|444:240|460:208|464:168|448:112|448:112|368:48|368:48|344:64|280:88|160:40,1,525
80,52,16731,6,0,B|64:88|64:188|136:296|272:272|272:272|168:172|168:172|208:172,1,525
184,92,19474,6,0,B|212:64|288:36|396:40|452:104|452:104|396:172|440:232|440:232|340:320,1,560
300,228,22559,5,0,0:0:0:0:
372,168,22902,1,0,0:0:0:0:
384,80,23245,2,0,P|348:56|304:44,1,70
224,80,23931,1,0,0:0:0:0:
144,136,24274,1,0,0:0:0:0:
116,228,24616,6,0,P|132:264|156:280,1,70
192,216,25302,2,0,P|224:192|348:180,1,140
56,88,28045,6,0,L|84:128,1,46.6666666666667
128,184,28388,1,0,0:0:0:0:
196,136,28731,2,0,P|236:128|320:184,1,140
320,256,29759,1,0,0:0:0:0:
220,288,30102,2,0,P|204:284|80:308,2,140
72,88,33531,5,0,0:0:0:0:
172,112,33874,1,0,0:0:0:0:
216,200,34216,2,0,P|260:196|292:112,1,140
352,44,35245,1,0,0:0:0:0:
444,116,35588,2,0,P|460:152|436:256,2,140
112,328,39016,6,0,L|112:280,1,35
112,208,39359,1,0,0:0:0:0:
168,136,39702,2,0,P|208:156|296:112,1,140
360,72,40731,1,0,0:0:0:0:
424,132,41074,2,0,P|424:168|376:264,2,140
276,236,43474,5,0,0:0:0:0:
268,256,43816,1,0,0:0:0:0:
160,328,44159,6,0,P|120:304|88:212,2,140
256,152,46216,5,0,0:0:0:0:
236,120,46559,1,0,0:0:0:0:
152,56,46902,6,0,P|116:88|104:192,2,140
240,240,48959,5,0,0:0:0:0:
216,264,49302,1,0,0:0:0:0:
108,328,49645,6,0,P|84:292|80:256,1,70
144,216,50331,2,0,P|140:172|144:144,1,70
232,132,51016,2,0,P|248:96|272:64,1,70
356,104,51702,2,0,P|400:80|432:80,1,70
456,236,52388,5,0,0:0:0:0:
384,336,52731,2,0,L|356:296,1,35
292,280,53074,1,0,0:0:0:0:
228,336,53416,2,0,P|200:316|152:220,1,140
164,136,54445,1,0,0:0:0:0:
164,136,54788,1,0,0:0:0:0:
252,56,55131,6,0,L|300:64,1,35
352,96,55474,2,0,P|344:140|328:176,1,70
260,216,56159,1,0,0:0:0:0:
260,216,56331,1,0,0:0:0:0:
176,196,56502,2,0,L|144:188,2,17.5
128,104,56845,1,0,0:0:0:0:
232,104,57188,5,0,0:0:0:0:
232,104,57359,1,0,0:0:0:0:
280,40,57531,2,0,L|320:76,1,35
344,144,57874,2,0,L|296:184,2,35
408,244,58559,1,0,0:0:0:0:
408,244,58731,1,0,0:0:0:0:
336,296,58902,2,0,L|308:256,1,35
228,272,59245,5,0,0:0:0:0:
156,248,59416,1,0,0:0:0:0:
92,212,59588,2,0,L|84:168,1,35
96,92,59931,2,0,P|132:112|172:112,1,70
232,56,60616,1,0,0:0:0:0:
304,72,60788,1,0,0:0:0:0:
352,136,60959,6,0,L|352:184,1,35
288,280,61302,2,0,L|280:236,1,35
232,168,61645,1,0,0:0:0:0:
156,144,61816,1,0,0:0:0:0:
96,196,61988,2,0,L|96:244,1,35
168,324,62331,2,0,L|156:276,1,35
252,220,62674,6,0,P|216:188|184:176,1,70
120,172,63188,1,0,0:0:0:0:
48,132,63359,2,0,L|76:108,1,35
168,72,63702,2,0,L|132:48,1,35
248,40,64045,6,0,P|300:56|312:72,1,70
316,140,64559,1,0,0:0:0:0:
328,224,64731,2,0,L|368:232,1,35
464,308,65074,2,0,L|416:312,1,35
340,328,65416,2,0,P|312:336|260:320,1,70
128,312,66102,5,0,0:0:0:0:
64,232,66445,1,0,0:0:0:0:
56,136,66788,2,0,L|136:124,1,70
164,44,67474,2,0,L|204:120,1,70
240,168,67988,1,0,0:0:0:0:
296,108,68159,2,0,L|300:68,1,35
368,48,68502,1,0,0:0:0:0:
416,112,68674,1,0,0:0:0:0:
412,232,68845,5,0,0:0:0:0:
284,328,69188,1,0,0:0:0:0:
156,280,69531,1,0,0:0:0:0:
92,216,69702,1,0,0:0:0:0:
224,192,69874,1,0,0:0:0:0:
244,112,70045,1,0,0:0:0:0:
125,114,70216,1,0,0:0:0:0:
125,114,70302,1,0,0:0:0:0:
125,114,70388,1,0,0:0:0:0:
220,45,70559,5,0,0:0:0:0:
232,57,70645,1,0,0:0:0:0:
244,69,70731,1,0,0:0:0:0:
325,183,70902,5,0,0:0:0:0:
342,178,70988,1,0,0:0:0:0:
354,165,71074,1,0,0:0:0:0:
364,151,71159,1,0,0:0:0:0:
372,135,71245,1,0,0:0:0:0:
378,118,71331,1,0,0:0:0:0:
382,101,71416,1,0,0:0:0:0:
384,83,71502,1,0,0:0:0:0:
384,72,71588,6,0,B|456:108|456:108|436:160,1,105.000004005432
460,196,72016,1,0,0:0:0:0:
464,264,72102,1,0,0:0:0:0:
420,316,72188,1,0,0:0:0:0:
344,308,72274,2,0,L|296:280,1,52.5000020027161
152,260,72616,2,0,L|220:248,1,52.5000020027161
324,132,72959,6,0,B|284:64|284:64|264:84,1,105.000004005432
216,128,73388,1,0,0:0:0:0:
152,160,73474,1,0,0:0:0:0:
124,224,73559,1,0,0:0:0:0:
88,280,73645,2,0,L|136:328,1,52.5000020027161
256,324,73988,2,0,L|188:324,1,52.5000020027161
116,324,74331,5,0,0:0:0:0:
48,244,74674,1,0,0:0:0:0:
48,128,75016,1,0,0:0:0:0:
68,88,75188,1,0,0:0:0:0:
124,56,75359,1,0,0:0:0:0:
200,48,75531,1,0,0:0:0:0:
164,148,75702,5,0,0:0:0:0:
256,176,75874,1,0,0:0:0:0:
340,128,76045,1,0,0:0:0:0:
440,160,76216,1,0,0:0:0:0:
472,244,76388,1,0,0:0:0:0:
316,192,76559,5,0,0:0:0:0:
180,276,76731,1,0,0:0:0:0:
176,120,76902,1,0,0:0:0:0:
248,40,77074,2,0,L|328:72,1,52.5000020027161
464,44,77416,2,0,L|412:72,1,52.5000020027161
420,220,77759,5,0,0:0:0:0:
388,280,77844,1,0,0:0:0:0:
328,252,77930,1,0,0:0:0:0:
296,196,78016,1,0,0:0:0:0:
284,132,78102,2,0,L|216:156,1,52.5000020027161
72,164,78445,2,0,L|128:144,1,52.5000020027161
128,336,78788,2,0,L|104:284,1,52.5000020027161
168,180,79130,5,0,0:0:0:0:
216,132,79216,1,0,0:0:0:0:
272,96,79301,1,0,0:0:0:0:
336,76,79388,1,0,0:0:0:0:
400,100,79474,2,0,L|452:144,1,52.5000020027161
448,292,79816,2,0,L|420:236,1,52.5000020027161
264,276,80159,2,0,L|324:256,1,52.5000020027161
360,136,80502,5,0,0:0:0:0:
324,80,80588,1,0,0:0:0:0:
260,64,80674,1,0,0:0:0:0:
208,104,80759,1,0,0:0:0:0:
156,144,80845,2,0,L|100:132,1,52.5000020027161
64,200,81188,1,0,0:0:0:0:
128,336,81359,1,0,0:0:0:0:
236,132,81531,2,0,L|272:188,1,52.5000020027161
320,300,81874,5,0,0:0:0:0:
384,284,81960,1,0,0:0:0:0:
436,244,82045,1,0,0:0:0:0:
464,184,82131,1,0,0:0:0:0:
440,124,82216,2,0,L|392:164,1,52.5000020027161
317,204,82559,1,0,0:0:0:0:
170,109,82731,1,0,0:0:0:0:
208,312,82902,2,0,L|184:241,1,52.5000020027161
64,176,83245,5,0,0:0:0:0:
88,116,83331,1,0,0:0:0:0:
148,84,83417,1,0,0:0:0:0:
176,144,83502,1,0,0:0:0:0:
236,168,83588,2,0,L|284:124,1,52.5000020027161
368,60,83931,1,0,0:0:0:0:
412,264,84102,1,0,0:0:0:0:
320,296,84274,2,0,L|252:316,1,52.5000020027161
52,280,84616,2,0,L|108:276,1,52.5000020027161
228,212,84959,5,0,0:0:0:0:
288,184,85044,1,0,0:0:0:0:
324,128,85130,1,0,0:0:0:0:
328,60,85216,1,0,0:0:0:0:
260,64,85302,2,0,L|208:112,1,52.5000020027161
44,256,85645,2,0,L|80:208,1,52.5000020027161
300,68,85988,2,0,L|264:112,1,52.5000020027161
100,256,86331,2,0,L|160:200,1,52.5000020027161
316,320,86674,6,0,P|312:256|288:216,1,105.000004005432
172,128,87188,1,0,0:0:0:0:
364,48,87359,2,0,P|416:84|440:136,1,105.000004005432
400,268,87874,1,0,0:0:0:0:
260,304,88045,5,0,0:0:0:0:
148,144,88216,1,0,0:0:0:0:
324,40,88388,2,0,L|304:108,1,52.5000020027161
272,224,88731,5,0,0:0:0:0:
224,268,88817,1,0,0:0:0:0:
160,244,88902,1,0,0:0:0:0:
152,180,88988,1,0,0:0:0:0:
124,120,89074,2,0,L|80:168,1,52.5000020027161
64,296,89416,1,0,0:0:0:0:
280,140,89588,1,0,0:0:0:0:
380,308,89759,2,0,L|416:256,1,52.5000020027161
208,224,90102,5,0,0:0:0:0:
260,184,90188,1,0,0:0:0:0:
252,120,90274,1,0,0:0:0:0:
192,88,90359,1,0,0:0:0:0:
124,92,90445,2,0,L|92:144,1,52.5000020027161
56,296,90788,1,0,0:0:0:0:
264,196,90959,1,0,0:0:0:0:
180,312,91131,2,0,L|248:320,1,52.5000020027161
432,276,91474,5,0,0:0:0:0:
440,208,91560,1,0,0:0:0:0:
416,144,91645,1,0,0:0:0:0:
360,108,91731,1,0,0:0:0:0:
296,88,91816,2,0,L|260:140,1,52.5000020027161
156,336,92159,1,0,0:0:0:0:
52,132,92331,1,0,0:0:0:0:
308,244,92502,1,0,0:0:0:0:
140,208,92674,1,0,0:0:0:0:
224,64,92845,5,0,0:0:0:0:
292,60,92931,1,0,0:0:0:0:
352,88,93017,1,0,0:0:0:0:
316,144,93102,1,0,0:0:0:0:
288,204,93188,2,0,L|352:248,1,52.5000020027161
400,328,93531,1,0,0:0:0:0:
156,344,93702,1,0,0:0:0:0:
36,224,93874,2,0,L|52:276,1,52.5000020027161
168,232,94216,5,0,0:0:0:0:
224,196,94301,1,0,0:0:0:0:
268,244,94387,1,0,0:0:0:0:
320,200,94474,1,0,0:0:0:0:
368,156,94559,2,0,L|424:188,1,52.5000020027161
288,72,94902,1,0,0:0:0:0:
96,136,95074,1,0,0:0:0:0:
80,340,95245,2,0,L|44:292,1,52.5000020027161
192,240,95588,5,0,0:0:0:0:
252,208,95674,1,0,0:0:0:0:
308,244,95760,1,0,0:0:0:0:
372,260,95845,1,0,0:0:0:0:
440,260,95931,2,0,L|476:200,1,52.5000020027161
424,68,96274,6,0,L|376:104,1,52.5000020027161
252,104,96616,1,0,0:0:0:0:
96,244,96788,1,0,0:0:0:0:
192,324,96959,2,0,L|184:256,1,52.5000020027161
112,44,97302,2,0,L|144:112,1,52.5000020027161
80,324,97645,1,0,0:0:0:0:
236,88,97816,1,0,0:0:0:0:
424,176,97988,2,0,L|360:192,1,52.5000020027161
260,336,98331,2,0,P|216:304|176:240,2,105.000004005432
256,44,99359,6,0,L|256:128,1,52.5000020027161
368,188,101759,6,0,L|396:236,1,52.5000020027161
168,316,102102,2,0,L|136:260,1,52.5000020027161
88,132,102445,1,0,0:0:0:0:
148,156,102531,1,0,0:0:0:0:
204,124,102617,1,0,0:0:0:0:
264,156,102702,1,0,0:0:0:0:
332,152,102788,6,0,L|368:208,1,52.5000020027161
332,320,103131,1,0,0:0:0:0:
108,340,103302,1,0,0:0:0:0:
280,236,103474,1,0,0:0:0:0:
52,216,103645,1,0,0:0:0:0:
112,48,103816,2,0,L|156:132,1,52.5000020027161
312,284,104159,2,0,L|256:212,1,52.5000020027161
124,232,104502,1,0,0:0:0:0:
336,68,104845,6,0,L|232:144,1,105.000004005432
388,216,105359,1,0,0:0:0:0:
132,176,105531,1,0,0:0:0:0:
140,240,105616,1,0,0:0:0:0:
192,284,105702,1,0,0:0:0:0:
260,288,105788,1,0,0:0:0:0:
316,248,105874,2,0,L|336:216,2,26.2500010013581
44,336,106216,6,0,L|120:252,1,105.000004005432
76,204,106645,1,0,0:0:0:0:
100,180,106731,2,0,L|152:220,1,52.5000020027161
244,180,106988,1,0,0:0:0:0:
264,156,107074,1,0,0:0:0:0:
288,128,107159,1,0,0:0:0:0:
304,108,107245,6,0,L|356:152,1,52.5000020027161
396,224,107588,1,0,0:0:0:0:
112,336,107759,1,0,0:0:0:0:
280,212,107931,1,0,0:0:0:0:
104,104,108102,1,0,0:0:0:0:
32,248,108274,2,0,L|124:272,1,52.5000020027161
248,328,108616,1,0,0:0:0:0:
184,228,108788,1,0,0:0:0:0:
204,72,108959,2,0,L|248:128,1,52.5000020027161
400,168,109302,2,0,P|388:236|344:268,2,105.000004005432
48,192,110331,6,0,L|184:192,1,105.000004005432
208,236,110759,1,0,0:0:0:0:
268,204,110845,1,0,0:0:0:0:
296,140,110931,1,0,0:0:0:0:
320,76,111016,2,0,L|352:88,3,26.2500010013581
388,324,111702,1,0,0:0:0:0:
112,272,112045,2,0,L|180:272,1,52.5000020027161
348,156,112388,2,0,L|308:196,1,52.5000020027161
188,32,112731,6,0,L|208:84,1,52.5000020027161
136,208,113074,1,0,0:0:0:0:
352,100,113245,1,0,0:0:0:0:
296,296,113416,1,0,0:0:0:0:
108,152,113588,1,0,0:0:0:0:
412,196,113759,2,0,L|336:200,1,52.5000020027161
264,180,114102,1,0,0:0:0:0:
148,40,114274,1,0,0:0:0:0:
96,232,114445,1,0,0:0:0:0:
340,272,114616,1,0,0:0:0:0:
240,136,114788,2,0,P|280:88|328:80,2,105.000004005432
256,340,115816,6,0,L|256:228,1,105.000004005432
188,224,116245,1,0,0:0:0:0:
140,168,116331,1,0,0:0:0:0:
168,104,116416,1,0,0:0:0:0:
236,92,116502,2,0,L|268:100,5,26.2500010013581
412,192,117188,1,0,0:0:0:0:
156,332,117531,2,0,L|192:288,1,52.5000020027161
240,248,117788,1,0,0:0:0:0:
296,212,117874,1,0,0:0:0:0:
364,208,117959,1,0,0:0:0:0:
432,224,118045,1,0,0:0:0:0:
476,276,118131,1,0,0:0:0:0:
420,324,118216,6,0,L|376:288,1,52.5000020027161
296,40,118559,1,0,0:0:0:0:
216,228,118731,1,0,0:0:0:0:
416,76,118902,1,0,0:0:0:0:
152,240,119074,1,0,0:0:0:0:
64,64,119245,2,0,L|68:140,1,52.5000020027161
76,340,119588,2,0,L|116:304,1,52.5000020027161
312,56,119931,2,0,L|276:120,1,52.5000020027161
368,112,120273,5,0,0:0:0:0:
408,168,120359,1,0,0:0:0:0:
420,236,120445,1,0,0:0:0:0:
392,300,120531,1,0,0:0:0:0:
328,320,120616,1,0,0:0:0:0:
268,292,120701,1,0,0:0:0:0:
232,236,120787,1,0,0:0:0:0:
228,168,120874,1,0,0:0:0:0:
232,100,120959,6,0,L|308:100,1,52.5000020027161
388,216,121302,2,0,L|368:160,1,52.5000020027161
276,288,121645,2,0,P|220:280|172:188,1,157.500006008148
248,212,122331,2,0,P|240:160|144:116,1,157.500006008148
120,180,123016,2,0,P|92:72|136:40,1,157.500006008148
152,112,123702,2,0,B|208:112|304:60|304:60|400:108|416:192|416:192|384:284,1,420.000016021729
390,265,125159,5,0,0:0:0:0:
390,265,125245,1,0,0:0:0:0:
212,280,125416,1,0,0:0:0:0:
212,280,125502,1,0,0:0:0:0:
212,280,125588,1,0,0:0:0:0:
88,136,125759,1,0,0:0:0:0:
120,100,125845,1,0,0:0:0:0:
164,72,125931,1,0,0:0:0:0:
208,52,126016,1,0,0:0:0:0:
244,44,126102,6,0,L|292:72,1,52.5000020027161
320,188,126445,2,0,P|360:136|368:84,1,105.000004005432
436,244,127131,2,0,P|420:312|416:360,1,105.000004005432
304,272,127645,1,0,0:0:0:0:
156,204,127816,2,0,P|228:200|276:168,1,105.000004005432
120,48,128502,2,0,P|88:120|80:164,1,105.000004005432
200,280,129188,5,0,0:0:0:0:
376,124,129359,1,0,0:0:0:0:
328,284,129531,1,0,0:0:0:0:
164,120,129702,1,0,0:0:0:0:
424,200,129874,5,0,0:0:0:0:
136,200,130045,1,0,0:0:0:0:
280,72,130216,1,0,0:0:0:0:
280,332,130388,1,0,0:0:0:0:
132,96,130559,5,0,0:0:0:0:
432,176,130731,1,0,0:0:0:0:
160,336,130902,1,0,0:0:0:0:
312,48,131074,1,0,0:0:0:0:
312,48,131245,2,0,P|368:88|376:184,1,157.500006008148
238,218,131931,5,0,0:0:0:0:
238,218,132016,1,0,0:0:0:0:
238,218,132102,1,0,0:0:0:0:
132,300,132274,2,0,L|104:248,1,52.5000020027161
56,104,132616,2,0,L|112:88,1,52.5000020027161
240,224,132959,1,0,0:0:0:0:
240,224,133045,1,0,0:0:0:0:
240,224,133131,1,0,0:0:0:0:
328,60,133302,6,0,L|344:112,1,52.5000020027161
408,228,133645,1,0,0:0:0:0:
252,344,133816,2,0,L|268:284,1,52.5000020027161
265,293,134074,1,0,0:0:0:0:
265,293,134159,1,0,0:0:0:0:
116,248,134331,5,0,0:0:0:0:
196,60,134502,1,0,0:0:0:0:
352,220,134674,2,0,L|388:264,2,52.5000020027161
352,220,135102,5,0,0:0:0:0:
352,220,135188,1,0,0:0:0:0:
272,48,135359,1,0,0:0:0:0:
152,244,135531,1,0,0:0:0:0:
280,304,135702,1,0,0:0:0:0:
304,300,135788,1,0,0:0:0:0:
328,292,135874,1,0,0:0:0:0:
352,280,135959,1,0,0:0:0:0:
376,264,136045,6,0,L|352:192,1,52.5000020027161
360,40,136388,2,0,L|384:96,1,52.5000020027161
264,152,136731,1,0,0:0:0:0:
184,300,136902,1,0,0:0:0:0:
96,88,137074,1,0,0:0:0:0:
296,288,137245,1,0,0:0:0:0:
420,216,137416,6,0,P|432:188|432:144,1,52.5000020027161
232,48,137759,2,0,L|272:104,1,52.5000020027161
260,288,138102,2,0,L|312:256,1,52.5000020027161
112,196,138445,1,0,0:0:0:0:
112,196,138531,1,0,0:0:0:0:
112,196,138616,1,0,0:0:0:0:
192,72,138788,6,0,P|216:96|244:112,1,52.5000020027161
276,228,139131,1,0,0:0:0:0:
376,56,139302,1,0,0:0:0:0:
408,276,139474,2,0,L|376:216,1,52.5000020027161
248,312,139816,1,0,0:0:0:0:
220,312,139902,1,0,0:0:0:0:
192,308,139988,1,0,0:0:0:0:
168,300,140074,1,0,0:0:0:0:
144,288,140159,6,0,L|148:228,1,52.5000020027161
184,48,140502,2,0,L|252:80,1,52.5000020027161
400,120,140845,1,0,0:0:0:0:
416,144,140931,1,0,0:0:0:0:
432,164,141016,1,0,0:0:0:0:
308,296,141188,1,0,0:0:0:0:
296,272,141274,1,0,0:0:0:0:
284,248,141359,1,0,0:0:0:0:
192,88,141531,6,0,L|124:112,1,52.5000020027161
48,200,141874,1,0,0:0:0:0:
228,320,142045,1,0,0:0:0:0:
288,176,142216,1,0,0:0:0:0:
312,180,142302,1,0,0:0:0:0:
336,184,142388,1,0,0:0:0:0:
432,332,142559,1,0,0:0:0:0:
416,312,142645,1,0,0:0:0:0:
400,292,142731,1,0,0:0:0:0:
216,336,142902,5,0,0:0:0:0:
160,288,143074,1,0,0:0:0:0:
128,224,143245,1,0,0:0:0:0:
128,224,143331,1,0,0:0:0:0:
128,224,143416,1,0,0:0:0:0:
128,148,143588,2,0,L|204:152,1,52.5000020027161
388,60,143931,2,0,L|344:96,1,52.5000020027161
412,232,144274,5,0,0:0:0:0:
412,260,144359,1,0,0:0:0:0:
404,284,144445,1,0,0:0:0:0:
392,308,144531,1,0,0:0:0:0:
376,328,144616,2,0,L|312:360,1,52.5000020027161
172,264,144959,1,0,0:0:0:0:
160,60,145131,1,0,0:0:0:0:
308,164,145302,1,0,0:0:0:0:
80,220,145474,1,0,0:0:0:0:
272,320,145645,6,0,L|252:272,1,52.5000020027161
104,64,145988,2,0,L|152:108,1,52.5000020027161
84,280,146331,1,0,0:0:0:0:
108,272,146416,1,0,0:0:0:0:
132,260,146502,1,0,0:0:0:0:
236,56,146674,1,0,0:0:0:0:
336,200,146845,1,0,0:0:0:0:
292,340,147016,6,0,L|232:296,1,52.5000020027161
56,196,147359,2,0,L|112:164,1,52.5000020027161
220,52,147702,1,0,0:0:0:0:
360,232,147874,1,0,0:0:0:0:
160,284,148045,1,0,0:0:0:0:
152,260,148131,1,0,0:0:0:0:
152,232,148216,1,0,0:0:0:0:
304,76,148388,6,0,L|352:96,1,52.5000020027161
364,332,148731,2,0,L|300:348,1,52.5000020027161
144,176,149074,1,0,0:0:0:0:
168,188,149159,1,0,0:0:0:0:
188,204,149245,1,0,0:0:0:0:
180,332,149416,1,0,0:0:0:0:
352,196,149588,1,0,0:0:0:0:
280,52,149759,5,0,0:0:0:0:
280,80,149845,1,0,0:0:0:0:
276,108,149931,1,0,0:0:0:0:
160,260,150102,1,0,0:0:0:0:
148,236,150188,1,0,0:0:0:0:
144,208,150274,1,0,0:0:0:0:
76,48,150445,2,0,L|140:72,1,52.5000020027161
384,264,150788,2,0,L|312:264,1,52.5000020027161
124,272,151131,5,0,0:0:0:0:
272,68,151302,1,0,0:0:0:0:
268,312,151474,1,0,0:0:0:0:
384,216,151645,1,0,0:0:0:0:
176,172,151816,1,0,0:0:0:0:
200,160,151902,1,0,0:0:0:0:
220,144,151988,1,0,0:0:0:0:
408,136,152159,1,0,0:0:0:0:
420,160,152245,1,0,0:0:0:0:
440,176,152331,1,0,0:0:0:0:
308,312,152502,6,0,L|372:348,1,52.5000020027161
272,132,152845,2,0,L|216:88,1,52.5000020027161
92,224,153188,1,0,0:0:0:0:
116,236,153274,1,0,0:0:0:0:
136,252,153359,1,0,0:0:0:0:
328,148,153531,1,0,0:0:0:0:
344,128,153616,1,0,0:0:0:0:
368,116,153702,1,0,0:0:0:0:
328,312,153874,6,0,L|256:292,1,52.5000020027161
152,72,154216,2,0,L|224:88,1,52.5000020027161
132,276,154559,1,0,0:0:0:0:
156,264,154645,1,0,0:0:0:0:
180,260,154731,1,0,0:0:0:0:
320,128,154902,1,0,0:0:0:0:
296,140,154988,1,0,0:0:0:0:
268,144,155074,1,0,0:0:0:0:
84,112,155245,5,0,0:0:0:0:
348,248,155416,1,0,0:0:0:0:
132,276,155588,1,0,0:0:0:0:
312,64,155759,1,0,0:0:0:0:
404,184,155931,1,0,0:0:0:0:
424,204,156016,1,0,0:0:0:0:
436,228,156102,1,0,0:0:0:0:
244,320,156274,1,0,0:0:0:0:
232,296,156359,1,0,0:0:0:0:
228,268,156445,1,0,0:0:0:0:
236,112,156616,2,0,L|216:84,2,26.2500010013581
412,200,156959,2,0,L|360:236,1,52.5000020027161
284,328,157302,5,0,0:0:0:0:
256,328,157388,1,0,0:0:0:0:
232,316,157474,1,0,0:0:0:0:
212,300,157559,1,0,0:0:0:0:
196,284,157645,1,0,0:0:0:0:
184,268,157731,1,0,0:0:0:0:
176,248,157816,1,0,0:0:0:0:
168,228,157902,1,0,0:0:0:0:
168,212,157988,5,0,0:0:0:0:
172,196,158074,1,0,0:0:0:0:
176,180,158159,1,0,0:0:0:0:
180,164,158245,1,0,0:0:0:0:
188,152,158331,1,0,0:0:0:0:
200,140,158416,1,0,0:0:0:0:
212,132,158502,1,0,0:0:0:0:
224,124,158588,1,0,0:0:0:0:
260,112,158674,5,0,0:0:0:0:
296,108,158759,1,0,0:0:0:0:
332,116,158845,1,0,0:0:0:0:
356,144,158931,1,0,0:0:0:0:
364,180,159016,1,0,0:0:0:0:
348,212,159102,1,0,0:0:0:0:
316,228,159188,1,0,0:0:0:0:
280,232,159274,1,0,0:0:0:0:
248,252,159359,6,0,L|252:296,2,26.2500010013581
120,328,159702,1,0,0:0:0:0:
112,304,159788,1,0,0:0:0:0:
108,280,159874,1,0,0:0:0:0:
108,252,159959,1,0,0:0:0:0:
112,228,160045,2,0,L|172:192,1,52.5000020027161
224,56,160731,5,0,0:0:0:0:
304,144,160902,1,0,0:0:0:0:
332,144,160988,1,0,0:0:0:0:
360,144,161074,1,0,0:0:0:0:
300,312,161416,1,0,0:0:0:0:
272,312,161502,1,0,0:0:0:0:
244,312,161588,1,0,0:0:0:0:
80,240,162102,5,0,0:0:0:0:
100,224,162188,1,0,0:0:0:0:
116,204,162274,1,0,0:0:0:0:
124,180,162359,1,0,0:0:0:0:
120,152,162445,2,0,L|128:96,1,52.5000020027161
144,80,162702,1,0,0:0:0:0:
160,60,162788,2,0,L|232:60,1,52.5000020027161
392,156,163474,5,0,0:0:0:0:
348,304,163645,1,0,0:0:0:0:
320,304,163731,1,0,0:0:0:0:
292,304,163816,1,0,0:0:0:0:
132,140,164159,1,0,0:0:0:0:
160,140,164245,1,0,0:0:0:0:
188,140,164331,1,0,0:0:0:0:
212,140,164416,1,0,0:0:0:0:
240,140,164502,1,0,0:0:0:0:
364,232,164845,5,0,0:0:0:0:
360,260,164931,1,0,0:0:0:0:
352,284,165016,1,0,0:0:0:0:
340,308,165102,1,0,0:0:0:0:
324,328,165188,2,0,L|248:336,1,52.5000020027161
248,324,165445,1,0,0:0:0:0:
224,312,165531,6,0,L|216:244,1,52.5000020027161
112,120,165874,1,0,0:0:0:0:
280,40,166045,1,0,0:0:0:0:
264,248,166216,1,0,0:0:0:0:
288,232,166302,1,0,0:0:0:0:
320,220,166388,1,0,0:0:0:0:
356,216,166474,1,0,0:0:0:0:
388,228,166559,2,0,L|472:292,1,105.000004005432
428,136,167074,1,0,0:0:0:0:
288,332,167245,1,0,0:0:0:0:
144,176,167416,1,0,0:0:0:0:
264,48,167588,6,0,L|296:104,1,52.5000020027161
348,132,167845,1,0,0:0:0:0:
352,200,167931,1,0,0:0:0:0:
328,264,168016,1,0,0:0:0:0:
264,288,168102,2,0,L|208:268,1,52.5000020027161
72,104,168445,1,0,0:0:0:0:
256,48,168616,2,0,L|232:104,1,52.5000020027161
416,136,168959,6,0,B|440:196|332:272|332:272|312:232|312:232|280:280|280:280|232:248,1,315.000012016297,0|2,0:0|0:0,0:0:0:0:
180,264,170074,1,8,0:0:0:0:
128,220,170159,1,2,0:0:0:0:
112,156,170245,1,8,0:0:0:0:
304,44,170674,6,0,L|372:128,1,105.000004005432
384,192,171102,1,0,0:0:0:0:
352,252,171188,1,0,0:0:0:0:
288,264,171274,1,0,0:0:0:0:
224,280,171359,2,0,L|212:312,4,26.2500010013581
112,112,172045,6,0,L|220:192,1,105.000004005432
308,224,172559,1,0,0:0:0:0:
300,48,172730,1,0,0:0:0:0:
356,84,172816,1,0,0:0:0:0:
396,136,172901,1,0,0:0:0:0:
404,200,172987,1,0,0:0:0:0:
380,264,173074,6,0,L|288:320,1,105.000004005432
120,292,173588,1,0,0:0:0:0:
56,152,173759,2,0,P|100:124|188:120,1,105.000004005432
264,116,174274,1,0,0:0:0:0:
396,268,174445,2,0,L|344:288,1,52.5000020027161
192,184,174788,1,0,0:0:0:0:
372,96,174959,1,0,0:0:0:0:
232,284,175131,2,0,P|184:308|132:296,2,105.000004005432
64,160,176159,6,0,L|152:92,1,105.000004005432
212,104,176588,1,0,0:0:0:0:
212,172,176674,1,0,0:0:0:0:
256,224,176759,1,0,0:0:0:0:
324,212,176845,1,0,0:0:0:0:
396,192,176931,2,0,L|424:192,3,26.2500010013581
256,328,177531,6,0,L|204:232,1,105.000004005432
60,128,178131,1,0,0:0:0:0:
156,68,178216,2,0,L|188:48,2,35.0000013351441
160,100,178559,6,0,L|212:132,1,52.5000020027161
268,232,178902,1,0,0:0:0:0:
372,104,179074,1,0,0:0:0:0:
448,196,179245,2,0,P|448:260|416:288,1,105.000004005432
336,176,179759,1,0,0:0:0:0:
204,56,179931,2,0,L|152:68,1,52.5000020027161
60,232,180274,1,0,0:0:0:0:
224,280,180445,2,0,L|284:256,1,52.5000020027161
108,132,180959,1,0,0:0:0:0:
436,36,181302,1,0,0:0:0:0:
444,292,181645,6,0,L|356:224,1,105.000004005432
296,248,182074,1,0,0:0:0:0:
228,244,182159,1,0,0:0:0:0:
184,192,182245,1,0,0:0:0:0:
176,124,182331,1,0,0:0:0:0:
216,68,182416,2,0,L|260:56,3,26.2500010013581
60,276,183016,6,0,L|96:172,1,105.000004005432
228,256,183531,1,0,0:0:0:0:
84,72,183702,1,0,0:0:0:0:
148,84,183788,1,0,0:0:0:0:
208,108,183874,1,0,0:0:0:0:
248,160,183959,1,0,0:0:0:0:
260,224,184045,6,0,P|312:220|360:180,1,105.000004005432
352,64,184559,1,0,0:0:0:0:
452,260,184731,2,0,P|408:300|352:312,1,105.000004005432
232,284,185245,1,0,0:0:0:0:
232,56,185416,2,0,L|280:84,1,52.5000020027161
128,272,185759,2,0,L|88:224,1,52.5000020027161
88,56,186102,1,0,0:0:0:0:
276,336,186445,1,0,0:0:0:0:
452,56,186788,1,0,0:0:0:0:
212,84,187131,6,0,L|120:136,1,105.000004005432
48,140,187559,1,0,0:0:0:0:
92,196,187645,1,0,0:0:0:0:
112,260,187731,1,0,0:0:0:0:
176,248,187816,1,0,0:0:0:0:
216,192,187902,2,0,L|196:168,3,26.2500010013581
280,208,188245,2,0,L|316:192,1,26.2500010013581
332,180,188416,1,0,0:0:0:0:
368,156,188502,6,0,L|300:64,1,105.000004005432
312,248,189016,1,0,0:0:0:0:
248,152,189188,1,0,0:0:0:0:
184,184,189274,1,0,0:0:0:0:
120,172,189360,1,0,0:0:0:0:
76,120,189445,1,0,0:0:0:0:
76,52,189531,6,0,P|112:60|172:112,1,105.000004005432
124,260,190045,1,0,0:0:0:0:
320,184,190216,2,0,L|276:144,1,52.5000020027161
184,88,190559,1,0,0:0:0:0:
116,224,190731,1,0,0:0:0:0:
224,328,190902,5,0,0:0:0:0:
272,320,190988,1,0,0:0:0:0:
320,304,191074,1,0,0:0:0:0:
404,172,191245,1,0,0:0:0:0:
388,124,191331,1,0,0:0:0:0:
356,84,191416,1,0,0:0:0:0:
220,64,191588,1,0,0:0:0:0:
220,116,191674,1,0,0:0:0:0:
212,164,191759,1,0,0:0:0:0:
192,212,191845,5,0,0:0:0:0:
160,252,191931,1,0,0:0:0:0:
112,252,192016,1,0,0:0:0:0:
72,220,192102,1,0,0:0:0:0:
56,172,192188,1,0,0:0:0:0:
48,124,192274,6,0,L|100:80,1,52.5000020027161
172,92,192616,2,0,L|252:124,1,52.5000020027161
300,64,192959,2,0,P|356:80|400:184,1,157.500006008148
320,140,193645,2,0,P|332:200|424:244,1,157.500006008148
440,184,194331,2,0,P|472:228|420:316,1,157.500006008148
408,244,195016,2,0,B|472:212|472:152|448:108|448:108|396:156|236:128|184:100,1,420.000016021729
197,106,196474,5,0,0:0:0:0:
197,106,196559,1,0,0:0:0:0:
92,268,196731,1,0,0:0:0:0:
132,296,196816,1,0,0:0:0:0:
180,312,196902,1,0,0:0:0:0:
320,296,197074,1,0,0:0:0:0:
364,272,197159,1,0,0:0:0:0:
400,240,197245,1,0,0:0:0:0:
424,196,197331,1,0,0:0:0:0:
428,148,197416,6,0,L|356:132,1,52.5000020027161
220,168,197759,2,0,P|160:144|140:100,1,105.000004005432
56,136,198273,1,0,0:0:0:0:
56,136,198445,2,0,P|56:196|88:240,1,105.000004005432
216,260,198959,1,0,0:0:0:0:
304,264,199131,2,0,P|304:208|248:172,1,105.000004005432
56,288,199816,1,0,0:0:0:0:
120,88,200159,1,0,0:0:0:0:
296,112,200502,5,0,0:0:0:0:
168,228,200674,1,0,0:0:0:0:
324,276,200845,1,0,0:0:0:0:
240,180,201016,1,0,0:0:0:0:
408,176,201188,5,0,0:0:0:0:
248,84,201359,1,0,0:0:0:0:
144,240,201531,1,0,0:0:0:0:
324,216,201702,1,0,0:0:0:0:
268,344,201874,5,0,0:0:0:0:
136,76,202045,1,0,0:0:0:0:
412,104,202216,1,0,0:0:0:0:
112,276,202388,1,0,0:0:0:0:
112,276,202559,2,0,P|184:236|264:112,1,210.000008010865
257,133,203331,1,0,0:0:0:0:
257,133,203416,1,0,0:0:0:0:
352,48,203588,6,0,L|416:68,1,52.5000020027161
436,160,203931,1,0,0:0:0:0:
268,272,204102,1,0,0:0:0:0:
100,188,204274,1,0,0:0:0:0:
164,80,204445,1,0,0:0:0:0:
164,80,204531,1,0,0:0:0:0:
164,80,204616,2,0,L|232:80,1,52.5000020027161
360,156,204959,6,0,L|312:200,1,52.5000020027161
136,316,205302,2,0,L|184:272,1,52.5000020027161
76,172,205645,1,0,0:0:0:0:
288,208,205816,1,0,0:0:0:0:
212,40,205988,2,0,L|184:92,1,52.5000020027161
196,260,206331,1,0,0:0:0:0:
400,216,206502,1,0,0:0:0:0:
420,200,206588,1,0,0:0:0:0:
436,180,206674,2,0,L|444:120,1,52.5000020027161
264,48,207016,5,0,0:0:0:0:
256,72,207102,1,0,0:0:0:0:
248,96,207188,1,0,0:0:0:0:
236,120,207274,1,0,0:0:0:0:
220,140,207359,2,0,L|164:180,1,52.5000020027161
136,296,207702,1,0,0:0:0:0:
312,236,207874,1,0,0:0:0:0:
376,80,208045,5,0,0:0:0:0:
432,236,208216,1,0,0:0:0:0:
428,260,208302,1,0,0:0:0:0:
416,284,208388,2,0,L|364:324,1,52.5000020027161
168,280,208731,1,0,0:0:0:0:
384,140,208902,1,0,0:0:0:0:
136,72,209074,2,0,L|196:104,1,52.5000020027161
256,320,209416,6,0,L|256:256,1,52.5000020027161
96,200,209759,1,0,0:0:0:0:
136,72,209931,1,0,0:0:0:0:
272,76,210102,1,0,0:0:0:0:
288,96,210188,1,0,0:0:0:0:
308,116,210274,1,0,0:0:0:0:
420,224,210445,1,0,0:0:0:0:
408,248,210531,1,0,0:0:0:0:
392,268,210616,1,0,0:0:0:0:
372,284,210702,1,0,0:0:0:0:
348,296,210788,6,0,L|280:312,1,52.5000020027161
168,256,211131,1,0,0:0:0:0:
352,160,211302,1,0,0:0:0:0:
156,56,211474,2,0,L|200:104,1,52.5000020027161
264,232,211816,1,0,0:0:0:0:
336,64,211988,1,0,0:0:0:0:
424,200,212159,5,0,0:0:0:0:
404,216,212245,1,0,0:0:0:0:
384,232,212331,1,0,0:0:0:0:
180,188,212502,1,0,0:0:0:0:
204,184,212588,1,0,0:0:0:0:
228,180,212674,1,0,0:0:0:0:
384,92,212845,6,0,L|324:76,1,52.5000020027161
196,288,213188,2,0,L|248:320,1,52.5000020027161
92,140,213531,1,0,0:0:0:0:
112,124,213616,1,0,0:0:0:0:
132,108,213702,1,0,0:0:0:0:
292,176,213874,1,0,0:0:0:0:
280,200,213959,1,0,0:0:0:0:
268,224,214045,1,0,0:0:0:0:
128,288,214216,6,0,L|64:268,1,52.5000020027161
40,144,214559,1,0,0:0:0:0:
288,68,214731,1,0,0:0:0:0:
112,52,214902,1,0,0:0:0:0:
272,216,215074,1,0,0:0:0:0:
272,216,215159,1,0,0:0:0:0:
272,216,215245,1,0,0:0:0:0:
384,160,215416,1,0,0:0:0:0:
400,288,215588,5,0,0:0:0:0:
388,312,215674,1,0,0:0:0:0:
368,332,215759,1,0,0:0:0:0:
224,292,215931,1,0,0:0:0:0:
324,128,216102,1,0,0:0:0:0:
176,44,216274,2,0,L|120:76,1,52.5000020027161
284,236,216616,2,0,L|352:204,1,52.5000020027161
40,164,216959,5,0,0:0:0:0:
176,304,217131,1,0,0:0:0:0:
180,140,217302,1,0,0:0:0:0:
204,148,217388,1,0,0:0:0:0:
232,152,217474,1,0,0:0:0:0:
260,152,217559,1,0,0:0:0:0:
284,144,217645,2,0,L|344:124,1,52.5000020027161
436,184,217988,1,0,0:0:0:0:
444,208,218074,1,0,0:0:0:0:
452,232,218159,1,0,0:0:0:0:
292,304,218331,5,0,0:0:0:0:
108,200,218502,1,0,0:0:0:0:
260,152,218674,1,0,0:0:0:0:
264,328,218845,1,0,0:0:0:0:
44,160,219016,1,0,0:0:0:0:
200,200,219188,1,0,0:0:0:0:
244,52,219359,5,0,0:0:0:0:
264,68,219445,1,0,0:0:0:0:
284,84,219531,1,0,0:0:0:0:
304,100,219616,1,0,0:0:0:0:
324,116,219702,2,0,L|292:184,1,52.5000020027161
368,312,220045,1,0,0:0:0:0:
84,264,220216,1,0,0:0:0:0:
88,56,220388,6,0,L|140:104,1,52.5000020027161
352,160,220731,2,0,L|304:192,1,52.5000020027161
168,288,221074,1,0,0:0:0:0:
144,276,221159,1,0,0:0:0:0:
120,264,221245,1,0,0:0:0:0:
40,144,221416,1,0,0:0:0:0:
216,72,221588,1,0,0:0:0:0:
440,76,221759,6,0,L|428:140,1,52.5000020027161
276,296,222102,2,0,L|248:248,1,52.5000020027161
168,80,222445,1,0,0:0:0:0:
92,276,222616,1,0,0:0:0:0:
360,200,222788,1,0,0:0:0:0:
144,180,222959,1,0,0:0:0:0:
272,296,223131,1,0,0:0:0:0:
248,308,223216,1,0,0:0:0:0:
224,316,223302,1,0,0:0:0:0:
280,132,223474,1,0,0:0:0:0:
304,140,223559,1,0,0:0:0:0:
328,148,223645,1,0,0:0:0:0:
456,264,223816,5,0,0:0:0:0:
160,228,223988,1,0,0:0:0:0:
400,84,224159,1,0,0:0:0:0:
400,84,224331,1,0,0:0:0:0:
328,244,224502,2,0,L|328:284,2,26.2500010013581
160,92,224845,2,0,L|124:88,2,26.2500010013581
332,124,225188,5,0,0:0:0:0:
104,304,225359,1,0,0:0:0:0:
360,308,225531,1,0,0:0:0:0:
96,216,225702,1,0,0:0:0:0:
172,80,225874,1,0,0:0:0:0:
196,92,225959,1,0,0:0:0:0:
216,108,226045,1,0,0:0:0:0:
304,264,226216,2,0,L|340:220,1,52.5000020027161
436,160,226559,5,0,0:0:0:0:
160,188,226731,1,0,0:0:0:0:
396,56,226902,1,0,0:0:0:0:
224,280,227074,1,0,0:0:0:0:
432,256,227245,2,0,L|464:280,2,26.2500010013581
296,104,227588,1,0,0:0:0:0:
272,96,227674,1,0,0:0:0:0:
248,92,227759,1,0,0:0:0:0:
148,152,227931,5,0,0:0:0:0:
72,336,228102,1,0,0:0:0:0:
392,192,228274,1,0,0:0:0:0:
176,260,228445,1,0,0:0:0:0:
296,72,228616,1,0,0:0:0:0:
372,324,228788,1,0,0:0:0:0:
108,188,228959,1,0,0:0:0:0:
456,240,229131,1,0,0:0:0:0:
416,80,229302,5,0,0:0:0:0:
412,104,229388,1,0,0:0:0:0:
404,128,229474,1,0,0:0:0:0:
392,152,229559,1,0,0:0:0:0:
376,172,229645,1,0,0:0:0:0:
360,192,229731,1,0,0:0:0:0:
332,204,229816,1,0,0:0:0:0:
300,204,229902,5,0,0:0:0:0:
268,196,229988,1,0,0:0:0:0:
240,180,230074,1,0,0:0:0:0:
208,176,230159,1,0,0:0:0:0:
180,192,230245,1,0,0:0:0:0:
160,216,230331,1,0,0:0:0:0:
148,244,230416,1,0,0:0:0:0:
148,276,230502,1,0,0:0:0:0:
164,304,230588,1,0,0:0:0:0:
192,320,230674,6,0,L|264:344,1,52.5000020027161
468,316,231016,2,0,L|404:356,1,52.5000020027161
344,248,231359,1,0,0:0:0:0:
336,180,231444,1,0,0:0:0:0:
272,156,231530,1,0,0:0:0:0:
228,108,231616,1,0,0:0:0:0:
168,72,231702,6,0,L|116:96,1,52.5000020027161
56,216,232045,1,0,0:0:0:0:
232,304,232216,1,0,0:0:0:0:
416,136,232388,2,0,L|448:188,1,52.5000020027161
432,312,232731,1,0,0:0:0:0:
372,340,232817,1,0,0:0:0:0:
328,288,232902,1,0,0:0:0:0:
328,220,232988,1,0,0:0:0:0:
304,160,233074,6,0,L|228:176,1,52.5000020027161
200,288,233416,1,0,0:0:0:0:
92,148,233588,1,0,0:0:0:0:
164,60,233759,2,0,L|240:60,1,52.5000020027161
392,124,234102,1,0,0:0:0:0:
428,180,234188,1,0,0:0:0:0:
392,236,234274,1,0,0:0:0:0:
324,236,234359,1,0,0:0:0:0:
256,232,234445,6,0,L|236:176,1,52.5000020027161
100,72,234788,1,0,0:0:0:0:
112,252,234959,1,0,0:0:0:0:
308,56,235131,2,0,L|372:100,1,52.5000020027161
368,264,235474,2,0,L|312:224,1,52.5000020027161
168,112,235816,1,0,0:0:0:0:
140,304,235988,1,0,0:0:0:0:
288,316,236159,6,0,L|352:320,1,52.5000020027161
456,180,236502,2,0,L|420:120,1,52.5000020027161
300,184,236844,1,0,0:0:0:0:
252,232,236930,1,0,0:0:0:0:
188,224,237016,1,0,0:0:0:0:
136,268,237101,1,0,0:0:0:0:
72,252,237188,6,0,L|48:188,1,52.5000020027161
56,72,237531,1,0,0:0:0:0:
220,148,237702,1,0,0:0:0:0:
96,324,237874,2,0,L|48:284,1,52.5000020027161
212,252,238216,1,0,0:0:0:0:
276,236,238301,1,0,0:0:0:0:
324,188,238387,1,0,0:0:0:0:
284,132,238474,1,0,0:0:0:0:
240,84,238559,2,0,L|184:116,1,52.5000020027161
100,172,238902,6,0,P|152:200|176:252,1,105.000004005432
92,304,239416,1,0,0:0:0:0:
292,308,239588,1,0,0:0:0:0:
420,160,239759,1,0,0:0:0:0:
260,48,239931,2,0,L|256:108,1,52.5000020027161
232,304,240274,1,0,0:0:0:0:
320,60,240445,1,0,0:0:0:0:
68,244,240616,1,0,0:0:0:0:
68,244,240788,1,0,0:0:0:0:
88,116,240959,2,0,P|144:104|212:144,2,105.000004005432
256,120,241816,5,0,0:0:0:0:
108,208,241988,2,0,L|140:264,1,52.5000020027161
328,320,242330,1,0,0:0:0:0:
392,300,242416,1,0,0:0:0:0:
420,240,242501,1,0,0:0:0:0:
476,204,242588,1,0,0:0:0:0:
464,136,242674,6,0,L|400:112,1,52.5000020027161
280,180,243016,1,0,0:0:0:0:
92,144,243188,1,0,0:0:0:0:
280,288,243359,2,0,L|232:328,1,52.5000020027161
72,240,243702,1,0,0:0:0:0:
136,216,243788,1,0,0:0:0:0:
168,160,243874,1,0,0:0:0:0:
236,152,243959,1,0,0:0:0:0:
300,132,244045,6,0,L|368:180,1,52.5000020027161
448,248,244388,1,0,0:0:0:0:
292,292,244559,1,0,0:0:0:0:
108,220,244731,2,0,L|96:160,1,52.5000020027161
200,56,245073,1,0,0:0:0:0:
264,72,245159,1,0,0:0:0:0:
276,136,245244,1,0,0:0:0:0:
324,180,245331,1,0,0:0:0:0:
388,196,245416,6,0,L|392:112,1,52.5000020027161
328,44,245759,1,0,0:0:0:0:
192,236,245931,1,0,0:0:0:0:
336,344,246102,2,0,L|392:320,1,52.5000020027161
304,188,246445,1,0,0:0:0:0:
320,124,246531,1,0,0:0:0:0:
272,80,246617,1,0,0:0:0:0:
208,68,246702,1,0,0:0:0:0:
140,68,246788,6,0,L|152:128,1,52.5000020027161
88,312,247131,1,0,0:0:0:0:
220,224,247302,1,0,0:0:0:0:
468,248,247474,2,0,L|404:236,1,52.5000020027161
336,104,247816,1,0,0:0:0:0:
304,160,247901,1,0,0:0:0:0:
236,156,247987,1,0,0:0:0:0:
184,196,248074,1,0,0:0:0:0:
136,244,248159,6,0,L|184:296,1,52.5000020027161
272,344,248502,1,0,0:0:0:0:
332,176,248674,1,0,0:0:0:0:
384,36,248845,2,0,L|392:100,1,52.5000020027161
464,204,249188,1,0,0:0:0:0:
452,268,249274,1,0,0:0:0:0:
404,312,249360,1,0,0:0:0:0:
336,308,249445,1,0,0:0:0:0:
276,280,249531,2,0,L|272:224,1,52.5000020027161
116,148,249874,6,0,L|208:184,1,52.5000020027161
384,80,250216,2,0,L|384:140,1,52.5000020027161
328,268,250559,1,0,0:0:0:0:
256,88,250731,1,0,0:0:0:0:
60,188,250902,1,0,0:0:0:0:
60,188,251074,1,0,0:0:0:0:
72,320,251245,5,0,0:0:0:0:
136,316,251331,1,0,0:0:0:0:
200,304,251416,1,0,0:0:0:0:
260,276,251502,1,0,0:0:0:0:
308,228,251588,1,0,0:0:0:0:
320,164,251674,1,0,0:0:0:0:
292,104,251759,1,0,0:0:0:0:
232,80,251845,1,0,0:0:0:0:
184,124,251931,5,0,0:0:0:0:
176,188,252016,1,0,0:0:0:0:
212,244,252102,1,0,0:0:0:0:
268,280,252188,1,0,0:0:0:0:
332,296,252274,1,0,0:0:0:0:
396,280,252359,1,0,0:0:0:0:
448,240,252445,1,0,0:0:0:0:
468,176,252531,1,0,0:0:0:0:
464,112,252616,6,0,B|424:52|424:52|384:120|384:120|340:44|340:44|296:132|296:132|256:48|256:48|200:140,1,525
200,204,255359,6,0,B|244:284|244:284|280:200|280:200|332:296|332:296|376:200|376:200|416:296|416:296|456:256,1,525
456,172,258102,6,0,B|456:80|456:80|392:140|392:140|384:40|384:40|324:132|324:132|296:44|296:44|264:88,1,525
52,116,260845,6,0,B|180:160|180:160|48:224|48:224|196:264|196:264|100:312,1,525
60,336,263588,6,0,P|60:296|448:168,1,525
480,208,266331,6,0,P|440:260|120:88,1,525
368,48,269074,6,0,P|372:160|24:292,1,525
52,96,271816,6,0,P|96:192|448:68,1,560
344,52,275074,5,0,0:0:0:0:
304,156,275588,2,0,P|268:144|240:72,1,105
156,84,276616,1,0,0:0:0:0:
208,192,276959,1,0,0:0:0:0:
320,196,277302,2,0,P|344:156|336:88,1,105
272,48,278331,1,0,0:0:0:0:
184,200,278845,1,0,0:0:0:0:
224,288,279359,2,0,P|260:272|288:228,1,70
240,172,280045,5,0,0:0:0:0:
344,104,280559,1,0,0:0:0:0:
144,72,281074,2,0,P|124:112|140:196,1,105
176,256,282102,2,0,L|216:260,1,35
296,192,282445,2,0,L|260:192,1,35
172,176,282788,2,0,P|184:144|252:104,1,105
328,156,283816,1,0,0:0:0:0:
392,68,284331,1,0,0:0:0:0:
452,168,284845,2,0,L|404:232,1,70
308,304,285531,1,0,0:0:0:0:
116,316,285874,6,0,L|140:288,1,35
180,236,286216,1,0,0:0:0:0:
248,248,286559,2,0,P|304:228|316:128,1,140
264,100,287588,1,0,0:0:0:0:
152,72,287931,2,0,P|120:96|120:200,2,140
248,320,291359,6,0,L|208:304,1,35
144,276,291702,1,0,0:0:0:0:
144,196,292045,2,0,P|176:172|192:72,1,140
300,64,293074,1,0,0:0:0:0:
428,128,293416,2,0,P|400:156|300:148,2,140
368,248,296845,5,0,0:0:0:0:
252,300,297188,2,0,L|232:272,1,35
188,212,297531,2,0,P|220:188|236:80,1,140
76,108,298559,1,0,0:0:0:0:
56,232,298902,2,0,P|88:264|184:224,2,140
240,304,302331,6,0,L|304:308,1,35
360,308,302674,1,0,0:0:0:0:
416,224,303016,2,0,P|404:180|304:136,1,140
276,224,304045,1,0,0:0:0:0:
176,284,304388,2,0,P|164:240|76:196,2,140
48,340,306274,5,0,0:0:0:0:
256,48,306788,1,0,0:0:0:0:
440,148,307131,1,0,0:0:0:0:
136,264,312959,6,0,L|192:288,1,52.5000020027161
336,228,313302,2,0,L|284:240,1,52.5000020027161
160,192,313645,1,0,0:0:0:0:
356,60,313816,1,0,0:0:0:0:
268,160,313988,1,0,0:0:0:0:
180,80,314159,1,0,0:0:0:0:
156,72,314245,1,0,0:0:0:0:
128,68,314331,6,0,L|84:120,1,52.5000020027161
88,284,314674,1,0,0:0:0:0:
368,224,314845,1,0,0:0:0:0:
216,332,315016,1,0,0:0:0:0:
200,176,315188,1,0,0:0:0:0:
328,64,315359,1,0,0:0:0:0:
328,64,315531,1,0,0:0:0:0:
464,148,315702,6,0,L|428:212,1,52.5000020027161
244,280,316045,2,0,L|312:312,1,52.5000020027161
291,302,316302,1,0,0:0:0:0:
291,302,316388,1,0,0:0:0:0:
424,296,316559,1,0,0:0:0:0:
328,112,316731,1,0,0:0:0:0:
320,136,316816,1,0,0:0:0:0:
308,160,316902,1,0,0:0:0:0:
292,180,316988,1,0,0:0:0:0:
272,200,317074,6,0,P|224:212|208:216,1,52.5000020027161
48,144,317416,2,0,L|112:168,1,52.5000020027161
96,328,317759,1,0,0:0:0:0:
196,80,317931,1,0,0:0:0:0:
288,300,318102,2,0,L|232:284,1,52.5000020027161
440,148,318445,5,0,0:0:0:0:
152,236,318616,1,0,0:0:0:0:
176,156,318788,1,0,0:0:0:0:
440,200,318959,1,0,0:0:0:0:
440,276,319131,2,0,L|440:336,1,52.5000020027161
304,332,319474,1,0,0:0:0:0:
132,208,319645,1,0,0:0:0:0:
160,208,319731,1,0,0:0:0:0:
184,204,319816,6,0,L|232:176,1,52.5000020027161
352,60,320159,1,0,0:0:0:0:
240,304,320331,1,0,0:0:0:0:
432,200,320502,1,0,0:0:0:0:
120,232,320674,1,0,0:0:0:0:
240,64,320845,2,0,P|272:92|276:168,1,105.000004005432
344,256,321359,5,0,0:0:0:0:
92,324,321531,1,0,0:0:0:0:
376,208,321702,1,0,0:0:0:0:
360,68,321874,1,0,0:0:0:0:
344,88,321959,1,0,0:0:0:0:
324,108,322045,1,0,0:0:0:0:
232,180,322216,2,0,L|212:152,1,26.2500010013581
120,156,322388,2,0,L|132:188,1,26.2500010013581
152,268,322559,6,0,L|212:288,1,52.5000020027161
320,232,322902,2,0,L|320:268,1,26.2500010013581
400,188,323074,2,0,L|400:232,1,26.2500010013581
440,276,323245,1,0,0:0:0:0:
432,300,323331,1,0,0:0:0:0:
416,320,323416,1,0,0:0:0:0:
256,320,323588,1,0,0:0:0:0:
248,296,323674,1,0,0:0:0:0:
248,272,323759,1,0,0:0:0:0:
296,144,323931,6,0,L|264:148,1,26.2500010013581
196,64,324102,2,0,L|176:92,1,26.2500010013581
72,168,324274,2,0,L|104:152,1,26.2500010013581
156,264,324445,2,0,L|172:240,1,26.2500010013581
192,208,324616,1,0,0:0:0:0:
300,52,324788,1,0,0:0:0:0:
396,232,324959,1,0,0:0:0:0:
176,128,325131,1,0,0:0:0:0:
152,116,325216,1,0,0:0:0:0:
128,104,325302,6,0,L|60:120,1,52.5000020027161
40,196,325645,1,0,0:0:0:0:
160,304,325816,1,0,0:0:0:0:
344,232,325988,2,0,L|272:212,1,52.5000020027161
316,40,326331,2,0,L|356:104,1,52.5000020027161
456,224,326674,6,0,L|440:264,1,26.2500010013581
360,296,326845,2,0,L|332:308,1,26.2500010013581
232,304,327016,2,0,L|204:292,1,26.2500010013581
120,236,327188,2,0,L|92:204,1,26.2500010013581
72,128,327359,1,0,0:0:0:0:
92,112,327445,1,0,0:0:0:0:
116,104,327531,1,0,0:0:0:0:
216,48,327702,1,0,0:0:0:0:
344,84,327874,1,0,0:0:0:0:
360,104,327959,1,0,0:0:0:0:
372,128,328045,6,0,L|404:188,1,52.5000020027161
344,328,328388,1,0,0:0:0:0:
128,268,328559,1,0,0:0:0:0:
272,152,328731,1,0,0:0:0:0:
248,164,328816,1,0,0:0:0:0:
224,172,328902,1,0,0:0:0:0:
132,44,329074,1,0,0:0:0:0:
72,232,329245,1,0,0:0:0:0:
212,332,329416,5,0,0:0:0:0:
376,140,329588,1,0,0:0:0:0:
412,280,329759,1,0,0:0:0:0:
120,252,329931,1,0,0:0:0:0:
272,72,330102,1,0,0:0:0:0:
280,280,330274,1,0,0:0:0:0:
172,144,330445,1,0,0:0:0:0:
344,188,330616,1,0,0:0:0:0:
344,188,330702,1,0,0:0:0:0:
344,188,330788,6,0,L|412:160,1,52.5000020027161
224,312,331131,2,0,L|224:248,1,52.5000020027161
100,40,331474,1,0,0:0:0:0:
60,136,331645,1,0,0:0:0:0:
100,284,331816,1,0,0:0:0:0:
400,340,331988,1,0,0:0:0:0:
432,128,332159,2,0,L|376:176,1,52.5000020027161
156,92,332502,2,0,L|192:144,1,52.5000020027161
244,264,332845,5,0,0:0:0:0:
224,280,332931,1,0,0:0:0:0:
200,292,333016,1,0,0:0:0:0:
264,128,333188,5,0,0:0:0:0:
288,144,333274,1,0,0:0:0:0:
312,156,333359,1,0,0:0:0:0:
384,304,333531,5,0,0:0:0:0:
400,284,333616,1,0,0:0:0:0:
420,264,333702,1,0,0:0:0:0:
424,84,333874,5,0,0:0:0:0:
412,108,333959,1,0,0:0:0:0:
400,132,334045,1,0,0:0:0:0:
208,120,334216,5,0,0:0:0:0:
232,128,334302,1,0,0:0:0:0:
256,136,334388,1,0,0:0:0:0:
312,272,334559,5,0,0:0:0:0:
312,272,334645,1,0,0:0:0:0:
312,272,334731,1,0,0:0:0:0:
164,312,334902,6,0,P|140:284|132:260,1,52.5000020027161
68,96,335245,1,0,0:0:0:0:
392,56,335416,1,0,0:0:0:0:
336,308,335588,1,0,0:0:0:0:
236,172,335759,1,0,0:0:0:0:
236,172,335931,1,0,0:0:0:0:
68,280,336102,1,0,0:0:0:0:
76,304,336188,1,0,0:0:0:0:
96,320,336274,6,0,L|152:324,1,52.5000020027161
376,316,336616,2,0,L|336:268,1,52.5000020027161
168,140,336959,2,0,L|176:208,1,52.5000020027161
344,116,337302,2,0,L|392:80,1,52.5000020027161
392,216,337645,1,0,0:0:0:0:
216,332,337816,1,0,0:0:0:0:
228,80,337988,1,0,0:0:0:0:
304,228,338159,1,0,0:0:0:0:
292,252,338245,1,0,0:0:0:0:
268,264,338331,6,0,L|212:256,1,52.5000020027161
48,136,338674,2,0,L|100:160,1,52.5000020027161
196,64,339016,1,0,0:0:0:0:
124,292,339188,1,0,0:0:0:0:
332,148,339359,1,0,0:0:0:0:
64,232,339531,1,0,0:0:0:0:
320,316,339702,5,0,0:0:0:0:
104,96,339874,1,0,0:0:0:0:
268,40,340045,2,0,L|264:112,1,52.5000020027161
372,232,340388,6,0,L|300:256,1,52.5000020027161
88,288,340731,2,0,L|152:304,1,52.5000020027161
360,76,341074,2,0,L|308:96,1,52.5000020027161
128,64,341416,1,0,0:0:0:0:
72,160,341588,1,0,0:0:0:0:
80,184,341674,1,0,0:0:0:0:
96,204,341759,1,0,0:0:0:0:
192,296,341931,1,0,0:0:0:0:
256,64,342102,1,0,0:0:0:0:
444,248,342274,1,0,0:0:0:0:
284,304,342445,5,0,0:0:0:0:
136,144,342616,1,0,0:0:0:0:
352,160,342788,1,0,0:0:0:0:
68,192,342959,1,0,0:0:0:0:
128,328,343131,2,0,L|184:276,1,52.5000020027161
160,52,343474,2,0,L|176:108,1,52.5000020027161
174,102,343731,1,0,0:0:0:0:
174,102,343816,1,0,0:0:0:0:
256,236,343988,5,0,0:0:0:0:
392,136,344159,1,0,0:0:0:0:
392,136,344245,1,0,0:0:0:0:
392,136,344331,1,0,0:0:0:0:
220,36,344502,1,0,0:0:0:0:
60,204,344674,1,0,0:0:0:0:
344,252,344845,1,0,0:0:0:0:
152,120,345016,1,0,0:0:0:0:
140,296,345188,5,0,0:0:0:0:
160,280,345274,1,0,0:0:0:0:
176,260,345359,1,0,0:0:0:0:
260,132,345531,1,0,0:0:0:0:
284,144,345616,1,0,0:0:0:0:
304,160,345702,1,0,0:0:0:0:
432,276,345874,6,0,L|368:308,1,52.5000020027161
244,328,346216,1,0,0:0:0:0:
56,196,346388,1,0,0:0:0:0:
228,108,346559,1,0,0:0:0:0:
316,260,346731,1,0,0:0:0:0:
64,120,346902,1,0,0:0:0:0:
280,44,347074,1,0,0:0:0:0:
304,56,347159,1,0,0:0:0:0:
324,72,347245,6,0,L|368:136,1,52.5000020027161
368,328,347588,1,0,0:0:0:0:
52,272,347759,1,0,0:0:0:0:
208,64,347931,1,0,0:0:0:0:
424,192,348102,1,0,0:0:0:0:
140,216,348274,1,0,0:0:0:0:
140,216,348445,1,0,0:0:0:0:
272,168,348616,6,0,L|292:232,1,52.5000020027161
160,320,348959,1,0,0:0:0:0:
140,300,349045,1,0,0:0:0:0:
124,280,349131,1,0,0:0:0:0:
108,80,349302,1,0,0:0:0:0:
420,132,349474,1,0,0:0:0:0:
92,232,349645,1,0,0:0:0:0:
304,68,349816,1,0,0:0:0:0:
408,244,349988,5,0,0:0:0:0:
132,304,350159,1,0,0:0:0:0:
448,172,350331,1,0,0:0:0:0:
64,264,350502,1,0,0:0:0:0:
104,40,350674,1,0,0:0:0:0:
328,308,350845,1,0,0:0:0:0:
56,48,351016,1,0,0:0:0:0:
392,280,351188,1,0,0:0:0:0:
112,216,351359,6,0,P|152:192|228:184,1,105.000004005432
216,272,351874,1,0,0:0:0:0:
420,296,352045,1,0,0:0:0:0:
404,80,352216,1,0,0:0:0:0:
152,232,352388,1,0,0:0:0:0:
376,184,352559,1,0,0:0:0:0:
316,312,352731,1,0,0:0:0:0:
292,324,352816,1,0,0:0:0:0:
268,332,352902,1,0,0:0:0:0:
96,324,353074,6,0,L|104:272,1,52.5000020027161
72,56,353416,2,0,L|124:104,1,52.5000020027161
400,68,353759,1,0,0:0:0:0:
240,272,353931,1,0,0:0:0:0:
252,68,354102,1,0,0:0:0:0:
420,236,354274,1,0,0:0:0:0:
140,168,354445,1,0,0:0:0:0:
140,168,354616,1,0,0:0:0:0:
60,268,354788,5,0,0:0:0:0:
84,276,354874,1,0,0:0:0:0:
108,288,354959,1,0,0:0:0:0:
272,256,355131,1,0,0:0:0:0:
252,240,355216,1,0,0:0:0:0:
236,220,355302,1,0,0:0:0:0:
204,64,355474,5,0,0:0:0:0:
228,72,355559,1,0,0:0:0:0:
252,84,355645,1,0,0:0:0:0:
452,188,355816,1,0,0:0:0:0:
428,184,355902,1,0,0:0:0:0:
404,192,355988,1,0,0:0:0:0:
212,316,356159,5,0,0:0:0:0:
232,300,356245,1,0,0:0:0:0:
256,292,356331,1,0,0:0:0:0:
176,112,356502,1,0,0:0:0:0:
196,128,356588,1,0,0:0:0:0:
208,152,356674,1,0,0:0:0:0:
72,264,356845,5,0,0:0:0:0:
368,144,357016,1,0,0:0:0:0:
212,316,357188,1,0,0:0:0:0:
76,96,357359,1,0,0:0:0:0:
424,216,357531,1,0,0:0:0:0:
424,216,357616,1,0,0:0:0:0:
424,216,357702,1,0,0:0:0:0:
368,304,357874,2,0,L|316:288,1,52.5000020027161
248,204,358216,2,0,L|192:216,1,52.5000020027161
104,200,358559,5,0,0:0:0:0:
84,92,358731,1,0,0:0:0:0:
184,144,358902,1,0,0:0:0:0:
208,128,358988,1,0,0:0:0:0:
228,112,359074,1,0,0:0:0:0:
356,76,359245,1,0,0:0:0:0:
376,96,359331,1,0,0:0:0:0:
392,116,359416,1,0,0:0:0:0:
408,140,359502,1,0,0:0:0:0:
412,164,359588,6,0,L|416:236,1,52.5000020027161
312,304,359931,1,0,0:0:0:0:
60,316,360102,1,0,0:0:0:0:
148,88,360274,1,0,0:0:0:0:
308,184,360445,1,0,0:0:0:0:
40,184,360616,1,0,0:0:0:0:
264,44,360788,1,0,0:0:0:0:
176,280,360959,5,0,0:0:0:0:
336,56,361131,1,0,0:0:0:0:
416,168,361302,1,0,0:0:0:0:
84,192,361474,1,0,0:0:0:0:
160,60,361645,1,0,0:0:0:0:
176,80,361731,1,0,0:0:0:0:
196,96,361816,1,0,0:0:0:0:
368,240,361988,1,0,0:0:0:0:
352,260,362074,1,0,0:0:0:0:
328,272,362159,1,0,0:0:0:0:
304,280,362245,1,0,0:0:0:0:
276,280,362331,6,0,L|212:244,1,52.5000020027161
76,120,362674,1,0,0:0:0:0:
368,44,362845,1,0,0:0:0:0:
116,276,363016,1,0,0:0:0:0:
132,256,363102,1,0,0:0:0:0:
144,232,363188,1,0,0:0:0:0:
184,56,363359,1,0,0:0:0:0:
432,224,363531,1,0,0:0:0:0:
332,128,363702,6,0,L|272:160,1,52.5000020027161
136,300,364045,2,0,L|188:256,1,52.5000020027161
120,116,364388,2,0,L|92:88,2,26.2500010013581
288,204,364731,1,0,0:0:0:0:
312,204,364816,1,0,0:0:0:0:
336,196,364902,1,0,0:0:0:0:
360,184,364988,1,0,0:0:0:0:
384,172,365074,6,0,L|360:112,1,52.5000020027161
264,48,365416,1,0,0:0:0:0:
88,216,365588,1,0,0:0:0:0:
152,76,365759,1,0,0:0:0:0:
436,232,365931,1,0,0:0:0:0:
212,248,366102,1,0,0:0:0:0:
384,104,366274,1,0,0:0:0:0:
336,240,366445,5,0,0:0:0:0:
208,316,366616,1,0,0:0:0:0:
88,220,366788,1,0,0:0:0:0:
232,136,366959,1,0,0:0:0:0:
100,312,367131,1,0,0:0:0:0:
104,108,367302,1,0,0:0:0:0:
312,48,367474,1,2,0:0:0:0:
344,68,367559,1,4,0:0:0:0:
372,96,367645,1,2,0:0:0:0:
396,128,367731,1,4,0:0:0:0:
416,164,367816,6,0,L|408:236,1,52.5000020027161
296,296,368159,1,0,0:0:0:0:
56,304,368331,1,0,0:0:0:0:
232,80,368502,1,0,0:0:0:0:
192,292,368674,1,0,0:0:0:0:
60,144,368845,1,0,0:0:0:0:
360,188,369016,1,0,0:0:0:0:
84,264,369188,5,0,0:0:0:0:
196,60,369359,1,0,0:0:0:0:
320,292,369531,1,0,0:0:0:0:
128,156,369702,1,0,0:0:0:0:
376,96,369874,5,0,0:0:0:0:
184,312,370045,1,0,0:0:0:0:
208,92,370216,1,0,0:0:0:0:
432,156,370388,1,0,0:0:0:0:
316,156,370559,5,0,0:0:0:0:
184,272,370902,1,0,0:0:0:0:
216,160,371245,1,0,0:0:0:0:
312,256,371588,1,0,0:0:0:0:
348,196,371931,5,0,0:0:0:0:
164,300,372102,1,0,0:0:0:0:
208,80,372274,1,0,0:0:0:0:
392,272,372445,1,0,0:0:0:0:
120,144,372616,5,0,0:0:0:0:
464,252,372788,1,0,0:0:0:0:
232,32,372959,1,0,0:0:0:0:
76,320,373131,1,0,0:0:0:0:
256,336,373302,6,0,L|308:280,1,70
328,176,373645,2,0,L|180:224,1,140
56,72,374159,1,0,0:0:0:0:
288,64,374331,1,0,0:0:0:0:
232,120,374502,1,0,0:0:0:0:
136,148,374674,6,0,L|104:224,1,70
160,324,375016,2,0,L|280:232,1,140
364,240,375531,1,0,0:0:0:0:
184,120,375702,1,0,0:0:0:0:
264,104,375874,1,0,0:0:0:0:
412,104,376045,6,0,L|400:144,1,35
384,268,376216,2,0,L|368:236,1,35
284,180,376388,2,0,L|208:180,1,70
88,280,376731,2,0,L|152:320,1,70
284,272,377074,1,0,0:0:0:0:
72,200,377245,1,0,0:0:0:0:
200,72,377416,1,0,0:0:0:0:
248,132,377588,1,0,0:0:0:0:
364,48,377759,6,0,L|416:104,1,70
444,248,378102,2,0,L|368:248,1,70
264,108,378445,1,0,0:0:0:0:
156,272,378616,1,0,0:0:0:0:
352,324,378788,1,0,0:0:0:0:
296,256,378959,1,0,0:0:0:0:
112,176,379131,6,0,L|128:108,1,70
232,56,379474,1,0,0:0:0:0:
280,80,379559,1,0,0:0:0:0:
328,104,379645,1,0,0:0:0:0:
456,172,379816,1,0,0:0:0:0:
312,268,379988,1,0,0:0:0:0:
140,192,380159,2,0,L|224:200,1,70
72,116,380502,2,0,L|48:200,1,70
104,328,380845,5,0,0:0:0:0:
156,320,380931,1,0,0:0:0:0:
208,312,381016,1,0,0:0:0:0:
368,264,381188,1,0,0:0:0:0:
216,160,381359,1,0,0:0:0:0:
388,72,381531,2,0,L|448:120,1,70
248,64,381874,2,0,L|156:68,1,70
56,188,382216,5,0,0:0:0:0:
100,216,382302,1,0,0:0:0:0:
148,240,382388,1,0,0:0:0:0:
120,336,382559,1,0,0:0:0:0:
360,300,382731,1,0,0:0:0:0:
232,132,382902,2,0,L|240:204,1,70
220,52,383245,2,0,L|128:96,1,70
72,192,383588,5,0,0:0:0:0:
112,228,383674,1,0,0:0:0:0:
164,240,383759,1,0,0:0:0:0:
212,216,383845,1,0,0:0:0:0:
268,180,383931,1,0,0:0:0:0:
332,180,384016,1,0,0:0:0:0:
396,200,384102,1,0,0:0:0:0:
448,244,384188,1,0,0:0:0:0:
468,308,384274,6,0,L|368:308,1,70
192,296,384616,2,0,L|264:256,1,70
256,112,384959,1,0,0:0:0:0:
216,144,385045,1,0,0:0:0:0:
176,176,385131,1,0,0:0:0:0:
68,56,385302,1,0,0:0:0:0:
72,260,385474,1,0,0:0:0:0:
280,296,385645,1,0,0:0:0:0:
228,212,385816,1,0,0:0:0:0:
352,224,385988,6,0,L|424:208,1,70
244,48,386331,1,0,0:0:0:0:
216,92,386416,1,0,0:0:0:0:
188,136,386502,1,0,0:0:0:0:
248,288,386674,1,0,0:0:0:0:
76,284,386845,1,0,0:0:0:0:
300,152,387016,2,0,L|352:204,1,70
204,228,387359,2,0,L|144:264,1,70
52,176,387702,5,0,0:0:0:0:
84,132,387788,1,0,0:0:0:0:
116,92,387874,1,0,0:0:0:0:
244,268,388045,1,0,0:0:0:0:
304,60,388216,1,0,0:0:0:0:
452,188,388388,2,0,L|376:192,1,70
156,216,388731,2,0,L|200:292,1,70
352,280,389074,1,0,0:0:0:0:
400,260,389159,1,0,0:0:0:0:
436,224,389245,1,0,0:0:0:0:
408,56,389416,2,0,L|320:96,1,70
144,64,389759,6,0,L|208:112,1,70
300,272,390102,2,0,L|212:308,1,70
72,272,390445,1,0,0:0:0:0:
120,248,390531,1,0,0:0:0:0:
168,224,390616,1,0,0:0:0:0:
104,120,390788,1,0,0:0:0:0:
376,108,390959,1,0,0:0:0:0:
368,288,391131,2,0,L|288:312,1,70
204,132,391474,2,0,L|192:64,1,70
48,144,391816,5,0,0:0:0:0:
92,168,391902,1,0,0:0:0:0:
136,192,391988,1,0,0:0:0:0:
84,332,392159,1,0,0:0:0:0:
428,300,392331,1,0,0:0:0:0:
204,276,392502,2,0,L|256:224,1,70
368,172,392845,2,0,L|392:244,1,70
428,96,393188,5,0,0:0:0:0:
376,80,393274,1,0,0:0:0:0:
324,68,393359,1,0,0:0:0:0:
292,240,393531,1,0,0:0:0:0:
160,76,393702,1,0,0:0:0:0:
64,260,393874,1,0,0:0:0:0:
308,308,394045,1,0,0:0:0:0:
136,160,394216,2,0,L|168:236,1,70
452,52,394559,5,0,0:0:0:0:
456,120,394645,1,0,0:0:0:0:
416,172,394731,1,0,0:0:0:0:
352,188,394816,1,0,0:0:0:0:
288,172,394902,5,0,0:0:0:0:
224,184,394988,1,0,0:0:0:0:
176,232,395074,1,0,0:0:0:0:
168,296,395159,1,0,0:0:0:0:
228,324,395245,6,0,L|320:328,1,70
412,272,395588,2,0,L|360:216,1,70
176,168,395931,1,0,0:0:0:0:
224,148,396016,1,0,0:0:0:0:
272,128,396102,1,0,0:0:0:0:
452,160,396274,1,0,0:0:0:0:
176,44,396445,1,0,0:0:0:0:
68,248,396616,1,0,0:0:0:0:
352,172,396788,1,0,0:0:0:0:
288,320,396959,6,0,L|216:276,1,70
112,136,397302,1,0,0:0:0:0:
164,148,397388,1,0,0:0:0:0:
216,160,397474,1,0,0:0:0:0:
356,256,397645,1,0,0:0:0:0:
368,64,397816,1,0,0:0:0:0:
440,152,397988,2,0,L|460:232,1,70
240,268,398331,2,0,L|240:184,1,70
96,92,398674,1,0,0:0:0:0:
148,100,398759,1,0,0:0:0:0:
200,108,398845,1,0,0:0:0:0:
376,60,399016,5,0,0:0:0:0:
436,284,399188,1,0,0:0:0:0:
240,240,399359,1,0,0:0:0:0:
312,180,399531,1,0,0:0:0:0:
148,68,399702,2,0,L|88:132,1,70
144,280,400045,1,0,0:0:0:0:
196,268,400131,1,0,0:0:0:0:
248,256,400216,1,0,0:0:0:0:
168,152,400388,1,0,0:0:0:0:
424,224,400559,1,0,0:0:0:0:
424,72,400731,6,0,L|344:116,1,70
296,252,401074,2,0,L|344:320,1,70
136,200,401416,1,0,0:0:0:0:
188,188,401502,1,0,0:0:0:0:
240,172,401588,1,0,0:0:0:0:
96,96,401759,1,0,0:0:0:0:
196,300,401931,1,0,0:0:0:0:
60,192,402102,2,0,L|100:268,1,70
304,200,402445,2,0,L|232:180,1,70
196,52,402788,5,0,0:0:0:0:
244,72,402874,1,0,0:0:0:0:
292,92,402959,1,0,0:0:0:0:
468,144,403131,1,0,0:0:0:0:
256,284,403302,1,0,0:0:0:0:
460,276,403474,2,0,L|380:212,1,70
156,128,403816,2,0,L|160:216,1,70
80,304,404159,5,0,0:0:0:0:
148,308,404245,1,0,0:0:0:0:
216,312,404331,1,0,0:0:0:0:
280,316,404416,1,0,0:0:0:0:
348,312,404502,1,0,0:0:0:0:
408,284,404588,1,0,0:0:0:0:
452,232,404674,5,0,0:0:0:0:
400,188,404759,1,0,0:0:0:0:
352,144,404845,1,0,0:0:0:0:
292,116,404931,1,0,0:0:0:0:
236,84,405016,1,0,0:0:0:0:
172,68,405102,1,0,0:0:0:0:
108,84,405188,5,0,0:0:0:0:
136,144,405274,1,0,0:0:0:0:
172,200,405359,1,0,0:0:0:0:
236,220,405445,1,0,0:0:0:0:
296,196,405531,1,0,0:0:0:0:
332,140,405616,1,0,0:0:0:0:
320,76,405702,1,0,0:0:0:0:
264,40,405788,1,0,0:0:0:0:
200,64,405874,1,0,0:0:0:0:
156,112,405959,1,0,0:0:0:0:
128,172,406045,1,0,0:0:0:0:
120,240,406131,1,0,0:0:0:0:
136,304,406216,6,0,L|284:312,1,140
216,208,406731,1,0,0:0:0:0:
340,184,406902,2,0,L|416:224,2,70
180,112,407416,1,0,0:0:0:0:
180,112,407502,1,0,0:0:0:0:
180,112,407588,1,0,0:0:0:0:
76,200,407759,1,0,0:0:0:0:
76,200,407931,2,0,L|132:244,1,70
216,312,408274,6,0,L|312:312,1,70
228,276,408616,2,0,L|292:236,1,70
252,156,408959,1,0,0:0:0:0:
336,116,409131,1,0,0:0:0:0:
256,60,409302,1,0,0:0:0:0:
104,64,409474,1,0,0:0:0:0:
100,292,409645,2,0,L|176:304,1,70
108,272,409988,2,0,L|176:244,1,70
288,224,410331,5,0,0:0:0:0:
288,224,410416,1,0,0:0:0:0:
288,224,410502,1,0,0:0:0:0:
192,136,410674,2,0,L|220:68,1,70
388,92,411016,2,0,L|432:152,1,70
400,260,411359,1,0,0:0:0:0:
288,160,411531,1,0,0:0:0:0:
184,292,411702,5,0,0:0:0:0:
88,176,411874,1,0,0:0:0:0:
112,48,412045,2,0,L|192:76,1,70
288,236,412388,2,0,L|284:160,1,70
360,56,412731,1,0,0:0:0:0:
432,168,412902,1,0,0:0:0:0:
432,168,412988,1,0,0:0:0:0:
432,168,413074,2,0,L|436:240,1,70
360,316,413416,5,0,0:0:0:0:
280,312,413588,1,0,0:0:0:0:
212,280,413759,2,0,L|272:224,1,70
152,236,414102,1,0,0:0:0:0:
120,168,414274,2,0,L|72:184,1,35
132,96,414445,6,0,L|168:108,1,35
232,64,414616,2,0,L|252:96,1,35
324,80,414788,2,0,L|332:116,1,35
408,148,414959,2,0,L|400:188,1,35
400,268,415131,2,0,L|308:264,1,70
232,252,415474,1,0,0:0:0:0:
136,120,415645,1,0,0:0:0:0:
136,120,415731,1,0,0:0:0:0:
136,120,415816,6,0,L|88:176,1,70
136,332,416159,1,0,0:0:0:0:
228,304,416331,1,0,0:0:0:0:
412,104,416502,1,0,0:0:0:0:
400,320,416674,1,0,0:0:0:0:
280,48,416845,1,0,0:0:0:0:
56,224,417016,1,0,0:0:0:0:
186,226,417188,6,0,L|234:301,1,70
313,287,417531,2,0,L|331:142,1,140
249,78,418045,1,0,0:0:0:0:
117,149,418216,1,0,0:0:0:0:
228,252,418388,1,0,0:0:0:0:
104,283,418559,2,0,L|62:305,2,35
61,177,418902,2,0,L|99:111,1,70
262,104,419245,2,0,L|301:189,1,70
239,281,419588,1,0,0:0:0:0:
331,284,419759,1,0,0:0:0:0:
447,220,419931,6,0,L|416:152,1,70
255,82,420274,2,0,L|292:154,1,70
289,277,420616,1,0,0:0:0:0:
117,266,420788,1,0,0:0:0:0:
206,180,420959,1,0,0:0:0:0:
141,66,421131,2,0,L|220:53,1,70
210,54,421388,1,0,0:0:0:0:
210,54,421474,1,0,0:0:0:0:
341,64,421645,1,0,0:0:0:0:
354,186,421816,1,0,0:0:0:0:
319,321,421988,6,0,P|274:297|251:273,1,70
230,167,422331,2,0,P|186:186|161:221,1,70
109,290,422674,1,0,0:0:0:0:
58,196,422845,1,0,0:0:0:0:
107,57,423016,2,0,L|180:58,1,70
360,126,423359,2,0,L|298:171,1,70
116,300,423702,2,0,L|139:206,1,70
192,107,424045,1,0,0:0:0:0:
192,107,424131,1,0,0:0:0:0:
192,107,424216,6,0,L|243:167,1,70
314,258,424559,1,0,0:0:0:0:
378,153,424731,1,0,0:0:0:0:
303,57,424902,1,0,0:0:0:0:
172,102,425074,2,0,L|204:167,1,70
131,299,425416,1,0,0:0:0:0:
290,312,425588,1,0,0:0:0:0:
157,189,425759,1,0,0:0:0:0:
103,131,425931,1,0,0:0:0:0:
161,48,426102,2,0,P|198:85|295:89,1,140
361,57,426616,1,0,0:0:0:0:
440,167,426788,5,0,0:0:0:0:
407,225,426874,1,0,0:0:0:0:
357,268,426959,1,0,0:0:0:0:
296,295,427045,1,0,0:0:0:0:
233,271,427131,5,0,0:0:0:0:
188,221,427216,1,0,0:0:0:0:
148,167,427302,1,0,0:0:0:0:
144,100,427388,1,0,0:0:0:0:
181,45,427474,2,0,L|250:65,1,70
447,118,427816,1,0,0:0:0:0:
83,266,427988,1,0,0:0:0:0:
91,136,428159,6,0,L|175:166,1,70
260,240,428502,2,0,L|186:281,1,70
81,299,428845,1,0,0:0:0:0:
56,103,429016,1,0,0:0:0:0:
226,175,429188,1,0,0:0:0:0:
106,196,429359,1,0,0:0:0:0:
106,196,429445,1,0,0:0:0:0:
106,196,429531,6,0,L|154:124,1,70
225,53,429874,2,0,L|272:118,1,70
426,173,430216,2,0,L|360:211,1,70
287,278,430559,1,0,0:0:0:0:
176,260,430731,1,0,0:0:0:0:
105,194,430902,2,0,L|177:158,1,70
146,66,431245,1,0,0:0:0:0:
297,64,431416,1,0,0:0:0:0:
297,64,431502,1,0,0:0:0:0:
297,64,431588,2,0,L|319:136,1,70
315,313,431931,5,0,0:0:0:0:
152,203,432102,1,0,0:0:0:0:
364,207,432274,2,0,P|409:189|425:159,1,70
372,47,432616,2,0,L|325:100,1,70
136,119,432959,1,0,0:0:0:0:
68,304,433131,1,0,0:0:0:0:
311,263,433302,1,0,0:0:0:0:
71,198,433474,1,0,0:0:0:0:
193,265,433645,6,0,L|235:197,1,70
283,53,433988,2,0,L|307:127,1,70
406,292,434331,2,0,L|369:220,1,70
277,195,434674,1,0,0:0:0:0:
204,127,434845,1,0,0:0:0:0:
106,75,435016,2,0,L|86:163,1,70
97,297,435359,2,0,L|174:275,1,70
240,196,435702,1,0,0:0:0:0:
414,114,435874,1,0,0:0:0:0:
251,72,436045,1,0,0:0:0:0:
377,237,436216,1,0,0:0:0:0:
277,305,436388,5,0,0:0:0:0:
157,283,436559,1,0,0:0:0:0:
277,305,436731,1,0,0:0:0:0:
157,283,436902,1,0,0:0:0:0:
352,316,437074,5,0,0:0:0:0:
323,147,437245,1,0,0:0:0:0:
352,316,437416,1,0,0:0:0:0:
323,147,437588,1,0,0:0:0:0:
179,65,437759,5,0,0:0:0:0:
58,272,437931,1,0,0:0:0:0:
179,65,438102,1,0,0:0:0:0:
58,272,438274,1,0,0:0:0:0:
151,331,438445,5,0,0:0:0:0:
215,312,438531,1,0,0:0:0:0:
266,270,438616,1,0,0:0:0:0:
283,205,438702,1,0,0:0:0:0:
279,138,438788,5,0,0:0:0:0:
302,75,438874,1,0,0:0:0:0:
356,38,438959,1,0,0:0:0:0:
422,37,439045,1,0,0:0:0:0:
428,53,439131,5,0,0:0:0:0:
434,68,439216,1,0,0:0:0:0:
441,84,439302,1,0,0:0:0:0:
448,100,439388,1,0,0:0:0:0:
456,115,439474,2,0,L|442:195,1,70
430,281,439816,1,0,0:0:0:0:
183,299,440502,5,0,0:0:0:0:
243,192,440674,1,0,0:0:0:0:
225,193,440759,1,0,0:0:0:0:
207,194,440845,1,0,0:0:0:0:
97,104,441188,1,0,0:0:0:0:
114,104,441274,1,0,0:0:0:0:
131,104,441359,1,0,0:0:0:0:
322,63,441874,5,0,0:0:0:0:
324,80,441959,1,0,0:0:0:0:
326,97,442045,1,0,0:0:0:0:
328,114,442131,1,0,0:0:0:0:
329,131,442216,2,0,L|289:208,1,70
339,316,442559,1,0,0:0:0:0:
93,321,443245,5,0,0:0:0:0:
193,250,443416,1,0,0:0:0:0:
192,232,443502,1,0,0:0:0:0:
191,214,443588,1,0,0:0:0:0:
54,135,443931,1,0,0:0:0:0:
71,132,444016,1,0,0:0:0:0:
88,128,444102,1,0,0:0:0:0:
105,124,444188,1,0,0:0:0:0:
122,120,444274,1,0,0:0:0:0:
277,52,444616,5,0,0:0:0:0:
290,62,444702,1,0,0:0:0:0:
303,72,444788,1,0,0:0:0:0:
316,82,444874,1,0,0:0:0:0:
330,91,444959,2,0,L|368:169,1,70
363,171,445216,1,0,0:0:0:0:
364,188,445302,2,0,L|292:235,1,70
128,282,446159,5,0,0:0:0:0:
139,268,446245,1,0,0:0:0:0:
150,254,446331,1,0,0:0:0:0:
235,58,446674,5,0,0:0:0:0:
244,72,446759,1,0,0:0:0:0:
253,86,446845,1,0,0:0:0:0:
419,168,447359,5,0,0:0:0:0:
408,182,447445,1,0,0:0:0:0:
397,196,447531,1,0,0:0:0:0:
386,210,447616,1,0,0:0:0:0:
375,223,447702,2,0,L|304:231,1,70
288,225,447959,1,0,0:0:0:0:
272,217,448045,2,0,L|303:122,1,70
145,75,448731,5,0,0:0:0:0:
68,195,448902,1,0,0:0:0:0:
83,202,448988,1,0,0:0:0:0:
98,209,449074,1,0,0:0:0:0:
246,293,449416,1,0,0:0:0:0:
277,277,449502,1,0,0:0:0:0:
302,253,449588,1,0,0:0:0:0:
319,222,449674,1,0,0:0:0:0:
323,187,449759,1,0,0:0:0:0:
