osu file format v14

[General]
AudioFilename: audio.mp3
AudioLeadIn: 0
PreviewTime: -1
Countdown: 0
SampleSet: Normal
StackLeniency: 0.4
Mode: 0
LetterboxInBreaks: 0
WidescreenStoryboard: 1

[Editor]
DistanceSpacing: 0.6
BeatDivisor: 4
GridSize: 16
TimelineZoom: 1

[Metadata]
Title:First Steps Melodic Dubstep Remix
TitleUnicode:First Steps Melodic Dubstep Remix
Artist:Celeste ft Akosmo
ArtistUnicode:Celeste ft Akosmo
Creator:Vel0ciTy
Version:Why can't mapping be ez
Source:
Tags:
BeatmapID:2126826
BeatmapSetID:1016192

[Difficulty]
HPDrainRate:6
CircleSize:4
OverallDifficulty:8.5
ApproachRate:9
SliderMultiplier:2
SliderTickRate:1

[Events]
//Background and Video events
//Break Periods
//Storyboard Layer 0 (Background)
//Storyboard Layer 1 (Fail)
//Storyboard Layer 2 (Pass)
//Storyboard Layer 3 (Foreground)
//Storyboard Layer 4 (Overlay)
//Storyboard Sound Samples

[TimingPoints]
35,344.827586206897,4,1,0,40,1,0
35,-200,4,1,0,10,0,0
33138,-133.333333333333,4,1,0,40,0,0
55207,-200,4,1,0,25,0,0
77276,-83.3333333333333,4,1,0,40,0,0
88310,-200,4,1,0,40,0,0
89000,-76.9230769230769,4,1,0,40,0,0
97966,-200,4,1,0,40,0,0
99345,-100,4,1,0,40,0,0
184862,-500,4,1,0,40,0,0
187621,-66.6666666666667,4,1,0,40,0,0
234517,-133.333333333333,4,1,0,40,0,0

[HitObjects]
31,32,35,6,0,P|25:56|28:80,1,50
96,144,379,2,0,P|102:119|99:95,1,50
32,256,724,6,0,P|25:231|28:207,1,50
96,144,1068,2,0,P|102:168|99:192,1,50
51,342,1414,6,0,P|75:348|99:345,1,50
163,278,1758,2,0,P|138:271|114:274,1,50
275,342,2103,6,0,P|250:348|226:345,1,50
163,278,2447,2,0,P|187:271|211:274,1,50
225,145,2793,6,0,P|218:169|221:193,1,50
289,257,3137,2,0,P|295:232|292:208,1,50
288,77,3483,6,0,P|263:70|239:73,1,50
176,141,3827,2,0,P|200:147|224:144,1,50
405,144,4172,6,0,P|380:137|356:140,1,50
293,208,4516,2,0,P|317:214|341:211,1,50
408,95,4862,6,0,P|401:119|404:143,1,50
472,207,5206,2,0,P|478:182|475:158,1,50
408,319,5552,6,0,P|401:294|404:270,1,50
472,207,5896,2,0,P|478:231|475:255,1,50
295,381,6241,6,0,P|319:387|343:384,1,50
407,317,6585,2,0,P|382:310|358:313,1,50
212,365,6931,6,0,P|206:341|209:317,1,50
276,253,7275,2,0,P|283:278|280:302,1,50
212,185,7621,6,0,P|236:179|260:182,1,50
324,249,7965,2,0,P|299:256|275:253,1,50
453,241,8310,6,0,P|429:247|405:244,1,50
341,177,8654,2,0,P|366:170|390:173,1,50
420,38,9000,6,0,P|413:61|415:86,1,50
483,150,9344,2,0,P|489:125|485:101,1,50
346,100,9690,6,0,P|343:124|350:148,1,50
415,86,10034,2,0,P|418:61|412:37,1,50
283,211,10379,6,0,P|280:235|287:259,1,50
349,148,10723,2,0,P|355:172|352:197,1,50
160,288,11069,6,0,P|136:281|116:266,3,50
196,107,11759,6,0,P|202:130|199:156,1,50
174,27,12103,2,0,P|151:37|134:55,1,50
159,183,12448,6,0,P|176:165|199:155,1,50
101,240,12792,2,0,P|120:254|144:261,1,50
243,177,13138,6,0,P|219:170|199:155,1,50
321,198,13482,2,0,P|323:173|317:149,1,50
480,16,13828,6,0,P|477:40|483:64,3,50
432,176,14517,6,0,P|434:151|428:127,1,50
314,100,14862,2,0,P|311:124|317:148,1,50,2|0,0:0|0:0,0:0:0:0:
352,263,15207,6,0,P|371:277|395:284,1,50
476,198,15552,2,0,P|456:183|432:176,1,50,2|0,0:0|0:0,0:0:0:0:
317,148,15897,6,0,P|294:157|276:175,1,50
310,288,16241,2,0,P|332:278|350:260,1,50,2|0,0:0|0:0,0:0:0:0:
128,208,16586,6,0,P|145:190|168:180,3,50,2|0|0|0,0:0|0:0|0:0|0:0,0:0:0:0:
221,304,17276,6,0,P|203:286|193:263,1,50,2|0,0:0|0:0,0:0:0:0:
337,328,17621,2,0,P|327:305|309:287,1,50,2|0,0:0|0:0,0:0:0:0:
224,178,17966,6,0,P|248:171|272:174,1,50,2|0,0:0|0:0,0:0:0:0:
145,266,18311,2,0,P|169:268|193:262,1,50,2|0,0:0|0:0,0:0:0:0:
331,244,18655,6,0,P|324:267|309:287,1,50,2|0,0:0|0:0,0:0:0:0:
294,131,19000,2,0,P|279:150|272:174,1,50,2|0,0:0|0:0,0:0:0:0:
144,345,19345,6,0,P|158:325|165:301,3,50,2|0|0|0,0:0|0:0|0:0|0:0,0:0:0:0:
64,160,20035,6,0,P|49:179|42:203,1,50,2|0,0:0|0:0,0:0:0:0:
192,160,20379,2,0,P|206:140|213:116,1,50,2|0,0:0|0:0,0:0:0:0:
256,271,20724,6,0,P|280:273|304:267,1,50,2|0,0:0|0:0,0:0:0:0:
192,160,21068,2,0,P|167:157|143:163,1,50,2|0,0:0|0:0,0:0:0:0:
257,50,21414,6,0,P|247:27|229:9,1,50,2|0,0:0|0:0,0:0:0:0:
192,160,21758,2,0,P|201:182|219:200,1,50,2|0,0:0|0:0,0:0:0:0:
432,191,22103,6,0,P|436:167|433:142,1,50,2|0,0:0|0:0,0:0:0:0:
384,32,22448,1,0,0:0:0:0:
384,32,22621,1,0,0:0:0:0:
319,144,22793,6,0,P|315:168|318:193,1,50,2|0,0:0|0:0,0:0:0:0:
368,304,23138,1,0,0:0:0:0:
368,304,23311,1,0,0:0:0:0:
317,192,23483,6,0,P|293:188|268:191,1,50,2|0,0:0|0:0,0:0:0:0:
158,241,23828,1,0,0:0:0:0:
158,241,24001,1,0,0:0:0:0:
270,305,24173,6,0,P|295:310|321:306,1,50,2|0,0:0|0:0,0:0:0:0:
430,257,24518,1,0,0:0:0:0:
430,257,24691,1,0,0:0:0:0:
220,190,24862,6,0,P|244:186|269:191,1,50,2|0,0:0|0:0,0:0:0:0:
340,284,25207,1,0,0:0:0:0:
340,284,25379,1,0,0:0:0:0:
270,142,25552,6,0,P|273:166|268:191,1,50,2|0,0:0|0:0,0:0:0:0:
176,262,25897,1,0,0:0:0:0:
176,262,26069,1,0,0:0:0:0:
270,142,26241,6,0,P|245:145|220:140,1,50,2|0,0:0|0:0,0:0:0:0:
150,48,26586,1,0,0:0:0:0:
150,48,26758,1,0,0:0:0:0:
220,190,26931,6,0,P|216:165|221:140,1,50,2|0,0:0|0:0,0:0:0:0:
314,70,27276,1,0,0:0:0:0:
314,70,27448,1,0,0:0:0:0:
246,275,27621,6,0,P|221:278|196:273,1,50,2|0,0:0|0:0,0:0:0:0:
111,187,27966,1,0,0:0:0:0:
111,187,28138,1,0,0:0:0:0:
223,91,28310,6,0,P|247:87|272:92,1,50,2|0,0:0|0:0,0:0:0:0:
358,179,28655,1,0,0:0:0:0:
358,179,28827,1,0,0:0:0:0:
184,227,29000,6,0,P|180:202|185:177,1,50,2|0,0:0|0:0,0:0:0:0:
272,92,29345,1,0,0:0:0:0:
272,92,29517,1,0,0:0:0:0:
368,204,29689,6,0,P|371:228|366:253,1,50,2|0,0:0|0:0,0:0:0:0:
280,339,30034,1,0,0:0:0:0:
280,339,30206,1,0,0:0:0:0:
184,129,30379,6,0,P|188:153|185:178,1,50,2|0,0:0|0:0,0:0:0:0:
93,249,30724,1,0,0:0:0:0:
93,249,30897,1,0,0:0:0:0:
16,104,31069,6,0,P|10:129|14:154,1,50,2|0,0:0|0:0,0:0:0:0:
93,249,31414,1,0,0:0:0:0:
93,249,31587,1,0,0:0:0:0:
184,129,31759,5,0,0:0:0:0:
139,189,31931,1,0,0:0:0:0:
242,267,32103,5,0,0:0:0:0:
212,199,32275,1,0,0:0:0:0:
93,249,32448,5,0,0:0:0:0:
167,257,32620,1,0,0:0:0:0:
184,129,32793,5,0,0:0:0:0:
242,267,32966,1,2,0:0:0:0:
312,68,33138,5,2,0:0:0:0:
212,199,33311,1,0,0:0:0:0:
375,220,33483,1,0,0:0:0:0:
449,99,33655,1,2,0:0:0:0:
199,125,33828,2,0,L|212:203,1,75.0000028610231
353,383,34172,5,0,0:0:0:0:
190,361,34345,1,0,0:0:0:0:
375,220,34517,1,0,0:0:0:0:
212,198,34690,1,0,0:0:0:0:
190,361,34862,1,0,0:0:0:0:
353,383,35035,1,0,0:0:0:0:
197,177,35207,2,0,L|182:254,1,75.0000028610231
16,368,35552,5,0,0:0:0:0:
190,361,35724,1,0,0:0:0:0:
269,194,35897,2,0,P|237:174|200:171,1,75.0000028610231
0,240,36241,5,0,0:0:0:0:
210,256,36414,1,0,0:0:0:0:
126,29,36586,2,0,L|112:107,1,75.0000028610231
210,256,36931,5,0,0:0:0:0:
294,95,37103,1,0,0:0:0:0:
113,102,37276,5,0,0:0:0:0:
274,186,37448,1,0,0:0:0:0:
201,326,37621,1,0,0:0:0:0:
193,144,37793,1,0,0:0:0:0:
232,367,37966,2,0,L|158:353,1,75.0000028610231
352,384,38310,5,0,0:0:0:0:
512,320,38482,1,0,0:0:0:0:
345,173,38655,2,0,P|308:172|273:185,1,75.0000028610231
232,367,39000,1,0,0:0:0:0:
432,352,39172,1,0,0:0:0:0:
358,99,39345,2,0,L|344:177,1,75.0000028610231
280,372,39690,5,0,0:0:0:0:
274,186,39862,1,0,0:0:0:0:
462,272,40035,5,0,0:0:0:0:
276,278,40207,1,0,0:0:0:0:
127,198,40379,5,0,0:0:0:0:
133,384,40552,1,0,0:0:0:0:
369,275,40724,2,0,L|355:196,1,75.0000028610231
328,18,41069,5,0,0:0:0:0:
502,121,41241,1,0,0:0:0:0:
369,275,41414,2,0,P|329:269|296:235,1,75.0000028610231
328,17,41759,5,0,0:0:0:0:
360,202,41931,1,0,0:0:0:0:
160,143,42103,2,0,L|207:134,1,37.5000014305115
344,110,42275,1,0,0:0:0:0:
166,215,42448,2,0,P|130:209|101:185,1,75.0000028610231
16,16,42793,5,0,0:0:0:0:
161,144,42966,1,0,0:0:0:0:
273,19,43138,1,0,0:0:0:0:
89,80,43311,1,0,0:0:0:0:
320,84,43483,2,0,L|306:10,1,75.0000028610231
89,80,43828,5,0,0:0:0:0:
273,19,44000,1,0,0:0:0:0:
77,159,44172,2,0,P|42:145|18:117,1,75.0000028610231
164,0,44517,5,0,0:0:0:0:
338,67,44690,1,0,0:0:0:0:
77,159,44862,2,0,L|90:232,1,75.0000028610231
224,336,45207,5,0,0:0:0:0:
32,352,45379,1,0,0:0:0:0:
287,235,45552,5,0,0:0:0:0:
128,344,45724,1,0,0:0:0:0:
35,207,45896,5,0,0:0:0:0:
208,290,46068,1,0,0:0:0:0:
367,182,46241,2,0,L|350:276,1,75.0000028610231
511,352,46586,5,0,0:0:0:0:
325,377,46759,1,0,0:0:0:0:
304,144,46931,2,0,P|341:113|381:109,1,75.0000028610231
418,364,47276,5,0,0:0:0:0:
367,182,47449,1,0,0:0:0:0:
500,47,47621,2,0,L|486:120,1,75.0000028610231
354,255,47966,5,0,0:0:0:0:
487,120,48138,1,0,0:0:0:0:
304,73,48310,5,0,0:0:0:0:
438,205,48482,1,0,0:0:0:0:
306,339,48656,1,0,0:0:0:0:
172,207,48828,1,0,0:0:0:0:
470,206,49000,2,0,L|456:284,1,75.0000028610231
239,273,49345,5,0,0:0:0:0:
438,205,49517,1,0,0:0:0:0:
278,65,49690,2,0,P|244:51|207:51,1,75.0000028610231
16,112,50035,5,0,0:0:0:0:
226,142,50207,1,0,0:0:0:0:
32,32,50379,2,0,L|110:18,1,75.0000028610231
278,65,50724,5,0,0:0:0:0:
432,32,50897,1,0,0:0:0:0:
206,51,51069,1,0,0:0:0:0:
376,89,51242,1,0,0:0:0:0:
353,278,51414,1,0,0:0:0:0:
512,212,51586,1,0,3:0:0:0:
278,65,51759,2,0,L|261:159,1,75.0000028610231
353,278,52103,5,0,0:0:0:0:
208,368,52276,1,0,0:0:0:0:
44,323,52448,2,0,P|25:290|21:253,1,75.0000028610231
213,149,52793,5,0,0:0:0:0:
208,368,52966,1,0,0:0:0:0:
9,180,53138,2,0,L|25:274,1,75.0000028610231
208,368,53483,5,0,0:0:0:0:
213,149,53655,1,0,0:0:0:0:
392,310,53828,5,0,0:0:0:0:
173,305,54000,1,0,0:0:0:0:
103,176,54172,5,0,0:0:0:0:
208,368,54344,1,0,0:0:0:0:
321,181,54517,2,0,L|273:172,1,37.5000014305115
103,176,54690,5,0,0:0:0:0:
208,368,54862,1,0,0:0:0:0:
211,243,55035,1,0,0:0:0:0:
321,181,55207,6,0,P|207:371|213:117,1,650
274,121,57621,5,0,0:0:0:0:
351,167,57793,1,0,0:0:0:0:
498,120,57966,2,0,B|498:8|402:8|306:8|306:120|306:216|402:216|434:216|471:195|471:195|450:185|428:171|416:141|421:107,1,550
471,195,60035,5,0,0:0:0:0:
432,288,60207,1,0,0:0:0:0:
496,368,60379,1,0,0:0:0:0:
397,381,60551,1,0,0:0:0:0:
337,302,60724,2,0,L|325:238,1,50
209,46,61069,6,0,B|138:3|37:18|23:90|37:118|66:147|138:176|196:118|196:118|138:61|66:90|37:118|23:147|37:219|138:234|210:191,1,750
338,147,63828,5,0,0:0:0:0:
385,222,64000,1,0,0:0:0:0:
337,302,64172,2,0,L|287:311,1,50
32,352,64517,2,0,B|79:222|-16:80|-16:80|67:173|168:130,1,475
119,74,66241,2,0,P|89:73|67:62,1,50
240,112,66586,6,0,L|251:48,1,50
336,16,66931,2,0,L|327:65,1,50
409,238,67276,6,0,L|400:188,1,50
313,142,67621,2,0,L|324:205,1,50
487,65,67966,6,0,L|496:16,1,50
408,62,68311,2,0,L|400:112,1,50
409,238,68655,5,0,0:0:0:0:
469,145,68828,1,0,0:0:0:0:
339,214,69000,2,0,P|333:241|344:277,1,50,0|0,2:0|2:0,2:0:0:0:
480,352,69345,6,0,L|471:302,1,50
384,384,69690,2,0,L|392:334,1,50
243,246,70035,6,0,L|251:295,1,50
339,214,70380,2,0,L|330:263,1,50
261,344,70724,6,0,L|252:294,1,50
144,368,71069,1,0,0:0:0:0:
153,319,71241,1,0,0:0:0:0:
261,344,71414,1,0,0:0:0:0:
247,270,71586,1,0,0:0:0:0:
144,368,71759,5,0,0:0:0:0:
261,344,71931,1,0,0:0:0:0:
119,244,72103,5,0,0:0:0:0:
247,270,72275,1,0,0:0:0:0:
144,368,72448,5,0,0:0:0:0:
284,339,72620,1,0,0:0:0:0:
119,244,72792,5,0,0:0:0:0:
272,275,72964,1,0,0:0:0:0:
144,368,73138,5,0,0:0:0:0:
296,336,73310,1,0,0:0:0:0:
119,244,73482,5,0,0:0:0:0:
286,278,73654,1,0,0:0:0:0:
144,368,73828,5,0,0:0:0:0:
309,333,74000,1,0,0:0:0:0:
119,244,74172,5,0,0:0:0:0:
301,281,74344,1,0,0:0:0:0:
144,368,74517,6,0,L|207:379,1,50
88,345,74862,2,0,L|137:336,1,50
119,244,75207,6,0,L|55:255,1,50
188,183,75552,2,0,L|138:174,1,50
139,83,75897,6,0,L|202:94,1,50
16,16,76242,2,0,L|65:7,1,50
248,107,76586,2,0,P|201:160|187:90,1,175
319,146,77276,6,0,P|153:215|143:36,1,419.999987182618
211,123,77966,2,0,B|186:245|358:324|427:184|427:184|453:139|500:135,1,419.999987182618
508,227,78655,2,0,P|348:350|160:280,1,419.999987182618
129,131,79345,2,8,B|126:94|149:66|149:66|98:115|22:77,1,179.999994506836,0|0,0:0|0:0,0:0:0:0:
212,124,79690,2,0,L|275:135,3,59.9999981689454,8|0|8|0,0:0|0:0|0:0|0:0,0:0:0:0:
67,162,80035,6,0,B|112:240|-16:288|32:384|32:384|16:327|54:279|103:259|165:296,1,419.999987182618,0|0,3:0|0:0,0:0:0:0:
210,322,80724,2,0,B|174:381|108:359|108:359|192:384|239:352|304:304|400:368,1,419.999987182618
482,332,81414,2,0,B|381:240|253:265|253:265|289:205|244:140|199:148|171:154,1,419.999987182618
137,206,82103,2,0,P|163:220|193:221,1,59.9999981689454
330,188,82276,2,0,B|429:196|515:263|515:263|473:216|497:136,1,299.999990844727
482,12,82793,6,0,B|398:41|429:137|429:137|362:118|283:95|283:135|252:158|241:204|291:248,1,419.999987182618
307,260,83483,5,0,3:0:0:0:
353,48,83655,1,0,3:0:0:0:
377,275,83828,2,0,P|367:302|342:325,1,59.9999981689454
160,336,84000,2,0,P|169:308|195:286,1,59.9999981689454
330,188,84172,6,0,B|298:180|298:180|266:188,1,59.9999981689454
112,112,84345,2,0,B|144:120|144:120|175:112,1,59.9999981689454
281,15,84517,2,0,P|274:44|277:80,1,59.9999981689454,0|0,3:0|3:0,3:0:0:0:
190,254,84690,2,0,P|191:224|184:195,1,59.9999981689454
96,16,84862,5,0,0:0:0:0:
75,235,85035,1,0,0:0:0:0:
219,67,85207,2,0,P|248:64|275:74,1,59.9999981689454
301,253,85379,2,0,P|271:254|243:244,1,59.9999981689454
99,140,85552,6,0,P|-18:265|151:296,1,419.999987182618
75,235,86241,2,0,B|207:155|274:235|340:315|473:235,1,419.999987182618
446,155,86931,2,0,P|297:107|448:68,1,419.999987182618
482,178,87621,2,0,L|470:241,1,59.9999981689454
371,366,87793,2,0,B|248:278|248:278|371:191,1,299.999990844727
373,328,88310,6,0,B|302:277|302:277|373:226,1,175
249,230,89000,6,0,B|233:246|217:277|233:310|249:326|249:326|176:272|240:224|273:69|112:16,1,454.999979171754
86,84,89690,2,0,P|135:110|66:84,1,454.999979171754
185,170,90379,2,0,B|144:210|174:260|174:260|124:230|84:270,1,194.999991073609
175,259,90724,2,0,L|239:271,3,64.9999970245363
16,352,91069,6,0,B|128:279|115:65|115:65|156:138|245:108,1,454.999979171754
197,26,91759,2,0,B|270:0|389:52|330:252|184:191|184:191|236:213|236:272,1,454.999979171754
158,264,92448,2,0,B|169:345|288:365|312:269|312:269|384:320|430:285|430:285|362:301|327:233,1,454.999979171754
393,146,93138,2,0,L|405:211,1,64.9999970245363
235,257,93310,2,0,B|284:236|334:246|334:246|256:208|224:240|185:288|121:252,1,324.999985122681
165,189,93828,2,0,B|297:103|444:223|444:223|376:157|429:70,1,454.999979171754
437,60,94517,5,0,0:0:0:0:
497,270,94690,1,0,0:0:0:0:
343,92,94862,2,0,P|312:86|279:84,1,64.9999970245363
165,189,95035,2,0,P|196:195|229:197,1,64.9999970245363
408,125,95207,6,0,B|416:93|416:93|408:62,1,64.9999970245363
210,50,95379,2,0,B|203:82|203:82|210:114,1,64.9999970245363
397,189,95552,2,0,L|407:124,1,64.9999970245363
290,19,95724,2,0,L|278:83,1,64.9999970245363
288,288,95897,5,0,0:0:0:0:
209,113,96069,1,0,0:0:0:0:
103,275,96241,2,0,P|113:306|137:328,1,64.9999970245363,2|0,0:0|0:0,0:0:0:0:
299,359,96414,2,0,P|329:348|351:324,1,64.9999970245363,2|0,0:0|0:0,0:0:0:0:
421,210,96586,6,2,B|262:240|210:153|162:52|0:97,1,454.999979171754
12,172,97276,2,0,P|178:250|-15:357,1,454.999979171754
32,239,97966,6,0,P|75:227|30:241,1,275
12,172,99000,1,0,0:0:0:0:
12,172,99172,1,0,0:0:0:0:
160,64,99345,6,0,P|172:85|177:109,1,50
128,224,99517,2,0,P|115:202|110:178,1,50
239,70,99690,2,0,P|251:91|256:115,1,50
206,229,99862,2,0,P|193:207|188:183,1,50
242,36,100035,6,0,L|320:49,1,50,0|0,3:0|3:0,3:0:0:0:
313,191,100207,2,0,L|264:183,1,50,0|0,3:0|3:0,3:0:0:0:
104,150,100379,6,0,P|80:158|63:176,1,50
64,320,100552,2,0,P|87:311|104:293,1,50
191,178,100724,2,0,P|167:186|150:204,1,50
151,348,100897,2,0,P|174:339|191:321,1,50
278,206,101069,2,0,P|254:214|237:232,1,50
238,376,101242,2,0,P|261:367|278:349,1,50
304,128,101414,6,0,L|240:139,1,50
64,177,101586,1,0,0:0:0:0:
207,238,101759,1,0,0:0:0:0:
64,320,101931,1,0,0:0:0:0:
274,205,102103,6,0,P|301:200|323:205,1,50
240,336,102276,2,0,P|213:341|191:336,1,50
403,214,102448,2,0,P|430:209|452:214,1,50
369,345,102621,2,0,P|342:350|320:345,1,50
164,148,102793,6,0,L|172:197,1,50,0|0,3:0|3:0,3:0:0:0:
331,254,102966,2,0,L|322:204,1,50,0|0,3:0|3:0,3:0:0:0:
305,48,103138,6,0,P|326:36|351:32,1,50
512,105,103310,2,0,P|488:96|464:96,1,50
291,134,103483,2,0,P|312:122|337:118,1,50
498,191,103655,2,0,P|474:182|450:182,1,50
276,221,103828,2,0,P|297:209|322:205,1,50
483,278,104000,2,0,P|459:269|435:269,1,50
309,361,104172,2,0,P|170:320|275:220,1,350
434,269,104862,2,0,L|89:329,1,350,0|0,3:0|0:0,0:0:0:0:
344,285,105552,2,0,L|0:224,1,350,0|0,3:0|0:0,0:0:0:0:
99,241,106241,6,0,L|443:180,1,350,0|0,3:0|0:0,0:0:0:0:
168,229,106931,2,0,L|512:289,1,350,0|0,3:0|0:0,0:0:0:0:
464,384,107621,6,0,L|403:39,1,350,0|0,3:0|0:0,0:0:0:0:
446,280,108310,2,0,L|101:219,1,350,0|0,3:0|0:0,0:0:0:0:
70,36,109000,6,0,L|130:380,1,350,0|0,3:0|0:0,0:0:0:0:
92,157,109689,2,0,P|227:191|112:271,1,350,0|0,3:0|0:0,0:0:0:0:
151,206,110379,5,0,0:0:0:0:
130,380,110552,1,0,0:0:0:0:
288,288,110724,1,0,0:0:0:0:
309,114,110897,1,0,0:0:0:0:
