osu file format v14

[General]
AudioFilename: audio.mp3
AudioLeadIn: 0
PreviewTime: 127673
Countdown: 0
SampleSet: Soft
StackLeniency: 0.8
Mode: 0
LetterboxInBreaks: 0
WidescreenStoryboard: 1

[Editor]
DistanceSpacing: 1
BeatDivisor: 4
GridSize: 32
TimelineZoom: 2.799999

[Metadata]
Title:Kung Fu Fighting
TitleUnicode:Kung Fu Fighting
Artist:Cee-Lo Green and Jack Black
ArtistUnicode:Cee-Lo Green and Jack Black
Creator:AJT
Version:Normal
Source:Kung Fu Panda
Tags:english pop disco carl douglas dreamworks animation movie soundtrack arronchu1207 mismagius blue dragon
BeatmapID:4469446
BeatmapSetID:1866973

[Difficulty]
HPDrainRate:3
CircleSize:3
OverallDifficulty:4
ApproachRate:5
SliderMultiplier:1.7
SliderTickRate:1

[Events]
//Background and Video events
0,0,"japanese_dojo_interior_view_1_by_austinmmyers1994_dcp8jqm-fullview.jpg",0,0
Video,-1200,"video.avi"
//Break Periods
//Storyboard Layer 0 (Background)
//Storyboard Layer 1 (Fail)
//Storyboard Layer 2 (Pass)
//Storyboard Layer 3 (Foreground)
//Storyboard Layer 4 (Overlay)
//Storyboard Sound Samples

[TimingPoints]
21854,545.454545454546,4,2,0,40,1,0
22946,545.454545454546,4,2,0,65,1,0
22946,-95.2380952380952,4,2,0,65,0,0
25161,-95.2380952380952,4,2,0,5,0,0
25196,-95.2380952380952,4,2,0,65,0,0
25980,-95.2380952380952,4,2,0,5,0,0
26015,-95.2380952380952,4,2,0,65,0,0
40400,-100,4,2,0,60,0,0
57855,-90.9090909090909,4,2,0,75,0,1
75309,-100,4,2,0,60,0,0
92764,-90.9090909090909,4,2,0,75,0,1
110218,-100,4,2,0,60,0,0
127673,-90.9090909090909,4,2,0,75,0,1
145127,-100,4,2,0,75,0,0
145161,-100,4,2,0,5,0,0

[Colours]
Combo1 : 255,96,96
Combo2 : 192,192,192
Combo3 : 82,82,82
Combo4 : 128,64,0

[HitObjects]
0,160,22946,6,0,B|86:158|37:137|133:130,1,133.874995914459,4|0,1:0|3:0,0:0:0:0:
176,255,23764,2,0,P|258:282|360:283,1,178.499994552612,2|0,0:0|3:0,0:0:0:0:
425,237,24582,1,8,0:0:0:0:
378,64,25127,5,2,3:0:0:0:
276,312,25946,1,2,3:0:0:0:
116,232,26491,2,0,L|61:224,1,44.6249986381531,2|2,3:2|0:0,0:0:0:0:
87,137,26900,2,0,L|131:143,1,44.6249986381531,2|2,3:2|0:0,0:0:0:0:
192,78,27309,6,0,B|278:79|229:100|325:107,1,133.874995914459,0|0,1:0|3:0,0:0:0:0:
444,159,28127,2,0,P|441:247|414:332,1,178.499994552612,2|0,0:0|3:0,0:0:0:0:
337,377,28946,2,0,P|288:381|245:362,1,89.2499972763062,8|0,0:0|3:0,0:0:0:0:
188,303,29491,5,0,1:0:0:0:
288,155,30036,1,8,0:0:0:0:
288,155,30309,1,2,0:0:0:0:
171,19,30855,2,0,P|125:20|77:34,1,89.2499972763062,0|8,3:0|0:0,0:0:0:0:
48,113,31400,1,2,0:0:0:0:
107,179,31673,5,4,1:0:0:0:
24,284,32082,1,2,0:2:0:0:
126,369,32491,2,0,B|253:372|174:348|309:344,1,178.499994552612,2|0,0:0|3:0,0:0:0:0:
390,336,33309,1,8,0:0:0:0:
498,194,33855,5,2,3:2:0:0:
455,66,34264,1,2,0:0:0:0:
330,16,34673,2,0,P|254:20|152:43,1,178.499994552612,2|0,0:0|3:0,0:0:0:0:
84,98,35491,2,0,P|69:141|67:191,1,89.2499972763062,8|2,0:0|0:0,0:0:0:0:
156,181,36036,5,0,1:0:0:0:
262,262,36445,1,0,1:0:0:0:
175,364,36854,2,0,B|48:367|127:343|-8:339,2,178.499994552612,2|0|0,0:0|3:0|3:0,0:0:0:0:
263,351,38218,5,2,3:2:0:0:
323,230,38627,1,2,0:0:0:0:
243,122,39036,2,0,P|143:128|66:158,1,178.499994552612,2|0,0:0|3:0,0:0:0:0:
49,242,39855,1,8,0:0:0:0:
182,346,40400,6,0,P|245:350|308:319,1,127.5,4|2,1:0|0:0,0:0:0:0:
404,247,41218,1,2,0:0:0:0:
404,247,41491,2,0,P|446:252|496:130,1,170,2|8,0:0|0:0,0:0:0:0:
411,17,42582,2,0,P|348:13|285:44,1,127.5,2|2,3:2|0:0,0:0:0:0:
285,166,43400,2,0,P|268:244|186:265,1,170,2|0,0:0|3:0,0:0:0:0:
152,342,44218,2,0,P|106:348|59:327,1,85,8|2,0:0|0:0,0:0:0:0:
7,277,44764,5,2,3:2:0:0:
21,150,45173,1,2,3:2:0:0:
36,27,45582,1,2,0:0:0:0:
36,27,45855,1,2,0:0:0:0:
191,95,46400,2,0,P|239:88|282:71,1,85,8|2,0:0|0:0,0:0:0:0:
333,15,46946,1,2,3:2:0:0:
436,89,47355,1,2,0:0:0:0:
376,203,47764,1,2,0:0:0:0:
376,203,48036,2,0,L|365:291,1,85,2|0,0:0|3:0,0:0:0:0:
351,371,48582,1,8,0:0:0:0:
196,301,49127,6,0,B|102:308|151:323|58:327,2,127.5,2|2|2,1:2|0:0|0:0,0:0:0:0:
321,185,50491,1,0,3:0:0:0:
321,185,50764,2,0,P|322:140|310:97,1,85,8|2,0:0|0:0,0:0:0:0:
249,44,51309,2,0,B|155:37|204:22|111:18,1,127.5,2|2,3:2|0:0,0:0:0:0:
12,78,52127,2,0,P|3:164|49:235,1,170,2|2,0:0|0:0,0:0:0:0:
119,275,52946,2,0,P|164:273|197:253,1,85,8|2,0:0|0:0,0:0:0:0:
274,288,53491,5,0,1:0:0:0:
364,197,53900,1,2,3:2:0:0:
316,78,54309,1,2,0:0:0:0:
70,146,55127,1,8,0:0:0:0:
161,289,55673,5,0,1:0:0:0:
252,379,56082,1,2,0:0:0:0:
371,331,56491,2,0,P|384:291|393:218,1,85,2|0,0:0|3:0,0:0:0:0:
455,193,57036,1,0,1:0:0:0:
405,123,57309,1,8,0:0:0:0:
465,63,57582,1,2,0:0:0:0:
383,17,57855,6,0,B|287:19|341:42|234:50,1,140.25000428009,6|2,1:0|0:1,0:0:0:0:
158,156,58673,2,0,P|160:201|182:243,1,93.5000028533936,2|0,3:1|3:0,0:0:0:0:
271,269,59218,1,2,3:1:0:0:
353,225,59491,1,10,0:1:0:0:
479,362,60036,6,0,P|497:320|497:272,1,93.5000028533936,2|2,1:2|0:2,0:0:0:0:
447,193,60582,2,0,P|465:151|465:103,1,93.5000028533936,8|2,0:0|0:0,0:0:0:0:
383,58,61127,1,2,0:0:0:0:
296,93,61400,1,0,3:0:0:0:
228,26,61673,2,0,L|118:12,1,93.5000028533936,8|2,0:0|0:0,0:0:0:0:
44,40,62218,6,0,B|12:122|51:83|21:177,1,140.25000428009,2|2,1:0|3:1,0:0:0:0:
48,314,63036,2,0,P|136:311|232:278,1,187.000005706787,2|0,3:1|3:0,0:0:0:0:
299,341,63855,2,0,P|340:356|390:350,1,93.5000028533936,8|2,0:0|0:0,0:0:0:0:
461,291,64400,5,2,1:2:0:0:
461,291,64673,1,2,0:0:0:0:
461,291,64946,2,0,L|470:180,1,93.5000028533936,10|2,0:0|0:0,0:0:0:0:
383,193,65491,1,2,3:2:0:0:
383,193,65764,1,0,3:0:0:0:
383,193,66037,1,8,0:0:0:0:
226,90,66582,5,2,1:0:0:0:
129,191,66991,1,2,0:1:0:0:
167,326,67400,2,0,B|302:322|223:298|350:301,1,187.000005706787,2|2,3:1|3:1,0:0:0:0:
442,283,68218,1,10,0:1:0:0:
476,99,68764,5,2,1:2:0:0:
343,144,69173,1,2,0:2:0:0:
266,26,69582,2,0,B|181:6|172:68|75:53,1,187.000005706787,2|2,0:0|0:0,0:0:0:0:
12,114,70400,1,10,0:0:0:0:
63,192,70673,1,2,0:0:0:0:
156,181,70945,5,2,1:0:0:0:
266,266,71354,1,2,1:0:0:0:
182,378,71763,2,0,B|55:381|134:357|-1:353,2,187.000005706787,2|2|2,3:1|3:2|0:2,0:0:0:0:
266,336,73127,1,2,1:2:0:0:
336,274,73400,1,2,0:0:0:0:
314,182,73673,1,10,0:0:0:0:
331,90,73946,1,2,0:0:0:0:
412,45,74218,2,0,P|464:61|502:86,2,93.5000028533936,2|0|8,0:0|3:0|0:0,0:0:0:0:
242,23,75309,6,0,B|185:0|185:0|131:39,1,127.5,4|0,1:0|3:0,0:0:0:0:
41,129,76127,1,2,0:0:0:0:
4,205,76400,1,2,3:2:0:0:
47,278,76673,2,0,P|146:271|261:252,1,212.5,2|0,3:2|0:0,0:0:0:0:
282,287,77491,2,0,B|357:316|304:274|416:314,2,127.5,0|2|2,3:0|0:0|0:0,0:0:0:0:
419,185,78855,1,2,3:2:0:0:
419,185,79127,2,0,P|436:146|443:104,1,85,10|0,0:0|0:0,0:0:0:0:
398,31,79673,6,0,P|336:15|289:11,1,85,0|2,3:0|0:0,0:0:0:0:
276,29,80082,1,2,3:2:0:0:
188,121,80491,1,2,0:0:0:0:
138,190,80764,1,2,0:2:0:0:
200,247,81036,2,0,P|287:240|349:189,1,170,2|0,0:0|0:0,0:0:0:0:
433,201,81855,1,2,3:2:0:0:
463,324,82264,1,2,0:0:0:0:
351,382,82673,1,2,3:2:0:0:
351,382,82945,2,0,L|263:371,1,85,0|0,3:0|3:0,0:0:0:0:
182,359,83491,1,8,0:0:0:0:
32,278,84036,6,0,P|18:236|21:175,1,85,0|2,1:0|0:0,0:0:0:0:
42,160,84446,1,2,0:0:0:0:
105,49,84855,2,0,P|146:35|207:38,1,85,2|2,0:0|0:0,0:0:0:0:
264,70,85400,2,0,P|281:170|223:259,1,212.5,2|2,3:2|0:0,0:0:0:0:
237,299,86218,2,0,B|143:306|192:321|99:325,1,127.5,0|2,3:0|0:0,0:0:0:0:
78,299,86764,2,0,P|58:264|58:221,1,85,8|0,0:0|3:0,0:0:0:0:
129,173,87309,1,2,0:0:0:0:
92,96,87582,1,2,3:2:0:0:
148,32,87855,2,3,P|191:16|230:16,1,85,10|2,3:1|0:2,0:1:0:0:
282,82,88400,5,0,1:0:0:0:
367,176,88809,1,0,3:0:0:0:
313,291,89218,1,2,0:0:0:0:
362,360,89491,1,2,0:0:0:0:
446,352,89764,2,0,P|466:293|474:216,1,127.5,2|2,3:2|0:0,0:0:0:0:
439,106,90582,5,0,1:0:0:0:
378,47,90855,1,2,0:0:0:0:
294,57,91127,1,8,0:0:0:0:
294,57,91400,2,0,P|281:97|277:141,1,85,2|0,0:0|1:0,0:0:0:0:
355,172,91945,1,2,0:0:0:0:
305,242,92218,1,10,0:0:0:0:
365,302,92491,1,8,0:3:0:0:
299,369,92764,6,0,B|203:367|257:344|150:336,1,140.25000428009,6|2,1:0|0:1,0:0:0:0:
34,282,93582,2,0,P|18:239|22:192,1,93.5000028533936,2|0,3:1|3:0,0:0:0:0:
81,119,94127,1,2,3:1:0:0:
174,118,94400,1,10,0:1:0:0:
327,11,94945,6,0,P|390:33|472:31,1,140.25000428009,2|2,1:2|0:2,0:0:0:0:
502,167,95764,2,0,P|439:189|357:187,1,140.25000428009,2|0,3:2|0:0,0:0:0:0:
350,232,96309,1,2,3:2:0:0:
407,305,96582,2,0,B|366:328|366:328|320:323,1,93.5000028533936,8|2,0:0|0:0,0:0:0:0:
238,369,97127,6,0,B|156:337|195:376|101:346,1,140.25000428009,2|2,1:0|3:1,0:0:0:0:
31,224,97945,1,2,3:1:0:0:
197,134,98491,1,0,3:0:0:0:
197,134,98764,2,0,P|222:156|282:171,1,93.5000028533936,8|2,0:0|0:0,0:0:0:0:
342,102,99309,6,0,P|335:54|333:-9,2,93.5000028533936,8|2|8,1:3|0:0|0:0,0:0:0:0:
400,175,100127,2,0,P|393:223|391:286,2,93.5000028533936,8|2|2,1:3|0:0|0:2,0:0:0:0:
484,130,100946,1,8,0:0:0:0:
508,220,101218,1,2,0:0:0:0:
488,311,101491,5,2,1:0:0:0:
358,364,101900,1,2,0:1:0:0:
276,250,102309,2,0,B|141:263|222:281|95:287,1,187.000005706787,2|2,3:1|3:1,0:0:0:0:
1,301,103127,1,10,0:1:0:0:
27,115,103673,5,2,1:2:0:0:
164,143,104082,1,2,0:2:0:0:
246,26,104491,2,0,B|331:6|340:68|437:53,1,187.000005706787,2|2,0:0|0:0,0:0:0:0:
472,136,105309,1,8,0:0:0:0:
433,221,105582,1,2,0:0:0:0:
348,180,105855,6,0,P|321:220|312:274,1,93.5000028533936,2|2,1:0|0:0,0:0:0:0:
266,256,106263,1,2,1:1:0:0:
330,378,106672,2,0,B|457:381|378:357|513:353,2,187.000005706787,2|0|2,3:1|3:0|3:2,0:0:0:0:
237,360,108036,1,2,0:0:0:0:
120,281,108446,1,2,0:0:0:0:
232,196,108855,1,2,0:0:0:0:
232,196,109127,2,0,P|287:192|329:176,2,93.5000028533936,2|0|8,0:0|3:2|0:0,0:0:0:0:
157,138,109946,1,2,3:2:0:0:
157,138,110218,6,0,P|169:97|170:55,1,85,4|0,1:0|3:0,0:0:0:0:
146,19,110627,1,2,0:0:0:0:
48,101,111036,1,2,0:0:0:0:
48,101,111309,1,2,0:0:0:0:
16,180,111582,2,0,P|19:223|42:259,1,85,2|8,3:2|0:0,0:0:0:0:
161,378,112400,2,0,P|210:375|252:357,1,85,0|0,3:0|0:0,0:0:0:0:
276,335,112809,1,2,0:0:0:0:
237,213,113218,2,0,P|218:165|219:120,1,85,2|0,0:0|3:0,3:0:0:0:
268,62,113763,1,2,3:2:0:0:
346,29,114036,1,8,3:2:0:0:
430,32,114308,1,2,0:0:0:0:
506,69,114582,6,0,P|502:112|489:151,1,85,2|0,3:2|3:0,0:0:0:0:
507,190,114991,1,2,3:2:0:0:
481,318,115400,1,2,0:0:0:0:
481,318,115673,1,2,0:0:0:0:
317,295,116218,2,3,B|222:310|291:316|180:334,1,127.5,10|2,0:1|0:0,0:1:0:0:
166,362,116764,1,2,3:2:0:0:
99,308,117036,2,0,L|94:253,1,42.5,2|2,0:0|0:0,0:0:0:0:
161,212,117446,2,0,L|156:157,1,42.5,2|2,0:2|0:0,0:0:0:0:
73,154,117855,2,0,L|64:63,1,85,2|2,0:0|3:2,0:0:0:0:
142,32,118400,1,8,0:2:0:0:
301,89,118945,6,0,B|369:83|333:72|402:69,1,85,2|2,1:2|0:0,0:0:0:0:
408,36,119355,1,2,0:0:0:0:
472,90,119627,2,0,L|467:145,1,42.5,2|2,0:0|0:0,0:0:0:0:
491,305,120309,1,2,3:2:0:0:
491,305,120582,2,0,P|446:306|403:294,1,85,8|2,0:0|0:0,0:0:0:0:
339,244,121127,2,0,B|271:249|306:259|240:262,1,85,0|0,1:0|3:0,0:0:0:0:
233,297,121536,1,2,0:0:0:0:
186,368,121809,2,0,L|143:364,1,42.5,2|2,0:0|0:0,0:0:0:0:
18,257,122491,1,2,3:2:0:0:
18,257,122764,2,0,P|0:215|4:177,1,85,8|2,0:0|0:0,0:0:0:0:
54,107,123309,6,0,L|109:102,1,42.5,0|2,1:0|0:0,0:0:0:0:
180,94,123718,1,0,1:0:0:0:
264,87,123991,2,0,L|319:82,1,42.5,2|2,0:0|0:0,0:0:0:0:
480,73,124673,1,2,3:2:0:0:
487,157,124946,2,0,L|499:296,1,127.5,8|0,0:0|0:0,0:0:0:0:
503,326,125491,5,0,1:0:0:0:
342,382,126036,1,8,1:2:0:0:
241,250,126582,1,0,1:0:0:0:
164,213,126854,1,2,3:2:0:0:
81,234,127127,1,10,0:0:0:0:
54,314,127400,1,8,0:3:0:0:
127,371,127673,6,0,B|223:369|169:346|276:338,1,140.25000428009,6|2,1:0|0:1,0:0:0:0:
350,230,128491,2,0,P|348:185|326:143,1,93.5000028533936,2|0,3:1|3:0,0:0:0:0:
236,113,129036,1,2,3:1:0:0:
155,160,129309,1,10,0:1:0:0:
33,22,129854,6,0,P|31:79|14:163,1,140.25000428009,2|2,1:2|0:2,0:0:0:0:
45,195,130400,1,8,0:0:0:0:
55,287,130673,1,2,0:0:0:0:
138,330,130945,1,2,0:0:0:0:
222,287,131218,1,2,0:0:0:0:
284,358,131491,2,0,L|394:372,1,93.5000028533936,8|2,0:0|0:0,0:0:0:0:
468,344,132036,6,0,B|500:262|461:301|491:207,1,140.25000428009,6|2,1:0|3:1,0:0:0:0:
510,164,132582,1,8,0:0:0:0:
467,81,132854,1,2,3:1:0:0:
280,99,133400,1,2,3:2:0:0:
209,37,133673,1,8,0:0:0:0:
116,26,133946,1,2,0:0:0:0:
51,93,134218,5,0,1:0:0:0:
51,93,134491,1,2,0:0:0:0:
51,93,134764,2,0,L|42:204,1,93.5000028533936,8|2,0:0|0:0,0:0:0:0:
138,212,135309,1,2,0:3:0:0:
138,212,135582,1,0,3:2:0:0:
138,212,135855,2,0,B|160:254|160:254|211:264,1,93.5000028533936,8|2,0:2|0:2,0:2:0:0:
295,288,136400,5,2,1:0:0:0:
367,229,136673,1,0,3:0:0:0:
396,192,136809,1,2,3:1:0:0:
345,58,137218,2,0,B|210:62|289:86|162:83,1,187.000005706787,2|2,3:1|3:1,0:0:0:0:
70,101,138036,1,10,0:1:0:0:
18,281,138582,6,0,P|66:259|120:254,1,93.5000028533936,2|2,1:2|0:2,0:0:0:0:
152,256,138991,1,2,0:2:0:0:
246,358,139400,2,0,B|331:378|340:316|437:331,1,187.000005706787,2|2,0:0|0:0,0:0:0:0:
500,270,140218,1,10,0:2:0:0:
449,192,140491,1,2,0:2:0:0:
356,203,140763,5,2,1:0:0:0:
281,146,141036,1,0,3:0:0:0:
243,118,141172,1,2,1:1:0:0:
330,6,141581,2,0,B|457:3|378:27|513:31,2,187.000005706787,2|2|2,0:1|0:0|0:0,0:0:0:0:
238,25,142945,1,0,1:0:0:0:
177,96,143218,1,2,0:0:0:0:
213,182,143491,1,8,0:0:0:0:
234,273,143764,1,2,0:0:0:0:
176,346,144036,1,2,0:0:0:0:
84,361,144308,1,0,3:0:0:0:
15,297,144582,1,2,3:2:0:0:
0,123,145127,5,4,1:0:0:0:
