osu file format v14

[General]
AudioFilename: audio.mp3
AudioLeadIn: 0
PreviewTime: 127673
Countdown: 0
SampleSet: Soft
StackLeniency: 0.5
Mode: 0
LetterboxInBreaks: 0
WidescreenStoryboard: 0

[Editor]
DistanceSpacing: 1
BeatDivisor: 4
GridSize: 32
TimelineZoom: 2.799999

[Metadata]
Title:Kung Fu Fighting
TitleUnicode:Kung Fu Fighting
Artist:Cee-Lo Green and Jack Black
ArtistUnicode:Cee-Lo Green and Jack Black
Creator:AJT
Version:Courage
Source:Kung Fu Panda
Tags:english pop disco carl douglas dreamworks animation movie soundtrack arronchu1207 mismagius blue dragon
BeatmapID:3840424
BeatmapSetID:1866973

[Difficulty]
HPDrainRate:6
CircleSize:3
OverallDifficulty:8.5
ApproachRate:9.4
SliderMultiplier:2.5
SliderTickRate:1

[Events]
//Background and Video events
0,0,"japanese_dojo_interior_view_1_by_austinmmyers1994_dcp8jqm-fullview.jpg",0,0
Video,-1200,"video.avi"
//Break Periods
//Storyboard Layer 0 (Background)
//Storyboard Layer 1 (Fail)
//Storyboard Layer 2 (Pass)
//Storyboard Layer 3 (Foreground)
//Storyboard Layer 4 (Overlay)
//Storyboard Sound Samples

[TimingPoints]
21854,545.454545454546,4,2,0,40,1,0
22946,545.454545454546,4,2,0,40,1,0
22946,-66.6666666666667,4,2,0,65,0,0
25161,-66.6666666666667,4,2,0,5,0,0
25196,-66.6666666666667,4,2,0,65,0,0
25980,-66.6666666666667,4,2,0,5,0,0
26015,-66.6666666666667,4,2,0,65,0,0
40400,-66.6666666666667,4,2,0,60,0,0
57855,-80,4,2,0,75,0,1
75309,-50,4,2,0,60,0,0
75718,-66.6666666666667,4,2,0,60,0,0
87855,-14.7058823529412,4,2,0,60,0,0
88400,-66.6666666666667,4,2,0,60,0,0
89764,-40,4,2,0,60,0,0
90855,-66.6666666666667,4,2,0,60,0,0
92764,-66.6666666666667,4,2,0,75,0,1
95491,-80,4,2,0,75,0,1
97127,-66.6666666666667,4,2,0,75,0,1
101218,-80,4,2,0,75,0,1
101491,-66.6666666666667,4,2,0,75,0,1
109946,-80,4,2,0,75,0,1
110218,-66.6666666666667,4,2,0,60,0,0
111582,-50,4,2,0,60,0,0
112400,-66.6666666666667,4,2,0,60,0,0
116218,-10,4,2,0,60,0,0
116627,-33.3333333333333,4,2,0,60,0,0
116764,-66.6666666666667,4,2,0,60,0,0
120309,-50,4,2,0,60,0,0
120855,-66.6666666666667,4,2,0,60,0,0
122491,-50,4,2,0,60,0,0
123309,-66.6666666666667,4,2,0,60,0,0
124673,-50,4,2,0,60,0,0
125491,-66.6666666666667,4,2,0,60,0,0
126036,-66.6666666666667,4,2,0,60,0,0
127673,-57.1428571428571,4,2,0,75,0,1
141309,-28.5714285714286,4,2,0,75,0,1
141855,-57.1428571428571,4,2,0,75,0,1
145127,-10,4,2,0,75,0,0
145161,-10,4,2,0,5,0,0
145196,-80,4,2,0,5,0,0

[Colours]
Combo1 : 255,96,96
Combo2 : 192,192,192
Combo3 : 82,82,82
Combo4 : 128,64,0

[HitObjects]
256,178,22127,5,2,0:0:0:0:
256,181,22264,1,2,0:0:0:0:
256,185,22400,1,2,0:0:0:0:
256,188,22536,1,2,0:0:0:0:
256,192,22673,1,2,0:0:0:0:
145,267,22946,6,0,B|282:291|262:168|407:190,1,281.250010728836,4|0,1:0|0:0,0:0:0:0:
512,256,23491,1,8,0:0:0:0:
169,384,23764,6,0,B|141:243|31:304|8:166,1,281.250010728836,2|0,0:0|0:0,0:0:0:0:
109,0,24309,5,0,3:0:0:0:
109,0,24446,1,0,0:0:0:0:
8,167,24582,1,8,0:0:0:0:
192,128,24718,1,0,3:0:0:0:
8,167,24855,1,0,3:0:0:0:
3,384,25127,6,0,L|-1:359,1,23.4375008940697,2|0,3:0|0:0,0:0:0:0:
320,320,25673,1,8,0:0:0:0:
3,384,25946,6,0,L|-1:359,1,23.4375008940697,2|0,3:0|0:0,0:0:0:0:
7,166,26082,2,0,P|20:211|29:258,1,93.7500035762788,2|0,0:0|0:0,0:0:0:0:
160,384,26355,1,2,0:0:0:0:
320,320,26491,5,2,3:2:0:0:
446,384,26628,2,0,P|456:344|489:194,1,187.500007152558,2|0,0:0|0:0,0:0:0:0:
386,56,27036,1,2,0:0:0:0:
440,198,27173,1,2,0:0:0:0:
367,267,27309,6,0,B|230:291|250:168|105:190,1,281.250010728836,0|0,1:0|3:0,0:0:0:0:
0,256,27854,1,8,0:0:0:0:
343,384,28127,6,0,B|371:243|481:304|504:166,1,281.250010728836,2|0,0:0|0:0,0:0:0:0:
373,61,28673,2,0,P|384:107|409:162,1,93.7500035762788,0|0,3:0|0:0,0:0:0:0:
503,167,28946,1,8,0:0:0:0:
401,21,29081,1,0,3:0:0:0:
338,268,29218,2,0,P|327:222|302:167,1,93.7500035762788,0|0,3:0|0:0,0:0:0:0:
401,21,29491,6,0,B|373:162|263:101|240:239,1,281.250010728836,0|0,1:0|0:0,0:0:0:0:
283,384,30036,1,8,0:0:0:0:
0,256,30309,5,2,0:0:0:0:
0,256,30446,2,0,P|43:245|116:230,1,93.7500035762788,2|0,0:0|0:0,0:0:0:0:
85,384,30718,1,2,0:0:0:0:
134,354,30855,1,0,3:0:0:0:
94,292,30991,1,2,0:0:0:0:
215,254,31127,5,8,0:0:0:0:
271,78,31264,1,2,0:0:0:0:
155,138,31400,1,2,0:0:0:0:
330,194,31536,1,2,0:0:0:0:
504,97,31673,6,0,B|363:125|424:235|286:258,1,281.250010728836,4|0,1:0|0:0,0:0:0:0:
330,194,32218,1,8,0:0:0:0:
0,28,32491,6,0,B|141:56|80:166|218:189,1,281.250010728836,2|0,0:0|0:0,0:0:0:0:
330,194,33036,1,0,3:0:0:0:
382,142,33173,1,2,0:0:0:0:
378,52,33309,1,8,0:0:0:0:
296,0,33446,1,0,3:0:0:0:
271,9,33582,1,0,3:0:0:0:
271,9,33855,6,0,P|258:112|229:223,1,187.500007152558,2|0,3:2|0:0,0:0:0:0:
241,375,34264,2,0,P|253:271|282:160,1,187.500007152558,2|0,0:0|0:0,0:0:0:0:
83,188,34673,6,0,P|112:88|129:-24,1,187.500007152558,2|0,0:0|0:0,0:0:0:0:
428,195,35082,1,0,0:0:0:0:
428,195,35218,2,0,P|413:244|404:301,1,93.7500035762788,0|0,3:0|0:0,0:0:0:0:
241,375,35491,2,0,P|226:325|217:268,1,93.7500035762788,8|0,0:0|0:0,0:0:0:0:
0,156,35764,1,2,0:0:0:0:
85,326,35900,1,2,0:0:0:0:
181,232,36036,6,0,B|278:214|263:302|366:286,1,187.500007152558,0|0,1:0|0:0,0:0:0:0:
482,87,36446,2,0,P|502:45|512:0,2,93.7500035762788,0|8|0,1:0|0:0|0:0,0:0:0:0:
509,241,36855,6,0,B|368:253|420:368|272:385,1,281.250010728836,2|0,0:0|0:0,0:0:0:0:
139,323,37400,5,0,3:0:0:0:
109,234,37536,1,0,0:0:0:0:
9,217,37673,1,8,0:0:0:0:
111,363,37808,1,2,3:2:0:0:
174,116,37945,2,0,P|185:162|210:217,1,93.7500035762788,0|0,3:0|0:0,0:0:0:0:
279,384,38218,6,0,B|261:286|349:301|333:198,1,187.500007152558,2|0,3:2|0:0,0:0:0:0:
512,208,38627,1,2,0:0:0:0:
512,208,38764,2,0,B|415:225|430:137|327:153,1,187.500007152558,8|0,0:0|0:0,0:0:0:0:
256,0,39173,1,2,0:0:0:0:
192,96,39309,2,0,P|203:142|228:197,1,93.7500035762788,2|0,0:0|0:0,0:0:0:0:
119,215,39582,2,0,P|108:169|83:114,1,93.7500035762788,0|0,3:0|0:0,0:0:0:0:
0,192,39855,5,8,0:0:0:0:
240,243,39991,1,0,3:0:0:0:
163,306,40127,5,2,0:0:0:0:
403,255,40263,1,2,0:0:0:0:
433,384,40400,6,0,P|443:332|477:192,1,187.500007152558,4|0,1:0|0:0,0:0:0:0:
256,0,40809,2,0,P|266:52|300:192,1,187.500007152558,2|0,0:0|0:0,0:0:0:0:
129,384,41218,2,0,P|119:332|85:192,2,187.500007152558,2|2|0,0:0|0:0|3:0,0:0:0:0:
512,0,42036,5,8,0:0:0:0:
403,255,42173,1,0,3:0:0:0:
403,255,42446,1,0,0:0:0:0:
493,221,42582,6,0,P|448:153|354:169,1,187.500007152558,2|0,3:2|0:0,0:0:0:0:
313,298,42991,2,0,P|358:366|452:350,1,187.500007152558,2|0,0:0|0:0,0:0:0:0:
493,221,43400,1,2,0:0:0:0:
493,221,43536,2,0,P|448:153|354:169,1,187.500007152558,2|0,0:0|0:0,0:0:0:0:
290,384,43946,6,0,P|280:339|259:279,1,93.7500035762788,0|0,3:0|0:0,0:0:0:0:
295,101,44218,2,0,P|309:146|320:192,1,93.7500035762788,8|0,0:0|0:0,0:0:0:0:
192,0,44491,1,2,0:0:0:0:
192,0,44627,1,2,0:0:0:0:
0,166,44764,6,0,P|83:133|214:100,1,187.500007152558,2|0,3:2|0:0,0:0:0:0:
505,320,45173,2,0,P|421:287|290:254,1,187.500007152558,2|0,3:2|0:0,0:0:0:0:
0,384,45582,1,2,0:0:0:0:
0,384,45718,2,0,P|41:367|107:351,1,93.7500035762788,2|0,0:0|0:0,0:0:0:0:
505,320,45991,1,2,0:0:0:0:
505,320,46127,2,0,P|463:303|397:279,1,93.7500035762788,2|0,0:0|0:0,0:0:0:0:
192,0,46400,5,8,0:0:0:0:
192,0,46536,1,0,0:0:0:0:
233,154,46673,1,2,0:0:0:0:
354,93,46809,1,2,0:0:0:0:
448,224,46946,6,0,P|415:141|382:10,1,187.500007152558,2|0,3:2|0:0,0:0:0:0:
64,160,47355,2,0,P|97:243|130:374,1,187.500007152558,2|0,0:0|0:0,0:0:0:0:
338,205,47764,6,0,P|324:170|310:113,1,93.7500035762788,2|0,0:0|0:0,0:0:0:0:
173,178,48036,2,0,P|187:213|201:270,1,93.7500035762788,2|0,0:0|0:0,0:0:0:0:
201,267,48309,1,0,3:0:0:0:
324,384,48446,5,2,0:0:0:0:
338,205,48582,2,0,P|324:170|310:113,2,93.7500035762788,8|0|0,0:0|0:0|0:0,0:0:0:0:
324,384,48991,1,2,0:0:0:0:
431,133,49127,5,2,1:2:0:0:
324,384,49264,1,2,0:0:0:0:
487,346,49400,1,2,0:0:0:0:
324,384,49536,1,2,0:0:0:0:
199,266,49673,6,0,P|154:254|108:248,1,93.7500035762788,8|0,0:0|0:0,0:0:0:0:
243,70,49946,1,2,0:0:0:0:
312,117,50082,2,0,P|355:128|419:135,1,93.7500035762788,2|0,0:0|0:0,0:0:0:0:
269,314,50355,1,2,0:0:0:0:
199,267,50491,2,0,P|156:255|92:248,1,93.7500035762788,0|0,3:0|0:0,0:0:0:0:
226,384,50764,6,0,P|236:302|261:183,1,187.500007152558,8|0,0:0|0:0,0:0:0:0:
256,199,51173,1,0,0:0:0:0:
0,96,51309,6,0,P|82:106|201:131,1,187.500007152558,2|0,3:2|0:0,0:0:0:0:
512,0,51718,2,0,P|430:10|311:35,1,187.500007152558,2|0,0:0|0:0,0:0:0:0:
256,199,52127,1,2,0:0:0:0:
256,199,52264,1,2,0:0:0:0:
184,126,52400,6,0,P|138:116|90:106,1,93.7500035762788,2|0,0:0|0:0,0:0:0:0:
327,30,52673,2,0,P|373:21|418:11,1,93.7500035762788,2|0,0:0|0:0,0:0:0:0:
256,199,52946,5,8,0:0:0:0:
327,30,53082,1,2,0:0:0:0:
256,199,53218,1,2,0:0:0:0:
327,30,53354,1,2,0:0:0:0:
184,126,53491,5,0,1:0:0:0:
184,126,53627,2,0,P|138:116|90:106,1,93.7500035762788,2|0,0:0|0:0,0:0:0:0:
0,192,53900,1,0,3:0:0:0:
192,0,54036,2,0,P|205:90|237:220,1,187.500007152558,8|2,0:0|0:0,0:0:0:0:
226,184,54446,1,2,0:0:0:0:
128,256,54582,6,0,P|87:231|18:207,1,93.7500035762788,2|0,0:0|0:0,0:0:0:0:
271,300,54855,2,0,P|246:340|222:409,1,93.7500035762788,2|0,0:0|0:0,0:0:0:0:
512,192,55127,6,0,P|422:205|192:264,1,281.250010728836,8|0,0:0|0:0,0:0:0:0:
0,384,55673,1,0,1:0:0:0:
0,384,55809,1,2,0:0:0:0:
0,384,56082,1,2,0:0:0:0:
191,300,56218,6,0,P|182:246|170:195,1,93.7500035762788,8|0,0:0|0:0,0:0:0:0:
256,0,56491,2,0,P|270:95|293:186,1,187.500007152558,2|0,0:0|3:0,0:0:0:0:
346,260,56900,5,2,0:0:0:0:
166,197,57036,1,0,1:0:0:0:
394,193,57173,1,2,0:0:0:0:
118,275,57309,1,8,0:0:0:0:
423,312,57446,1,0,1:0:0:0:
83,143,57582,2,0,P|76:201|67:250,1,93.7500035762788,2|0,0:0|0:0,0:0:0:0:
352,384,57855,6,0,P|346:338|299:236,1,156.25,6|0,1:0|0:0,0:0:0:0:
145,0,58264,2,0,P|99:6|-3:53,1,156.25,2|0,0:1|0:0,0:0:0:0:
301,238,58673,2,0,P|370:274|447:288,1,156.25,2|0,0:1|3:0,0:0:0:0:
447,287,59082,1,0,0:0:0:0:
402,0,59218,5,2,3:1:0:0:
338,160,59354,1,0,0:0:0:0:
512,203,59491,5,10,0:1:0:0:
453,83,59628,1,0,3:0:0:0:
512,0,59764,1,0,3:0:0:0:
0,72,60037,5,2,1:2:0:0:
148,141,60173,1,2,0:2:0:0:
70,0,60309,1,2,0:2:0:0:
50,159,60446,1,2,0:2:0:0:
160,40,60582,6,0,P|200:30|249:27,1,78.125,8|0,0:0|0:0,0:0:0:0:
352,344,60855,2,0,P|312:354|263:357,1,78.125,2|0,0:0|0:0,0:0:0:0:
104,288,61128,2,0,P|94:248|91:199,1,78.125,2|0,0:0|0:0,0:0:0:0:
408,96,61400,5,0,3:0:0:0:
408,96,61537,2,0,P|418:136|421:185,1,78.125,2|8,0:0|0:0,0:0:0:0:
104,288,61809,1,0,3:0:0:0:
104,288,61946,2,0,P|94:248|91:199,1,78.125,2|0,0:0|0:0,0:0:0:0:
160,0,62218,6,0,P|166:46|213:148,1,156.25,2|0,1:0|0:0,0:0:0:0:
367,384,62628,2,0,P|413:378|515:331,1,156.25,2|0,3:1|0:0,0:0:0:0:
211,146,63037,2,0,P|142:110|65:96,1,156.25,2|0,0:1|3:0,0:0:0:0:
64,320,63446,1,0,0:0:0:0:
0,384,63582,2,0,L|18:280,1,78.125,0|0,3:0|0:0,0:0:0:0:
0,0,63855,1,8,0:0:0:0:
0,0,63991,1,0,3:0:0:0:
66,96,64127,5,2,0:0:0:0:
220,67,64263,1,2,0:0:0:0:
377,38,64400,1,2,1:2:0:0:
345,340,64673,5,2,0:0:0:0:
217,308,64809,1,2,0:0:0:0:
89,276,64946,1,10,0:0:0:0:
115,86,65218,5,2,0:0:0:0:
220,67,65354,1,2,0:0:0:0:
327,47,65491,1,2,3:2:0:0:
220,67,65628,5,2,0:0:0:0:
115,86,65764,1,0,3:0:0:0:
52,0,65900,1,2,0:0:0:0:
89,186,66037,5,8,0:0:0:0:
144,315,66173,1,0,3:0:0:0:
181,222,66309,1,2,0:0:0:0:
52,277,66446,1,2,0:0:0:0:
256,384,66582,5,2,1:0:0:0:
256,0,66854,1,2,0:0:0:0:
256,0,66991,2,0,P|210:6|108:53,1,156.25,2|0,3:1|0:0,0:0:0:0:
256,384,67400,2,0,P|302:378|404:331,1,156.25,2|0,0:1|3:0,0:0:0:0:
512,192,67809,1,0,0:0:0:0:
486,364,67946,2,0,L|443:272,1,78.125,2|0,3:1|0:0,0:0:0:0:
192,64,68218,5,10,0:1:0:0:
288,0,68354,1,0,3:0:0:0:
288,0,68490,1,0,3:0:0:0:
461,384,68764,5,2,1:2:0:0:
443,272,68900,1,2,0:2:0:0:
423,161,69036,1,2,0:2:0:0:
402,50,69173,1,2,0:2:0:0:
512,319,69309,6,0,P|472:309|423:306,1,78.125,8|0,0:0|0:0,0:0:0:0:
237,26,69582,2,0,P|198:30|160:40,1,78.125,2|0,0:0|0:0,0:0:0:0:
512,65,69855,6,0,P|472:75|423:78,1,78.125,2|0,0:0|0:0,0:0:0:0:
237,358,70128,2,0,P|198:354|160:343,1,78.125,2|0,0:0|0:0,0:0:0:0:
0,192,70400,5,10,0:0:0:0:
108,160,70536,1,2,0:0:0:0:
215,130,70672,1,2,0:0:0:0:
321,101,70809,1,2,0:1:0:0:
352,384,70946,6,0,P|346:338|299:236,1,156.25,0|0,1:0|0:0,0:0:0:0:
145,0,71355,2,0,P|99:6|-3:53,1,156.25,2|0,1:0|0:0,0:0:0:0:
301,238,71764,2,0,P|370:274|447:288,1,156.25,2|0,0:1|3:0,0:0:0:0:
448,64,72174,5,0,0:0:0:0:
512,0,72309,1,2,3:2:0:0:
448,192,72446,1,2,0:0:0:0:
512,384,72582,1,8,0:0:0:0:
512,384,72719,1,2,0:0:0:0:
424,306,72856,5,2,0:2:0:0:
215,345,72992,1,2,0:2:0:0:
7,383,73128,1,2,1:2:0:0:
391,101,73400,5,2,0:0:0:0:
224,70,73536,1,2,0:0:0:0:
57,40,73672,1,10,0:0:0:0:
364,264,73946,5,2,0:0:0:0:
230,289,74082,1,2,0:0:0:0:
97,314,74218,1,2,3:0:0:0:
230,289,74355,1,0,3:0:0:0:
364,264,74491,1,0,3:0:0:0:
364,264,74628,1,0,3:0:0:0:
465,187,74764,5,8,0:0:0:0:
397,25,74900,1,2,0:0:0:0:
512,72,75037,1,2,0:0:0:0:
350,141,75173,1,2,0:0:0:0:
146,50,75309,6,0,P|77:14|7:0,2,125,4|0|2,1:0|0:0|0:0,0:0:0:0:
350,141,75718,1,0,0:0:0:0:
397,25,75855,2,0,L|416:151,1,93.7500035762788,8|0,0:0|0:0,0:0:0:0:
214,228,76127,2,0,P|268:207|402:180,1,187.500007152558,2|0,0:0|0:0,0:0:0:0:
512,171,76536,1,0,0:0:0:0:
512,373,76673,6,0,P|457:352|50:262,1,468.750017881394,2|0,3:2|0:0,0:0:0:0:
58,262,77491,5,0,3:0:0:0:
183,332,77627,1,2,0:0:0:0:
0,384,77764,1,2,0:0:0:0:
172,205,77900,1,2,0:0:0:0:
172,205,78036,6,0,P|157:104|138:7,1,187.500007152558,8|2,0:0|0:0,0:0:0:0:
0,0,78446,1,0,0:0:0:0:
106,78,78582,6,0,P|115:124|122:171,1,93.7500035762788,2|0,0:0|0:0,0:0:0:0:
256,384,78855,2,0,P|310:363|444:336,2,187.500007152558,2|10|0,3:2|0:0|0:0,0:0:0:0:
0,332,79673,5,0,3:0:0:0:
219,373,79809,1,2,0:0:0:0:
122,171,79946,1,2,0:0:0:0:
340,205,80082,6,0,P|354:104|374:7,1,187.500007152558,2|0,3:2|0:0,0:0:0:0:
172,179,80491,1,2,0:0:0:0:
172,179,80627,2,0,P|157:280|138:377,1,187.500007152558,2|0,0:0|0:0,0:0:0:0:
512,373,81036,6,0,P|457:352|50:262,1,468.750017881394,2|0,0:0|0:0,0:0:0:0:
58,262,81855,5,2,3:2:0:0:
183,332,81991,1,2,0:0:0:0:
58,262,82127,5,0,0:0:0:0:
183,332,82263,1,2,0:0:0:0:
0,384,82400,1,8,0:0:0:0:
172,205,82536,1,2,0:0:0:0:
172,205,82672,6,0,P|157:104|138:7,1,187.500007152558,2|0,3:2|0:0,0:0:0:0:
0,0,83082,1,0,0:0:0:0:
201,54,83218,2,0,P|210:100|217:147,1,93.7500035762788,0|0,3:0|0:0,0:0:0:0:
512,373,83491,6,0,B|419:313|522:186|389:120,1,281.250010728836,8|0,0:0|0:0,0:0:0:0:
512,0,84036,5,0,1:0:0:0:
471,128,84173,1,2,0:0:0:0:
288,0,84309,1,2,0:0:0:0:
222,190,84446,2,0,P|238:232|255:302,2,93.7500035762788,2|8|0,0:0|0:0|0:0,0:0:0:0:
67,2,84855,6,0,P|43:101|16:191,1,187.500007152558,2|2,0:0|0:0,0:0:0:0:
149,265,85264,1,2,0:0:0:0:
1,373,85400,6,0,P|56:352|463:262,1,468.750017881394,2|0,3:2|0:0,0:0:0:0:
454,262,86218,5,0,3:0:0:0:
329,332,86355,2,0,P|284:321|208:308,1,93.7500035762788,2|0,0:0|0:0,0:0:0:0:
512,384,86627,1,2,0:0:0:0:
340,205,86763,6,0,P|355:104|374:7,1,187.500007152558,8|0,0:0|0:0,0:0:0:0:
512,0,87173,1,2,0:0:0:0:
286,60,87309,2,0,P|297:105|310:181,1,93.7500035762788,2|0,0:0|0:0,0:0:0:0:
128,384,87582,2,0,P|139:339|152:263,1,93.7500035762788,2|0,3:2|0:0,0:0:0:0:
0,0,87855,6,3,B|1:1|1:0|1:0|2:1|2:1|0:1|0:1|1:1|1:1|1:3|2:2|2:2|4:2|4:2|1:2|1:2|1:3|1:3|2:4|3:5|3:5|4:4|4:4|1:5|1:5|3:5|3:5|4:7|4:6|4:6|5:6|5:6|3:7|3:7|4:7|4:7|6:9|4:8|4:8|7:8|7:8|3:9|3:9|6:9|6:9|6:11|5:10|5:10|7:10|7:10|5:11|5:11|6:11|6:11|6:13|6:13|6:13|8:12|8:12|5:13|5:13|6:13|6:13|8:13|8:14|8:14|9:14|9:14|6:15|6:15|8:15|8:15|8:18|8:17|8:17|10:17|10:17|7:18|7:18|8:18|8:18|10:18|10:19|10:19|11:19|11:19|8:20|8:20|10:19|10:19|11:22|11:21|11:21|13:20|13:20|10:21|10:21|11:22|11:22|11:22|12:23|12:23|13:23|13:23|10:23|10:23|12:24|12:24|12:24|12:24|12:24|15:25|15:25|12:26|12:26|13:25|13:25|13:27|13:27|13:27|15:26|15:26|13:28|13:28|13:27|13:27|14:28|14:29|14:29|15:29|15:29|12:30|12:30|15:30|15:30|15:31|15:31|15:31|17:30|17:30|14:32|14:32|15:32|15:32|17:32|17:33|17:33|17:32|17:32|14:34|14:34|16:34|16:34|17:36|17:36|17:36|19:35|19:35|16:36|16:36|17:36|17:36|18:36|19:37|19:37|20:37|20:37|17:38|17:38|19:38|19:38|19:40|19:40|19:40|20:38|20:38|18:41|18:41|19:40|19:40|21:42|21:42|21:42|22:41|22:41|19:42|19:42|21:42|21:42|21:43|20:43|20:43|22:43|22:43|20:44|20:44|20:44|20:44|22:45|21:46|21:46|23:45|23:45|21:47|21:47|22:45|22:45|23:46|22:48|22:48|24:47|24:47|22:49|22:49|22:48|22:48|24:50|23:49|23:49|25:49|25:49|22:51|22:51|24:50|24:50|24:52|25:51|25:51|26:51|26:51|23:53|23:53|24:52|24:52|24:53|25:54|25:54|27:53|27:53|24:54|24:54|25:55|25:55|26:57|26:55|26:55|28:56|28:56|24:57|24:57|26:57|26:57|26:58|26:58|26:58|29:58|29:58|26:59|26:59|27:59|27:59|28:59|28:60|28:60|29:60|29:60|26:61|26:61|28:61|28:61|28:61|28:62|28:62|31:62|31:62|27:63|27:63|29:63|29:63|30:64|29:64|29:64|31:64|31:64|28:66|28:66|29:65|29:65|30:66|30:67|30:67|32:66|32:66|29:67|29:67|30:67|30:67|31:70|31:69|31:69|32:69|32:69|29:69|29:69|31:70|31:70|32:71|32:71|32:71|34:71|34:71|31:72|31:72|32:71|32:71|33:72|33:73|33:73|34:73|34:73|31:74|31:74|33:73|33:73|34:76|34:75|34:75|36:74|36:74|33:76|33:76|34:76|34:76|34:76|35:77|35:77|36:77|36:77|33:78|33:78|35:78|35:78|36:80|35:80|35:80|37:79|37:79|34:81|34:81|36:80|36:80|37:82|37:82|37:82|37:81|37:81|35:82|35:82|37:82|37:82|36:83|36:84|36:84|38:83|38:83|35:84|35:84|37:85|37:85|38:87|38:85|38:85|38:85|38:85|37:87|37:87|38:87|38:87|38:88|38:87|38:87|40:88|40:88|37:88|37:88|38:88|38:88|39:90|39:89|39:89|40:90|40:90|37:91|37:91|39:90|39:90|39:91|40:92|40:92|42:91|42:91|39:92|39:92|40:93|40:93|41:95|41:94|41:94|42:94|42:94|39:95|39:95|41:95|41:95|41:96|41:96|41:96|43:96|43:96|40:97|40:97|42:97|42:97|42:98|43:99|43:99|44:98|44:98|41:99|41:99|42:100|42:100|42:100|42:101|42:101|45:101|45:101|42:101|42:101|43:102|43:102|44:102|43:103|43:103|45:103|45:103|42:104|42:104|44:104|44:104|44:104|44:105|44:105|45:105|45:105|44:106|44:106|45:106|45:106|45:106|45:107|45:107|47:107|47:107|43:108|43:108|46:108|46:108|45:109|46:109|46:109|47:110|47:110|45:111|45:111|46:110|46:110|47:111|46:112|46:112|48:111|48:111|45:112|45:112|46:112|46:112|47:114|47:113|47:113|49:113|49:113|46:114|46:114|47:114|47:114|47:115|48:116|48:116|50:115|50:115|46:117|46:117|48:116|48:116|47:117|49:118|49:118|50:117|50:117|47:118|47:118|49:119|49:119|49:121|48:120|48:120|51:120|51:120|48:121|48:121|49:121|49:121|50:123|51:122|51:122|51:122|51:122|49:123|49:123|50:123|50:123|50:124|50:125|50:125|52:124|52:124|49:125|49:125|51:125|51:125|52:127|51:126|51:126|53:127|53:127|50:128|50:128|52:127|52:127|51:130|51:130|51:130|53:129|53:129|51:130|51:130|51:130|51:130|53:132|53:131|53:131|54:132|54:132|50:132|50:132|53:132|53:132|53:133|53:133|54:133|54:133|52:134|52:134|53:133|53:133|53:134|54:135|54:135|55:135|55:135|52:136|52:136|54:136|54:136|54:137|54:137|54:137|56:137|56:137|53:138|53:138|55:138|55:138|55:140|55:140|55:140|57:139|57:139|54:140|54:140|55:140|55:140|55:141|56:142|56:142|57:142|57:142|54:143|54:143|56:143|56:143|56:143|55:144|55:144|58:144|58:144|55:145|55:145|56:145|56:145|56:146|58:147|58:147|58:147|58:147|56:147|56:147|57:147|57:147|57:148|57:149|57:149|59:148|59:148|56:148|56:148|58:150|58:150|58:151|58:151|58:151|60:151|60:151|56:151|56:151|58:151|58:151|58:154|58:153|58:153|60:152|60:152|57:153|57:153|58:154|58:154|59:156|59:155|59:155|61:155|61:155|57:156|57:156|59:156|59:156|59:157|60:157|60:157|61:157|61:157|58:158|58:158|60:157|60:157|60:158|60:160|60:160|62:160|62:160|59:160|59:160|60:161|60:161|61:161|61:161|61:161|62:162|62:162|59:163|59:163|61:162|61:162|61:166|61:165|61:165|63:164|63:164|60:164|60:164|61:166|61:166|61:166|61:166|64:167|64:167|60:167|60:167|62:166|62:166|62:167|62:169|62:169|63:168|63:168|61:169|61:169|62:168|62:168|63:171|63:170|63:170|65:171|65:171|61:171|61:171|63:171|63:171|64:173|63:172|63:172|64:173|64:173|62:174|62:174|64:173|64:173|64:174|64:175|64:175|65:175|65:175|63:176|63:176|64:176|64:176|65:176|65:177|65:177|65:178|65:178|63:178|63:178|65:178|65:178|65:179|65:179|66:180|66:180|64:180|64:180|64:181|64:181|65:180|66:181|66:181|67:182|67:182|64:182|64:182|65:182|65:182|66:183|66:183|66:183|67:184|67:184|65:185|65:185|66:184|66:184|66:187|67:186|67:186|68:186|68:186|65:187|65:187|66:187|66:187|66:187|68:188|68:188|68:189|68:189|65:189|65:189|67:189|67:189|67:191|67:191|69:191|69:191|66:191|66:191|67:191|67:191|68:193|67:192|67:192|69:193|69:193|66:194|66:194|68:193|68:193|68:194|67:196|67:196|69:195|69:195|67:196|67:196|68:195|68:195|69:198|68:197|68:197|71:197|71:197|67:198|67:198|69:198|69:198|69:200|69:199|69:199|70:200|70:200|67:200|67:200|69:200|69:200|69:202|69:202|71:202|71:202|68:202|68:202|69:202|69:202|70:203|70:203|70:203|72:204|72:204|68:205|68:205|70:204|70:204|71:206|70:206|70:206|72:206|72:206|69:207|69:207|71:206|71:206|70:207|71:208|71:208|73:208|73:208|70:209|70:209|70:210|70:210|71:211|72:210|72:210|72:211|72:211|70:211|70:211|71:211|71:211|71:212|71:212|73:213|73:213|70:213|70:213|71:214|71:214|72:214|72:215|72:215|73:215|73:215|70:216|70:216|72:215|72:215|72:216|72:217|72:217|73:217|73:217|71:218|71:218|73:218|73:218|73:218|72:220|72:220|75:220|75:220|71:220|71:220|73:220|73:220|73:221|73:222|73:222|74:222|74:222|71:222|71:222|73:222|73:222|73:225|73:224|73:224|75:224|75:224|72:224|72:224|73:225|73:225|74:225|74:226|74:226|75:226|75:226|72:227|72:227|73:227|73:227|74:228|74:229,1,850.000016212464,10|2,0:1|0:2,0:1:0:0:
147,292,88264,1,2,0:0:0:0:
0,384,88400,21,0,1:0:0:0:
226,324,88536,2,0,P|215:279|202:203,1,93.7500035762788
512,192,88809,5,0,3:0:0:0:
286,60,88945,2,0,P|297:105|310:181,1,93.7500035762788,8|0,0:0|0:0,0:0:0:0:
414,384,89218,6,0,P|434:283|458:188,1,187.500007152558,2|0,0:0|0:0,0:0:0:0:
305,151,89627,1,0,3:0:0:0:
1,372,89764,6,0,P|56:351|463:261,1,468.750017881394,2|2,3:2|0:0,0:0:0:0:
416,96,90309,1,2,0:0:0:0:
512,192,90446,1,2,0:0:0:0:
416,96,90582,5,0,1:0:0:0:
256,256,90718,1,0,0:0:0:0:
96,96,90855,2,0,P|84:145|71:186,1,93.7500035762788,2|0,0:0|0:0,0:0:0:0:
256,384,91127,2,0,P|244:334|201:178,2,187.500007152558,8|2|0,0:0|0:0|1:0,0:0:0:0:
346,260,91810,5,2,0:0:0:0:
166,197,91946,1,2,0:0:0:0:
394,193,92082,1,2,0:0:0:0:
118,275,92219,1,10,0:0:0:0:
423,312,92355,6,0,L|480:304,1,46.8750017881394,8|8,0:3|0:3,0:0:0:0:
83,143,92491,2,0,L|26:151,1,46.8750017881394,8|8,0:3|0:3,0:0:0:0:
256,0,92627,1,8,0:3:0:0:
256,0,92696,1,8,0:3:0:0:
256,0,92764,6,0,P|249:58|224:201,1,187.500007152558,6|0,1:0|0:0,0:0:0:0:
0,384,93173,1,2,0:1:0:0:
186,243,93309,6,0,P|182:214|169:142,1,93.7500035762788,8|0,0:0|0:0,0:0:0:0:
352,384,93582,2,0,P|359:326|384:183,1,187.500007152558,2|0,0:1|3:0,0:0:0:0:
435,0,93991,1,0,0:0:0:0:
512,149,94127,5,2,3:1:0:0:
320,224,94264,1,0,0:0:0:0:
352,384,94400,5,10,0:1:0:0:
160,309,94537,1,2,3:2:0:0:
320,224,94673,1,2,3:2:0:0:
51,0,94946,5,2,1:2:0:0:
69,112,95082,1,2,0:2:0:0:
89,223,95218,1,2,0:2:0:0:
110,334,95355,1,2,0:2:0:0:
0,65,95491,6,0,P|40:75|89:78,1,78.125,8|0,0:0|0:0,0:0:0:0:
275,358,95764,2,0,P|314:354|352:344,1,78.125,2|0,3:2|0:0,0:0:0:0:
0,319,96037,6,0,P|40:309|89:306,1,78.125,2|0,0:0|0:0,0:0:0:0:
275,26,96310,2,0,P|314:30|352:41,1,78.125,2|0,3:2|0:0,0:0:0:0:
480,96,96582,5,8,0:0:0:0:
256,192,96718,1,0,3:0:0:0:
32,96,96855,2,0,P|43:131|54:191,1,78.125,2|0,0:0|0:0,0:0:0:0:
256,384,97127,6,0,P|263:326|288:183,1,187.500007152558,2|0,1:0|0:0,0:0:0:0:
512,0,97536,1,2,3:1:0:0:
326,141,97672,6,0,P|330:170|343:242,1,93.7500035762788,8|0,0:0|0:0,0:0:0:0:
160,0,97945,2,0,P|153:58|128:201,1,187.500007152558,2|0,0:1|3:0,0:0:0:0:
77,384,98354,1,0,0:0:0:0:
0,235,98490,5,0,3:0:0:0:
192,160,98627,1,0,0:0:0:0:
160,0,98763,5,8,0:0:0:0:
352,75,98900,1,0,3:0:0:0:
192,160,99036,5,2,0:0:0:0:
352,75,99173,1,2,0:0:0:0:
160,0,99310,1,8,1:3:0:0:
307,266,99582,5,2,0:0:0:0:
179,198,99719,1,2,0:0:0:0:
332,138,99856,1,8,0:0:0:0:
215,351,100127,5,8,1:3:0:0:
317,297,100264,1,2,0:0:0:0:
194,249,100401,1,2,0:0:0:0:
256,384,100536,5,2,0:2:0:0:
256,384,100673,1,2,0:2:0:0:
256,384,100809,1,2,0:2:0:0:
32,288,100945,5,8,0:0:0:0:
256,192,101081,1,2,0:0:0:0:
480,288,101218,2,0,P|468:252|458:193,1,78.125,2|2,0:0|0:0,0:0:0:0:
256,0,101491,5,2,1:0:0:0:
186,243,101763,1,2,0:0:0:0:
0,384,101900,1,2,3:1:0:0:
186,243,102036,6,0,P|182:214|169:142,1,93.7500035762788,8|0,0:0|0:0,0:0:0:0:
352,384,102309,2,0,P|359:326|384:183,1,187.500007152558,2|0,0:1|3:0,0:0:0:0:
435,0,102718,1,0,0:0:0:0:
512,149,102854,5,2,3:1:0:0:
419,301,102991,1,2,0:0:0:0:
331,106,103127,1,10,0:1:0:0:
256,384,103264,1,2,3:2:0:0:
90,152,103400,1,0,3:0:0:0:
461,0,103673,5,2,1:2:0:0:
331,106,103809,1,2,0:2:0:0:
256,384,103945,1,2,0:2:0:0:
423,223,104082,1,2,0:2:0:0:
0,192,104218,6,0,P|40:182|111:172,1,93.7500035762788,8|0,0:0|0:0,0:0:0:0:
512,192,104491,2,0,P|472:202|401:212,1,93.7500035762788,2|0,0:0|0:0,0:0:0:0:
256,0,104764,2,0,P|266:40|276:111,1,93.7500035762788,2|0,0:0|0:0,0:0:0:0:
256,384,105036,2,0,P|246:344|236:273,1,93.7500035762788,2|0,0:0|0:0,0:0:0:0:
128,96,105309,5,8,0:0:0:0:
384,288,105445,1,2,0:0:0:0:
384,96,105582,1,2,0:0:0:0:
128,288,105718,1,2,0:1:0:0:
256,384,105854,6,0,P|249:326|224:183,1,187.500007152558,0|0,1:0|0:0,0:0:0:0:
0,0,106263,1,2,1:1:0:0:
186,141,106399,6,0,P|182:170|169:242,1,93.7500035762788,8|0,0:0|0:0,0:0:0:0:
352,0,106672,2,0,P|359:58|384:201,1,187.500007152558,2|0,0:1|3:0,0:0:0:0:
435,384,107081,1,0,0:0:0:0:
512,235,107217,5,0,3:0:0:0:
320,160,107354,1,0,0:0:0:0:
224,224,107491,5,8,0:0:0:0:
22,269,107628,1,2,3:2:0:0:
186,384,107764,5,2,3:2:0:0:
173,241,107900,1,2,0:0:0:0:
161,99,108036,1,2,1:2:0:0:
180,117,108310,5,2,0:0:0:0:
190,232,108446,1,2,0:0:0:0:
200,345,108582,1,8,0:0:0:0:
211,314,108855,5,2,0:0:0:0:
203,224,108991,1,2,0:0:0:0:
195,132,109127,1,2,3:0:0:0:
256,0,109263,5,0,3:2:0:0:
256,0,109400,1,0,3:2:0:0:
256,0,109536,1,0,3:2:0:0:
480,96,109672,5,8,0:0:0:0:
256,192,109808,1,0,3:0:0:0:
32,96,109946,1,2,3:2:0:0:
256,192,110082,1,2,0:0:0:0:
32,96,110218,6,0,P|66:180|95:282,1,187.500007152558,4|0,1:0|0:0,0:0:0:0:
325,183,110627,2,0,P|289:97|264:7,1,187.500007152558,2|0,0:0|0:0,0:0:0:0:
512,96,111036,1,2,0:0:0:0:
0,384,111309,1,2,0:0:0:0:
512,288,111582,6,0,P|457:267|253:210,1,250,2|8,3:2|0:0,0:0:0:0:
0,384,111991,1,0,3:0:0:0:
0,384,112264,1,0,0:0:0:0:
99,224,112400,6,0,P|35:173|59:81,1,187.500007152558,0|0,3:0|0:0,0:0:0:0:
180,307,112809,1,2,0:0:0:0:
191,51,112946,2,0,P|255:102|231:194,1,187.500007152558,8|0,0:0|0:0,0:0:0:0:
99,224,113354,2,0,P|35:173|59:81,1,187.500007152558,2|0,0:0|0:0,0:0:0:0:
191,51,113764,6,0,B|289:48|267:136|359:142,1,187.500007152558,2|8,3:2|3:2,0:0:0:0:
461,46,114173,1,0,0:0:0:0:
384,192,114309,1,2,0:0:0:0:
512,241,114445,1,2,0:0:0:0:
390,384,114582,6,0,P|357:301|324:170,1,187.500007152558,2|0,3:2|0:0,0:0:0:0:
122,0,114991,2,0,P|155:83|188:214,1,187.500007152558,2|0,3:2|0:0,0:0:0:0:
0,384,115400,2,0,P|41:367|205:329,1,187.500007152558,2|0,0:0|0:0,0:0:0:0:
373,357,115809,1,0,0:0:0:0:
425,197,115945,2,0,P|437:153|459:86,1,93.7500035762788,0|0,3:0|0:0,0:0:0:0:
512,384,116218,38,3,B|514:384|516:384|516:384|520:391|520:391|520:383|520:383|522:383|522:383|519:375|519:375|526:380|526:380|527:379|527:379|535:380|535:380|529:374|529:374|531:373|531:373|523:369|523:369|531:368|531:368|531:366|531:366|539:363|539:363|531:361|531:361|530:360|531:359|531:359|522:359|522:359|530:356|530:356|530:353|530:353|538:349|538:349|528:348|528:348|529:346|529:346|520:347|520:347|526:341|526:341|534:335|534:335|524:337|524:337|525:334|525:334|515:336|515:336|522:330|522:330|521:328|521:328|527:323|527:323|519:324|519:324|518:322|518:322|510:325|510:325|516:318|516:318|515:316|515:316|520:310|520:310|512:313|512:313|511:312|511:312|504:314|504:314|509:307|509:307|507:306|507:306|512:299|512:299|504:302|504:302|503:301|503:301|495:304|495:304|500:297|500:297|499:296|499:296|505:288|505:288|495:292|495:292|494:291|494:291|487:295|487:295|491:287|491:287|490:286|490:286|494:278|494:278|487:283|487:283|486:281|486:281|478:286|478:286|482:278|482:278|481:276|481:276|484:270|484:270|477:274|477:274|476:273|476:273|469:278|469:278|472:269|472:269|471:268|471:268|474:261|474:261|467:265|467:265|466:264|466:264|458:271|458:271|461:261|461:261|460:260|460:260|463:253|463:253|457:259|457:259|456:258|456:258|448:264|448:264|451:255|451:255|450:254|450:254|451:246|451:246|445:251|445:251|443:251|443:251|437:257|437:257|439:249|439:249|437:247|437:247|439:239|439:239|434:246|434:246|432:246|432:246|426:251|426:251|427:243|427:243|426:242|426:242|425:234|425:234|420:241|420:241|419:240|419:240|415:247|415:247|415:239|415:239|414:238|414:238|413:230|413:230|408:237|408:237|407:235|407:235|403:243|403:243|402:235|402:235|401:234|401:234|400:226|400:226|396:234|396:234|394:234|394:234|390:242|390:242|390:233|390:233|388:232|388:232|387:223|387:223|383:231|383:231|382:232|382:232|379:239|379:239|376:230|376:230|373:222|373:222|370:229|370:229|369:230|369:230|365:238|365:238|364:230|364:230|362:230|362:230|359:221|359:221|357:229|357:229|356:230|355:229|355:229|353:237|353:237|350:229|350:229|349:230|349:230|346:222|346:222|345:230|345:230|343:231|342:230|342:230|341:238|341:238|337:232|337:232|336:231|336:231|332:223|332:223|331:231|331:231|329:233|329:233|328:241|328:241|325:232|325:232|323:233|323:233|319:226|319:226|318:234|318:234|316:235|316:235|317:243|317:243|312:235|312:235|311:236|311:236|306:229|306:229|306:238|306:238|305:237|304:238|304:238|304:246|304:246|299:240|299:240|298:241|298:241|292:233|292:233|294:242|294:242|292:242|292:242|294:252|294:252|287:244|287:244|286:245|286:245|280:239|280:239|281:247|281:247|280:248|280:248|283:257|283:257|275:251|275:251|274:252|274:252|268:246|268:246|270:255|270:255|268:255|268:255|271:263|271:263|264:258|264:258|263:259|263:259|256:254|256:254|259:262|259:262|258:264|258:264|262:271|262:271|254:267|254:267|253:268|253:268|245:264|245:264|250:271|250:271|250:274|250:274|255:280|255:280|246:277|246:277|246:279|246:279|238:278|238:278|244:283|244:283|243:284|243:284|250:289|250:289|242:289|242:289|243:291|243:291|235:294|235:294|243:295|243:295|244:296|242:298|242:298|251:294|251:294|246:301|246:301|247:302|247:302|243:310|243:310|250:306|250:306|251:307|251:307|256:301|256:301|256:310|256:310|257:309|257:309|256:318|256:318|261:311|261:311|264:311|264:311|268:303|268:303|268:312|268:312|269:313|269:313|271:322|271:322|274:313|274:313|276:313|314:315,1,1250,10|2,0:1|0:1,0:1:0:0:
373,357,116627,1,2,0:0:0:0:
256,0,116764,5,2,3:2:0:0:
256,0,117036,5,2,0:0:0:0:
64,160,117173,2,0,P|97:243|130:374,1,187.500007152558,2|0,0:0|0:0,0:0:0:0:
264,235,117582,6,0,P|250:200|236:143,1,93.7500035762788,2|0,0:0|0:0,0:0:0:0:
0,279,117854,1,2,0:0:0:0:
256,384,117990,1,2,0:0:0:0:
448,224,118127,6,0,P|415:141|382:10,1,187.500007152558,2|8,3:2|0:2,0:0:0:0:
248,149,118536,2,0,P|262:184|276:241,2,93.7500035762788,0|0|2,3:0|0:0|0:0,0:0:0:0:
0,192,118945,5,2,1:2:0:0:
288,96,119082,1,2,0:0:0:0:
64,0,119218,1,2,0:0:0:0:
288,96,119354,1,2,0:0:0:0:
352,0,119491,6,0,P|396:8|458:22,1,93.7500035762788,8|0,0:0|0:0,0:0:0:0:
416,212,119764,1,2,0:0:0:0:
191,164,119900,2,0,P|234:155|414:126,1,187.500007152558,2|0,0:0|0:0,0:0:0:0:
512,288,120309,6,0,P|457:267|253:210,1,250,2|8,3:2|0:0,0:0:0:0:
0,384,120718,1,2,0:0:0:0:
64,320,120855,2,0,P|56:264|37:200,1,93.7500035762788,2|0,0:0|0:0,0:0:0:0:
192,0,121127,6,0,P|202:82|227:201,1,187.500007152558,0|0,1:0|0:0,0:0:0:0:
512,384,121536,2,0,P|502:302|477:183,1,187.500007152558,2|0,0:0|0:0,0:0:0:0:
222,184,121945,1,2,0:0:0:0:
359,146,122082,1,2,0:0:0:0:
481,199,122218,6,0,P|476:239|463:299,1,93.7500035762788,0|0,3:0|0:0,0:0:0:0:
256,384,122491,2,0,P|246:302|203:112,1,250,2|8,3:2|0:0,0:0:0:0:
163,0,122900,1,2,0:0:0:0:
163,0,123036,1,2,0:0:0:0:
163,0,123173,1,2,0:0:0:0:
0,160,123309,5,0,1:0:0:0:
288,64,123445,2,0,P|334:74|383:91,1,93.7500035762788,2|0,0:0|0:0,0:0:0:0:
32,192,123718,5,0,1:0:0:0:
320,96,123854,2,0,P|366:106|415:123,1,93.7500035762788,8|0,0:0|0:0,0:0:0:0:
314,365,124127,1,2,0:0:0:0:
314,365,124264,1,2,0:0:0:0:
160,384,124400,2,0,P|173:337|206:272,1,93.7500035762788,0|0,3:0|0:0,0:0:0:0:
512,288,124673,6,0,P|457:267|253:210,1,250,2|8,3:2|0:0,0:0:0:0:
0,384,125082,1,0,3:0:0:0:
0,384,125355,1,0,0:0:0:0:
174,200,125491,6,0,P|156:146|131:99,1,93.7500035762788,0|0,1:0|0:0,0:0:0:0:
0,384,125900,1,0,0:0:0:0:
384,192,126036,2,0,P|402:246|427:293,2,93.7500035762788,8|0|2,1:2|0:0|0:0,0:0:0:0:
384,192,126582,5,0,1:0:0:0:
141,274,126718,1,2,0:0:0:0:
299,57,126855,1,2,3:2:0:0:
299,325,126991,1,2,0:0:0:0:
141,108,127127,1,10,0:0:0:0:
461,335,127264,5,8,0:3:0:0:
403,342,127332,1,8,0:3:0:0:
345,349,127400,1,8,0:3:0:0:
287,357,127468,1,8,0:3:0:0:
231,364,127536,1,8,0:3:0:0:
174,371,127604,1,8,0:3:0:0:
160,384,127673,6,0,P|166:338|243:173,1,218.750002086163,6|0,1:0|0:0,0:0:0:0:
512,256,128082,1,2,0:1:0:0:
235,182,128218,6,0,P|206:186|111:206,1,109.375001043081,8|0,0:0|0:0,0:0:0:0:
512,256,128491,2,0,P|506:210|429:45,1,218.750002086163,2|0,0:1|3:0,0:0:0:0:
288,0,128900,1,0,0:0:0:0:
235,182,129036,5,2,3:1:0:0:
127,201,129172,1,2,0:0:0:0:
288,0,129309,5,10,0:1:0:0:
395,19,129445,1,0,3:0:0:0:
503,38,129582,1,0,3:0:0:0:
51,384,129855,5,2,1:2:0:0:
181,278,129991,1,2,0:2:0:0:
89,161,130127,1,2,0:2:0:0:
256,0,130264,1,2,0:2:0:0:
512,192,130400,6,0,P|472:202|401:212,1,109.375001043081,8|0,0:0|0:0,0:0:0:0:
0,192,130673,2,0,P|40:182|111:172,1,109.375001043081,2|0,0:0|0:0,0:0:0:0:
256,384,130946,2,0,P|246:344|236:273,1,109.375001043081,2|0,0:0|0:0,0:0:0:0:
256,0,131218,2,0,P|266:40|276:111,1,109.375001043081,2|0,0:0|0:0,0:0:0:0:
0,192,131491,5,8,0:0:0:0:
224,224,131627,1,2,0:0:0:0:
448,256,131764,1,2,0:0:0:0:
224,224,131900,1,2,0:0:0:0:
160,0,132036,6,0,P|166:46|243:211,1,218.750002086163,6|0,1:0|0:0,0:0:0:0:
512,128,132445,1,2,3:1:0:0:
235,202,132581,6,0,P|206:198|111:178,1,109.375001043081,8|0,0:0|0:0,0:0:0:0:
512,128,132854,2,0,P|506:174|429:339,1,218.750002086163,2|0,0:1|3:0,0:0:0:0:
256,384,133263,1,0,0:0:0:0:
320,224,133400,2,0,P|314:178|237:13,1,218.750002086163,2|8,3:2|0:0,0:0:0:0:
244,22,133809,1,0,0:0:0:0:
228,240,133945,5,2,0:0:0:0:
244,22,134082,1,2,0:0:0:0:
44,170,134219,1,0,1:0:0:0:
411,190,134491,5,2,0:0:0:0:
259,278,134628,1,2,0:0:0:0:
295,82,134765,1,8,0:0:0:0:
295,82,134900,1,2,0:0:0:0:
439,339,135036,5,2,0:0:0:0:
449,200,135173,1,2,0:0:0:0:
321,295,135310,1,2,0:3:0:0:
439,339,135445,5,0,3:2:0:0:
160,384,135582,1,0,3:2:0:0:
439,339,135718,1,0,3:2:0:0:
512,256,135855,5,8,0:2:0:0:
386,141,135992,1,2,0:2:0:0:
256,320,136128,1,2,0:2:0:0:
118,87,136264,1,2,0:2:0:0:
0,384,136400,5,2,1:0:0:0:
118,87,136672,1,2,0:0:0:0:
256,320,136809,1,2,3:1:0:0:
386,141,136945,6,0,P|390:170|404:253,1,109.375001043081,8|0,0:0|0:0,0:0:0:0:
120,349,137218,2,0,P|113:291|82:119,1,218.750002086163,2|0,0:1|3:0,0:0:0:0:
0,0,137627,1,0,0:0:0:0:
254,146,137763,5,2,3:1:0:0:
44,267,137900,1,2,0:0:0:0:
0,0,138036,1,10,0:1:0:0:
254,146,138173,1,0,3:0:0:0:
44,267,138309,1,0,3:0:0:0:
461,384,138582,5,2,1:2:0:0:
512,24,138718,1,2,0:2:0:0:
447,366,138854,1,2,0:2:0:0:
496,0,138991,1,2,0:2:0:0:
512,192,139127,6,0,P|472:202|401:212,1,109.375001043081,8|0,0:0|0:0,0:0:0:0:
0,192,139400,2,0,P|40:182|111:172,1,109.375001043081,2|0,0:0|0:0,0:0:0:0:
256,384,139673,2,0,P|246:344|236:273,1,109.375001043081,2|0,0:0|0:0,0:0:0:0:
256,0,139945,2,0,P|266:40|276:111,1,109.375001043081,2|0,0:0|0:0,0:0:0:0:
366,336,140218,5,10,0:2:0:0:
15,216,140354,1,2,0:2:0:0:
354,315,140490,1,2,0:2:0:0:
0,192,140627,1,2,0:1:0:0:
83,299,140763,6,0,P|70:241|42:43,1,218.750002086163,0|0,1:0|0:0,0:0:0:0:
256,0,141172,1,2,1:1:0:0:
46,83,141309,6,0,P|61:191|83:299,1,218.750002086163,8|0,0:0|0:0,0:0:0:0:
466,301,141582,2,0,P|451:193|429:85,1,218.750002086163,2|0,0:1|0:0,0:0:0:0:
150,137,141855,6,0,P|158:191|169:245,1,109.375001043081,2|0,0:0|0:0,0:0:0:0:
361,246,142128,2,0,P|353:192|342:138,1,109.375001043081,2|0,0:0|0:0,0:0:0:0:
256,192,142400,5,8,0:0:0:0:
256,192,142537,1,2,0:0:0:0:
0,256,142673,5,2,0:0:0:0:
256,320,142809,1,2,0:0:0:0:
512,256,142945,1,0,1:0:0:0:
460,243,143218,5,2,0:0:0:0:
256,294,143354,1,2,0:0:0:0:
51,243,143490,1,8,0:0:0:0:
92,232,143764,5,2,0:0:0:0:
256,273,143900,1,2,0:0:0:0:
419,232,144036,1,2,3:0:0:0:
337,171,144173,5,0,3:0:0:0:
256,151,144309,1,0,3:0:0:0:
174,171,144445,1,0,3:0:0:0:
256,273,144581,5,2,3:2:0:0:
0,256,144717,1,2,3:2:0:0:
340,384,144855,1,2,0:0:0:0:
433,64,144991,1,2,0:0:0:0:
497,384,145127,6,0,P|509:316|535:210,1,156.25,4|0,1:0|0:0,0:0:0:0:
