osu file format v14

[General]
AudioFilename: audio.mp3
AudioLeadIn: 0
PreviewTime: 124818
Countdown: 0
SampleSet: Soft
StackLeniency: 0.7
Mode: 0
LetterboxInBreaks: 0
WidescreenStoryboard: 1

[Editor]
Bookmarks: 28893,38493,48093,57693,67293,76893,86493,96093,105693,115293,115368,115443,115518,115593,115743,115818,115893,115968,116043,116118,116268,116343,116418,116493,116643,116718,116793,116868,117018,117093,117168,117243,117393,117468,117543,117618,117768,117843,117918,117993,118143,118218,118293,118368,118443,118518,118668,118743,118818,118893,119043,119118,119193,119268,119343,119493,119568,119643,119718,119793,119943,120018,120093,120168,120318,120393,120468,120543,120693,120768,120843,120918,120993,121143,121218,121293,121368,121518,121593,121668,121743,121818,121968,122043,122118,122268,122343,122418,122493,122643,122718,122793,122868,123018,123093,123168,123243,123393,123468,123543,123618,123693,124893,134493,144093
DistanceSpacing: 1.2
BeatDivisor: 4
GridSize: 32
TimelineZoom: 1

[Metadata]
Title:Devil Town
TitleUnicode:Devil Town
Artist:Cavetown
ArtistUnicode:Cavetown
Creator:The Honeysticks
Version:Tristan's Hard
Source:
Tags:maiden omtereston lugu -Clubber- paka indie rock english aranel clubber - Clubber - legosi sleepylegosi tristan
BeatmapID:3369540
BeatmapSetID:1644536

[Difficulty]
HPDrainRate:4
CircleSize:3.5
OverallDifficulty:6
ApproachRate:7.2
SliderMultiplier:1.4
SliderTickRate:1

[Events]
//Background and Video events
0,0,"placeholder.jpg",0,0
//Break Periods
2,115493,122823
2,153893,155223
2,163493,164823
//Storyboard Layer 0 (Background)
//Storyboard Layer 1 (Fail)
//Storyboard Layer 2 (Pass)
//Storyboard Layer 3 (Foreground)
//Storyboard Layer 4 (Overlay)
//Storyboard Sound Samples

[TimingPoints]
19293,300,4,2,2,65,1,0
19518,-100,4,2,1,65,0,0
19893,-100,4,2,2,65,0,0
20193,-100,4,2,1,65,0,0
20493,-100,4,2,2,65,0,0
20793,-100,4,2,1,65,0,0
21093,-100,4,2,2,65,0,0
21393,-100,4,2,1,65,0,0
21693,-100,4,2,2,65,0,0
21993,-100,4,2,1,65,0,0
22293,-100,4,2,2,65,0,0
22593,-100,4,2,1,65,0,0
22893,-100,4,2,2,65,0,0
23193,-100,4,2,1,65,0,0
23493,-100,4,2,2,65,0,0
23793,-100,4,2,1,65,0,0
24093,-100,4,2,2,65,0,0
24393,-100,4,2,1,65,0,0
24693,-100,4,2,2,65,0,0
24843,-100,4,2,1,65,0,0
25293,-100,4,2,2,65,0,0
25593,-100,4,2,1,65,0,0
25893,-100,4,2,2,65,0,0
26793,-100,4,2,1,65,0,0
27093,-100,4,2,2,65,0,0
27393,-100,4,2,1,65,0,0
27693,-100,4,2,2,65,0,0
27993,-100,4,2,1,65,0,0
28293,-100,4,2,2,65,0,0
28443,-100,4,2,1,65,0,0
28593,-100,4,2,2,65,0,0
28743,-100,4,2,1,65,0,0
28893,-100,4,2,2,65,0,0
29193,-100,4,2,1,65,0,0
29493,-100,4,2,2,65,0,0
29793,-100,4,2,1,65,0,0
30093,-100,4,2,2,65,0,0
30393,-100,4,2,1,65,0,0
30693,-100,4,2,2,65,0,0
30843,-100,4,2,1,65,0,0
31293,-100,4,2,2,65,0,0
31593,-100,4,2,1,65,0,0
31893,-100,4,2,2,65,0,0
32043,-100,4,2,1,65,0,0
32493,-100,4,2,2,65,0,0
32793,-100,4,2,1,65,0,0
33093,-100,4,2,2,65,0,0
33243,-100,4,2,1,65,0,0
33693,-100,4,2,2,65,0,0
33993,-100,4,2,1,65,0,0
34293,-100,4,2,2,65,0,0
34593,-100,4,2,1,65,0,0
34893,-100,4,2,2,65,0,0
35118,-100,4,2,1,65,0,0
35493,-100,4,2,2,65,0,0
36393,-100,4,2,1,65,0,0
36693,-100,4,2,2,65,0,0
36993,-100,4,2,1,65,0,0
37293,-100,4,2,2,65,0,0
37593,-100,4,2,1,65,0,0
37893,-100,4,2,2,65,0,0
38193,-100,4,2,1,65,0,0
38493,-100,4,2,2,65,0,0
38793,-100,4,2,1,65,0,0
39093,-100,4,2,2,65,0,0
39393,-100,4,2,1,65,0,0
39693,-100,4,2,2,65,0,0
39993,-100,4,2,1,65,0,0
40293,-100,4,2,2,65,0,0
40443,-100,4,2,1,65,0,0
40893,-100,4,2,2,65,0,0
41193,-100,4,2,1,65,0,0
41493,-100,4,2,2,65,0,0
41793,-100,4,2,1,65,0,0
42093,-100,4,2,2,65,0,0
42243,-100,4,2,1,65,0,0
42693,-100,4,2,2,65,0,0
42843,-100,4,2,1,65,0,0
43293,-100,4,2,2,65,0,0
43593,-100,4,2,1,65,0,0
43893,-100,4,2,2,65,0,0
44193,-100,4,2,1,65,0,0
44493,-100,4,2,2,65,0,0
44643,-100,4,2,1,65,0,0
45093,-100,4,2,2,65,0,0
45393,-100,4,2,1,65,0,0
45693,-100,4,2,2,65,0,0
45993,-100,4,2,1,65,0,0
46293,-100,4,2,2,65,0,0
46593,-100,4,2,1,65,0,0
46893,-100,4,2,2,65,0,0
47193,-100,4,2,1,65,0,0
47493,-100,4,2,2,65,0,0
47793,-100,4,2,1,65,0,0
48093,-100,4,2,2,65,0,0
48393,-100,4,2,1,65,0,0
48693,-100,4,2,2,65,0,0
48993,-100,4,2,1,65,0,0
49293,-100,4,2,2,65,0,0
49593,-100,4,2,1,65,0,0
49893,-100,4,2,2,65,0,0
50193,-100,4,2,1,65,0,0
50493,-100,4,2,2,65,0,0
50793,-100,4,2,1,65,0,0
51093,-100,4,2,2,65,0,0
51393,-100,4,2,1,65,0,0
51693,-100,4,2,2,65,0,0
51993,-100,4,2,1,65,0,0
52293,-100,4,2,2,65,0,0
52593,-100,4,2,1,65,0,0
52893,-100,4,2,2,65,0,0
53193,-100,4,2,1,65,0,0
53493,-100,4,2,2,65,0,0
53793,-100,4,2,1,65,0,0
54093,-100,4,2,2,65,0,0
54393,-100,4,2,1,65,0,0
54693,-100,4,2,2,65,0,0
54993,-100,4,2,1,65,0,0
55293,-100,4,2,2,65,0,0
55593,-100,4,2,1,65,0,0
55893,-100,4,2,2,65,0,0
56193,-100,4,2,1,65,0,0
57093,-100,4,2,2,65,0,0
57393,-100,4,2,1,65,0,0
57693,-90.9090909090909,4,2,2,75,0,0
76893,-100,4,2,2,75,0,0
77193,-100,4,2,1,70,0,0
77493,-100,4,2,2,70,0,0
77793,-100,4,2,1,70,0,0
78093,-100,4,2,2,70,0,0
78243,-100,4,2,1,70,0,0
78393,-100,4,2,2,70,0,0
78543,-100,4,2,1,70,0,0
78693,-100,4,2,2,70,0,0
78843,-100,4,2,1,70,0,0
79293,-100,4,2,2,70,0,0
79593,-100,4,2,1,70,0,0
79893,-100,4,2,2,70,0,0
80193,-100,4,2,1,70,0,0
80493,-100,4,2,2,70,0,0
80793,-100,4,2,1,70,0,0
81093,-100,4,2,2,70,0,0
81393,-100,4,2,1,70,0,0
81693,-100,4,2,2,70,0,0
81993,-100,4,2,1,70,0,0
82293,-100,4,2,2,70,0,0
82593,-100,4,2,1,70,0,0
82893,-100,4,2,2,70,0,0
83193,-100,4,2,1,70,0,0
83493,-100,4,2,2,70,0,0
83793,-100,4,2,1,70,0,0
84093,-100,4,2,2,70,0,0
84393,-100,4,2,1,70,0,0
84693,-100,4,2,2,70,0,0
84993,-100,4,2,1,70,0,0
85293,-100,4,2,2,70,0,0
85593,-100,4,2,1,70,0,0
85893,-100,4,2,2,70,0,0
86193,-100,4,2,1,70,0,0
86493,-100,4,2,2,70,0,0
86793,-100,4,2,1,70,0,0
87093,-100,4,2,2,70,0,0
87393,-100,4,2,1,70,0,0
87693,-100,4,2,2,70,0,0
87993,-100,4,2,1,70,0,0
88293,-100,4,2,2,70,0,0
88593,-100,4,2,1,70,0,0
88893,-100,4,2,2,70,0,0
89193,-100,4,2,1,70,0,0
89493,-100,4,2,2,70,0,0
89793,-100,4,2,1,70,0,0
90093,-100,4,2,2,70,0,0
90393,-100,4,2,1,70,0,0
90693,-100,4,2,2,70,0,0
91593,-100,4,2,1,70,0,0
91893,-100,4,2,2,70,0,0
92193,-100,4,2,1,70,0,0
92493,-100,4,2,2,70,0,0
92793,-100,4,2,1,70,0,0
93093,-100,4,2,2,70,0,0
93393,-100,4,2,1,70,0,0
93693,-100,4,2,2,70,0,0
93993,-100,4,2,1,70,0,0
94293,-100,4,2,2,70,0,0
94593,-100,4,2,1,70,0,0
94893,-100,4,2,2,70,0,0
95193,-100,4,2,1,70,0,0
95493,-100,4,2,2,70,0,0
95793,-100,4,2,1,70,0,0
96093,-100,4,2,2,70,0,0
96393,-100,4,2,1,70,0,0
96693,-100,4,2,2,70,0,0
96993,-100,4,2,1,70,0,0
97293,-100,4,2,2,70,0,0
97593,-100,4,2,1,70,0,0
97893,-100,4,2,2,70,0,0
98193,-100,4,2,1,70,0,0
98493,-100,4,2,2,70,0,0
98793,-100,4,2,1,70,0,0
99093,-100,4,2,2,70,0,0
99393,-100,4,2,1,70,0,0
99693,-100,4,2,2,70,0,0
99993,-100,4,2,1,70,0,0
100293,-100,4,2,2,70,0,0
100593,-100,4,2,1,70,0,0
100893,-100,4,2,2,70,0,0
101193,-100,4,2,1,70,0,0
101493,-100,4,2,2,70,0,0
101793,-100,4,2,1,70,0,0
102093,-100,4,2,2,70,0,0
102393,-100,4,2,1,70,0,0
102693,-100,4,2,2,70,0,0
102993,-100,4,2,1,70,0,0
103293,-100,4,2,2,70,0,0
103593,-100,4,2,1,70,0,0
103893,-100,4,2,2,70,0,0
104193,-100,4,2,1,70,0,0
104493,-100,4,2,2,70,0,0
104793,-100,4,2,1,70,0,0
105093,-100,4,2,2,70,0,0
105393,-100,4,2,1,70,0,0
105693,-100,4,2,2,70,0,0
105993,-100,4,2,1,70,0,0
106293,-100,4,2,2,70,0,0
106593,-100,4,2,1,70,0,0
106893,-100,4,2,2,70,0,0
107193,-100,4,2,1,70,0,0
107493,-100,4,2,2,70,0,0
107793,-100,4,2,1,70,0,0
108093,-100,4,2,2,70,0,0
108393,-100,4,2,1,70,0,0
108693,-100,4,2,2,70,0,0
108993,-100,4,2,1,70,0,0
109293,-100,4,2,2,70,0,0
109593,-100,4,2,1,70,0,0
109893,-100,4,2,2,70,0,0
110193,-100,4,2,1,70,0,0
110493,-100,4,2,2,70,0,0
110793,-100,4,2,1,70,0,0
111093,-100,4,2,2,70,0,0
111393,-100,4,2,1,70,0,0
111693,-100,4,2,2,70,0,0
111993,-100,4,2,1,70,0,0
112293,-100,4,2,2,70,0,0
112593,-100,4,2,1,70,0,0
112893,-100,4,2,2,70,0,0
113193,-100,4,2,1,70,0,0
113493,-100,4,2,2,70,0,0
113793,-100,4,2,1,70,0,0
114093,-100,4,2,2,70,0,0
114393,-100,4,2,1,70,0,0
114693,-100,4,2,2,70,0,0
114993,-100,4,2,1,70,0,0
115293,-100,4,2,2,60,0,0
123693,-100,4,2,2,70,0,0
144393,-100,4,2,1,70,0,0
144693,-100,4,2,2,70,0,0
144993,-100,4,2,1,70,0,0
145293,-100,4,2,2,70,0,0
145743,-100,4,2,1,70,0,0
145893,-100,4,2,2,70,0,0
146193,-100,4,2,1,70,0,0
146493,-100,4,2,2,70,0,0
146793,-100,4,2,1,70,0,0
147093,-100,4,2,2,70,0,0
147393,-100,4,2,1,70,0,0
147693,-100,4,2,2,70,0,0
147993,-100,4,2,1,70,0,0
148293,-100,4,2,2,70,0,0
148593,-100,4,2,1,70,0,0
148893,-100,4,2,2,70,0,0
149193,-100,4,2,1,70,0,0
149493,-100,4,2,2,70,0,0
149793,-100,4,2,1,70,0,0
150093,-100,4,2,2,70,0,0
150393,-100,4,2,1,70,0,0
150693,-100,4,2,2,70,0,0
150993,-100,4,2,1,70,0,0
151293,-100,4,2,2,70,0,0
151593,-100,4,2,1,70,0,0
151893,-100,4,2,2,70,0,0
152193,-100,4,2,1,70,0,0
152493,-100,4,2,2,70,0,0
152643,-100,4,2,1,70,0,0
152793,-100,4,2,2,70,0,0
153393,-100,4,2,1,70,0,0
157293,-100,4,2,2,70,0,0
158793,-100,4,2,1,80,0,0
159093,-100,4,2,2,80,0,0
159393,-100,4,2,1,80,0,0
159693,-100,4,2,2,80,0,0
159993,-100,4,2,1,80,0,0
160293,-100,4,2,2,80,0,0
160593,-100,4,2,1,80,0,0
160893,-100,4,2,2,80,0,0
161193,-100,4,2,1,80,0,0
161493,-100,4,2,2,80,0,0
161793,-100,4,2,1,80,0,0
162093,-100,4,2,2,80,0,0
162243,-100,4,2,1,80,0,0
162843,-100,4,2,2,80,0,0
162993,-100,4,2,1,80,0,0
163293,-100,4,2,2,70,0,0
167943,-100,4,2,1,80,0,0
168093,-100,4,2,2,80,0,0
168393,-100,4,2,1,80,0,0
169293,-100,4,2,2,80,0,0
169593,-100,4,2,1,80,0,0
169893,-100,4,2,2,80,0,0
170043,-100,4,2,1,80,0,0
170493,-100,4,2,2,80,0,0
170793,-100,4,2,1,80,0,0
171093,-100,4,2,2,80,0,0
171393,-100,4,2,1,80,0,0
171693,-100,4,2,2,80,0,0
171843,-100,4,2,1,80,0,0
172743,-100,4,2,2,80,0,0
173493,-100,4,2,2,70,0,0
174093,-100,4,2,2,60,0,0
174693,-100,4,2,2,50,0,0
175293,-100,4,2,2,40,0,0
175893,-100,4,2,2,30,0,0
176493,-100,4,2,2,20,0,0
177093,-100,4,2,2,10,0,0
177693,-100,4,2,2,5,0,0

[Colours]
Combo1 : 255,94,55
Combo2 : 173,255,95
Combo3 : 17,254,176
Combo4 : 255,88,100

[HitObjects]
190,83,19143,5,8,0:0:0:0:
116,26,19293,2,0,P|93:149|90:182,1,140,6|10,1:2|1:2,0:0:0:0:
18,214,19743,1,10,1:3:0:0:
18,214,19893,2,0,P|65:252|155:221,1,140,2|10,1:2|1:2,0:0:0:0:
205,182,20343,1,10,1:2:0:0:
205,182,20493,2,0,P|252:143|342:174,1,140,2|8,1:3|1:2,0:0:0:0:
388,211,20943,1,10,1:2:0:0:
447,270,21093,2,0,B|482:287|482:287|541:275,1,70,2|0,1:3|0:0,0:0:0:0:
433,360,21393,2,0,B|398:343|398:343|339:355,1,70,10|10,1:2|1:2,0:0:0:0:
285,316,21693,6,0,P|274:186|274:145,1,140,2|10,1:3|1:2,0:0:0:0:
334,110,22143,1,10,1:2:0:0:
334,110,22293,2,0,P|268:94|194:134,1,140,2|8,1:3|1:2,0:0:0:0:
172,43,22743,1,10,1:2:0:0:
172,43,22893,2,0,P|125:92|122:176,1,140,2|8,1:3|1:3,0:0:0:0:
32,154,23343,1,10,1:2:0:0:
32,154,23493,2,0,P|51:219|75:230,1,70,2|0,1:3|0:0,0:0:0:0:
128,250,23793,2,0,P|108:315|85:326,1,70,10|10,1:2|1:2,0:0:0:0:
192,355,24093,6,0,B|260:359|260:359|267:368|267:368|354:373,1,140,2|10,1:3|1:2,0:0:0:0:
425,343,24543,1,10,1:2:0:0:
425,343,24693,2,0,P|439:257|446:191,1,140,2|10,1:3|1:2,0:0:0:0:
367,145,25143,1,10,1:2:0:0:
367,145,25293,2,0,P|358:214|347:283,1,140,2|10,1:3|1:2,0:0:0:0:
270,327,25743,1,2,1:2:0:0:
270,327,25893,2,0,B|172:339,1,70,10|0,1:2|0:0,0:0:0:0:
127,284,26193,5,8,0:0:0:0:
127,284,26343,1,8,0:0:0:0:
47,358,26493,6,0,P|39:283|26:206,1,140,4|10,1:2|1:2,0:0:0:0:
89,146,26943,1,10,1:2:0:0:
89,146,27093,2,0,B|168:136|151:186|219:184,1,140,2|10,1:3|1:2,0:0:0:0:
295,126,27543,1,10,1:2:0:0:
295,126,27693,2,0,P|321:191|279:263,1,140,2|10,1:3|1:2,0:0:0:0:
212,308,28143,1,10,1:2:0:0:
212,308,28293,2,0,B|174:301|174:301|120:326,1,70,10|8,1:3|1:2,0:0:0:0:
307,346,28593,2,0,B|335:359|335:359|373:352,1,70,10|8,1:3|1:2,0:0:0:0:
464,308,28893,6,0,L|472:152,1,140,4|8,1:2|1:2,0:0:0:0:
386,98,29343,1,10,1:2:0:0:
386,98,29493,2,0,L|378:237,1,140,2|10,1:3|1:2,0:0:0:0:
287,188,29943,1,10,1:2:0:0:
287,188,30093,2,0,L|295:49,1,140,2|10,1:3|1:2,0:0:0:0:
218,1,30543,1,10,1:2:0:0:
218,1,30693,2,0,P|172:-9|136:16,1,70,2|2,1:3|1:2,0:0:0:0:
80,62,30993,1,10,1:3:0:0:
80,62,31143,1,10,1:2:0:0:
28,139,31293,6,0,P|88:156|160:103,1,140,2|10,1:3|1:2,0:0:0:0:
190,206,31743,1,10,1:2:0:0:
190,206,31893,2,0,P|234:162|224:73,1,140,2|10,1:3|1:2,0:0:0:0:
331,98,32343,1,10,1:2:0:0:
331,98,32493,2,0,P|315:37|233:2,1,140,2|10,1:3|1:2,0:0:0:0:
163,42,32943,1,10,1:2:0:0:
163,42,33093,2,0,P|146:80|159:121,1,70,2|2,1:3|1:2,0:0:0:0:
213,182,33393,1,8,1:2:0:0:
213,182,33543,1,10,1:2:0:0:
213,182,33693,6,0,P|289:191|369:206,1,140,2|10,1:3|1:2,0:0:0:0:
375,291,34143,1,10,1:2:0:0:
375,291,34293,2,0,P|306:278|236:270,1,140,2|10,1:3|1:2,0:0:0:0:
259,358,34743,1,10,1:2:0:0:
259,358,34893,2,0,P|328:366|397:378,1,140,2|10,1:3|0:2,0:0:0:0:
477,340,35343,1,10,1:2:0:0:
477,340,35493,2,0,B|487:303|487:303|477:265,1,70,10|0,1:3|0:0,0:0:0:0:
428,207,35793,5,0,0:0:0:0:
428,207,35943,1,0,0:0:0:0:
357,259,36093,6,0,B|274:258|318:309|204:293,1,140,6|10,1:3|1:2,0:0:0:0:
154,356,36543,1,10,1:2:0:0:
154,356,36693,2,0,P|128:302|175:218,1,140,2|10,1:3|1:2,0:0:0:0:
64,198,37143,1,10,1:2:0:0:
64,198,37293,2,0,P|98:149|193:148,1,140,2|10,1:3|1:2,0:0:0:0:
157,55,37743,1,10,1:2:0:0:
157,55,37893,2,0,P|195:59|239:95,1,70,2|0,1:3|0:0,0:0:0:0:
263,156,38193,1,10,1:2:0:0:
263,156,38343,1,10,1:2:0:0:
316,79,38493,6,0,P|384:50|448:85,1,140,4|8,1:3|1:2,0:0:0:0:
496,151,38943,1,2,1:3:0:0:
443,228,39093,2,0,P|375:257|311:222,1,140,2|8,1:2|1:2,0:0:0:0:
263,156,39543,1,0,0:0:0:0:
316,79,39693,6,0,B|380:53|380:53|444:83,1,140,2|8,1:2|1:2,0:0:0:0:
496,151,40143,1,2,1:3:0:0:
443,228,40293,2,0,B|379:254|379:254|314:223,1,140,2|8,1:2|1:2,0:0:0:0:
263,156,40743,1,10,1:3:0:0:
187,209,40893,6,0,B|117:210|138:256|36:244,1,140,2|8,1:2|1:2,0:0:0:0:
289,322,41493,2,0,B|359:323|338:369|440:357,1,140,2|8,1:2|1:2,0:0:0:0:
482,290,41943,1,0,0:0:0:0:
417,229,42093,6,0,P|408:132|399:65,2,140,2|8|2,1:2|1:2|1:3,0:0:0:0:
212,361,42993,5,10,1:3:0:0:
212,361,43143,1,8,1:2:0:0:
145,305,43293,2,0,P|85:289|13:343,2,140,2|8|2,1:2|1:2|1:3,0:0:0:0:
329,358,44193,2,0,P|369:367|405:363,1,70,10|0,1:2|0:0,0:0:0:0:
456,299,44493,6,0,B|483:231|483:231|456:147,1,140,2|8,1:2|1:2,0:0:0:0:
273,36,45093,2,0,B|252:99|252:99|279:167,1,140,2|8,1:3|1:2,0:0:0:0:
336,230,45543,1,10,1:2:0:0:
263,291,45693,6,0,P|172:299|111:312,1,140,2|8,1:2|1:2,0:0:0:0:
27,323,46143,1,0,0:0:0:0:
27,323,46293,2,0,P|65:240|84:180,1,140,2|8,1:2|1:2,0:0:0:0:
120,97,46743,1,0,0:0:0:0:
120,97,46893,2,0,P|172:171|214:218,1,140,2|8,1:2|1:2,0:0:0:0:
268,266,47343,1,2,1:2:0:0:
268,266,47493,6,0,B|306:276|306:276|354:254,1,70,0|0,1:0|0:0,0:0:0:0:
254,344,47793,2,0,B|216:334|216:334|168:356,1,70,8|8,1:2|1:2,0:0:0:0:
99,344,48093,6,0,P|86:242|72:186,1,140,6|8,1:2|1:2,0:0:0:0:
60,123,48543,1,0,0:0:0:0:
135,45,48693,2,0,P|148:147|162:203,1,140,2|8,1:2|1:2,0:0:0:0:
174,266,49143,1,0,0:0:0:0:
99,344,49293,6,0,L|72:186,1,140,2|8,1:2|1:2,0:0:0:0:
60,123,49743,1,0,0:0:0:0:
135,45,49893,2,0,L|162:203,1,140,2|8,1:2|1:2,0:0:0:0:
174,266,50343,1,8,1:2:0:0:
238,328,50493,6,0,B|312:334|292:273|364:284,1,140,2|8,1:2|1:2,0:0:0:0:
438,332,50943,1,0,0:0:0:0:
441,250,51093,2,0,B|409:181|366:229|340:161,1,140,2|8,1:2|1:2,0:0:0:0:
344,80,51543,1,0,0:0:0:0:
269,116,51693,2,0,B|225:177|288:190|243:247,1,140,2|8,1:2|1:2,0:0:0:0:
166,289,52143,1,8,1:2:0:0:
166,289,52293,2,0,L|85:295,1,70,2|0,1:2|0:0,0:0:0:0:
31,344,52593,2,0,P|14:294|29:258,1,70,10|8,1:2|1:2,0:0:0:0:
71,210,52893,6,0,P|77:142|90:55,2,140,2|8|0,1:2|1:2|1:0,0:0:0:0:
176,369,53793,2,0,P|226:373|268:382,1,70,10|0,1:2|0:0,0:0:0:0:
321,338,54093,2,0,P|335:310|330:266,1,70,2|0,1:2|0:0,0:0:0:0:
255,234,54393,2,0,P|241:206|246:162,1,70,10|8,1:2|1:2,0:0:0:0:
307,114,54693,2,0,P|357:110|399:101,1,70,2|2,1:2|0:3,0:0:0:0:
447,57,54993,1,8,1:2:0:0:
447,57,55143,1,8,1:2:0:0:
502,125,55293,6,0,P|508:182|512:272,1,140,2|8,1:2|1:2,0:0:0:0:
288,360,55893,2,0,P|290:290|297:220,1,140,2|8,1:2|1:2,0:0:0:0:
502,125,56493,6,0,P|460:145|422:134,1,70,8|0,1:2|0:0,0:0:0:0:
370,98,56793,2,0,B|346:92|346:92|325:98|325:98|295:91|295:91|262:97|262:97|220:83,1,140,8|0,1:2|1:0,0:0:0:0:
166,35,57243,1,0,0:0:0:0:
111,102,57393,1,8,1:2:0:0:
111,102,57543,1,8,1:2:0:0:
111,102,57693,6,0,P|103:169|97:203,1,77.0000023498536,4|0,1:2|0:0,0:0:0:0:
47,244,57993,1,8,0:2:0:0:
47,244,58143,1,2,0:2:0:0:
47,244,58293,2,0,P|93:265|134:255,1,77.0000023498536,2|0,1:3|0:0,0:0:0:0:
189,212,58593,1,10,0:2:0:0:
253,274,58743,6,0,P|277:232|230:131,1,154.000004699707,2|2,0:2|0:3,0:0:0:0:
175,88,59193,2,0,P|164:34|161:6,1,77.0000023498536,10|2,0:2|0:2,0:0:0:0:
75,58,59493,2,0,P|83:95|88:133,1,77.0000023498536,2|10,1:2|0:2,0:0:0:0:
23,193,59793,1,10,0:2:0:0:
23,193,59943,1,8,0:2:0:0:
84,258,60093,6,0,P|136:263|192:276,1,77.0000023498536,4|0,1:3|0:0,0:0:0:0:
227,322,60393,2,0,P|279:317|335:304,1,77.0000023498536,10|0,0:2|0:0,0:0:0:0:
370,261,60693,1,2,1:2:0:0:
370,261,60843,2,0,P|374:208|381:177,1,77.0000023498536,2|8,0:2|0:2,0:0:0:0:
466,117,61143,6,0,P|406:111|300:82,1,154.000004699707,2|2,0:2|0:2,0:0:0:0:
235,37,61593,2,0,P|231:90|224:121,1,77.0000023498536,10|2,0:2|0:2,0:0:0:0:
246,200,61893,2,0,P|208:193|170:191,1,77.0000023498536,2|10,1:2|0:2,0:0:0:0:
127,113,62193,1,10,0:2:0:0:
127,113,62343,1,8,0:2:0:0:
49,158,62493,6,0,B|14:193|14:193|30:310,2,154.000004699707,4|10|2,1:3|0:2|1:2,0:0:0:0:
127,113,63243,1,0,0:0:0:0:
127,113,63393,2,0,B|163:117|163:117|169:122|169:122|211:126,1,77.0000023498536,8|0,0:0|0:0,0:0:0:0:
262,69,63693,6,0,P|288:110|247:197,1,154.000004699707,2|10,1:2|0:2,0:0:0:0:
171,230,64143,2,0,P|145:271|186:358,1,154.000004699707
270,383,64593,1,10,0:2:0:0:
270,383,64743,1,8,0:2:0:0:
332,324,64893,6,0,P|371:309|416:311,1,77.0000023498536,4|0,1:3|0:0,0:0:0:0:
477,373,65193,2,0,P|485:259|491:202,1,154.000004699707,10|2,0:2|1:2,0:0:0:0:
433,151,65643,2,0,B|353:143|380:205|292:196,1,154.000004699707,2|2,0:2|0:2,0:0:0:0:
222,148,66093,6,0,B|208:113|208:113|224:61,1,77.0000023498536,10|10,0:2|0:2,0:0:0:0:
290,23,66393,1,2,1:2:0:0:
290,23,66543,1,2,0:0:0:0:
290,23,66693,1,0,1:0:0:0:
352,79,66843,2,0,L|348:128,2,38.5000011749268,0|0|8,1:0|1:0|0:2,0:0:0:0:
423,26,67143,1,8,0:2:0:0:
489,91,67293,6,0,L|486:182,1,77.0000023498536,4|0,1:3|0:0,0:0:0:0:
441,238,67593,2,0,P|388:257|349:243,1,77.0000023498536,8|0,0:2|0:0,0:0:0:0:
335,329,67893,2,0,P|292:292|284:251,1,77.0000023498536,0|2,1:0|0:2,0:0:0:0:
241,368,68193,1,8,0:2:0:0:
241,368,68343,1,2,0:2:0:0:
161,306,68493,6,0,P|104:297|-7:291,1,154.000004699707,2|8,1:2|0:2,0:0:0:0:
17,209,68943,2,0,P|93:212|170:224,1,154.000004699707,2|2,1:2|1:2,1:0:0:0:
244,274,69393,1,10,0:2:0:0:
244,274,69543,1,8,0:2:0:0:
324,232,69693,6,0,P|338:190|328:141,1,77.0000023498536,4|0,1:3|0:0,0:0:0:0:
283,93,69993,1,10,0:2:0:0:
283,93,70143,1,2,0:2:0:0:
283,93,70293,2,0,P|227:88|198:104,1,77.0000023498536,2|2,1:2|1:2,0:0:0:0:
169,175,70593,2,0,P|113:180|84:164,1,77.0000023498536,10|2,0:2|0:2,0:0:0:0:
36,111,70893,6,0,B|14:72|18:34|18:34|31:24|39:-4,2,115.50000352478,2|0|2,1:2|0:0|0:2,0:0:0:0:
95,172,71493,2,0,P|107:214|94:259,1,77.0000023498536,2|0,1:2|0:0,0:0:0:0:
29,297,71793,1,8,0:2:0:0:
29,297,71943,1,8,0:2:0:0:
104,352,72093,6,0,B|176:358|176:358|193:371|193:371|264:377,2,154.000004699707,4|10|0,1:3|0:2|1:0,0:0:0:0:
10,207,72993,2,0,B|-6:171|-6:171|8:118,1,77.0000023498536,8|0,0:2|0:0,0:0:0:0:
73,85,73293,2,0,B|160:89|132:146|223:141,1,154.000004699707,2|10,1:2|0:2,0:0:0:0:
311,189,73743,2,0,B|224:193|252:250|161:245,1,154.000004699707,2|2,0:2|1:2,0:0:0:0:
103,300,74193,1,8,0:2:0:0:
103,300,74343,1,8,0:2:0:0:
178,356,74493,6,0,P|221:355|273:371,1,77.0000023498536,4|0,1:3|0:0,0:0:0:0:
335,339,74793,2,0,P|355:301|395:264,1,77.0000023498536,10|0,0:2|0:0,0:0:0:0:
411,203,75093,2,0,P|388:166|376:113,1,77.0000023498536,2|0,1:2|0:0,0:0:0:0:
313,79,75393,1,10,0:2:0:0:
313,79,75543,1,2,0:2:0:0:
239,25,75693,6,0,B|202:12|202:12|149:29,1,77.0000023498536,10|10,1:2|0:2,0:0:0:0:
114,89,75993,1,10,0:2:0:0:
114,89,76143,1,10,0:2:0:0:
171,151,76293,2,0,P|184:190|169:248,1,77.0000023498536,2|0,1:2|1:0,0:0:0:0:
102,265,76593,2,0,P|89:304|104:362,1,77.0000023498536,10|8,1:2|1:2,0:0:0:0:
171,382,76893,6,0,P|222:370|248:284,1,140,2|8,1:2|0:2,0:0:0:0:
92,339,77493,1,0,1:0:0:0:
92,339,77643,1,0,1:0:0:0:
92,339,77793,2,0,P|48:332|5:332,1,70,8|0,1:2|0:0,0:0:0:0:
28,253,78093,2,0,P|62:253|97:258,1,70,2|2,1:2|1:2,0:0:0:0:
172,304,78393,2,0,P|183:269|174:220,1,70,2|2,1:2|1:2,0:0:0:0:
114,176,78693,2,0,P|102:141|112:92,1,70,2|2,1:2|1:2,0:0:0:0:
172,54,78993,1,8,1:2:0:0:
172,54,79143,1,8,1:2:0:0:
232,117,79293,6,0,P|305:124|360:65,1,140,2|8,1:2|1:2,0:0:0:0:
512,157,79893,2,0,B|510:194|510:194|512:200|512:200|509:241,1,70,2|0,1:2|1:0,0:0:0:0:
508,309,80193,1,8,1:2:0:0:
288,287,80493,6,0,P|332:263|442:266,2,140,2|8|0,1:2|1:2|1:0,0:0:0:0:
237,358,81243,1,0,1:0:0:0:
171,304,81393,2,0,P|136:295|87:309,1,70,8|8,1:2|1:2,0:0:0:0:
28,377,81693,6,0,P|20:293|6:209,1,140,2|8,1:2|1:2,0:0:0:0:
75,77,82293,1,0,1:0:0:0:
75,77,82443,1,0,1:0:0:0:
141,136,82593,2,0,P|179:142|228:155,1,70,10|0,1:2|0:0,0:0:0:0:
290,132,82893,6,0,P|293:173|273:205,1,70,2|0,1:2|0:0,0:0:0:0:
199,236,83193,2,0,P|196:277|216:309,1,70,10|0,1:2|0:0,0:0:0:0:
284,346,83493,2,0,P|318:338|352:334,1,70,2|0,1:2|1:0,0:0:0:0:
415,274,83792,1,8,1:2:0:0:
415,274,83942,1,8,1:2:0:0:
484,377,84093,6,0,P|492:293|506:209,1,140,2|8,1:2|1:2,0:0:0:0:
437,77,84693,1,2,1:2:0:0:
437,77,84843,1,0,1:0:0:0:
371,136,84993,2,0,P|333:142|284:155,1,70,8|0,1:2|0:0,0:0:0:0:
228,98,85293,2,0,P|212:147|273:242,1,140,2|8,1:2|1:2,0:0:0:0:
423,332,85893,2,0,P|388:311|352:312,1,70,0|0,1:0|1:0,0:0:0:0:
286,349,86193,1,8,1:2:0:0:
286,349,86343,1,8,1:2:0:0:
207,298,86493,6,0,P|101:301|46:319,1,140,4|8,1:3|1:2,0:0:0:0:
13,375,86943,1,0,0:0:0:0:
68,309,87093,2,0,P|118:215|130:159,1,140,2|8,1:2|1:2,0:0:0:0:
98,102,87543,1,0,0:0:0:0:
126,183,87693,2,0,P|181:273|224:311,1,140,2|8,1:2|1:2,0:0:0:0:
287,327,88143,1,0,0:0:0:0:
360,280,88293,2,0,B|395:284|395:284|400:290|400:290|444:295,1,70,2|0,1:2|0:0,0:0:0:0:
491,234,88593,1,8,1:2:0:0:
491,234,88743,1,8,1:2:0:0:
429,171,88893,6,0,P|441:39|448:14,1,140,2|8,1:2|1:2,0:0:0:0:
281,103,89493,2,0,P|233:108|196:118,1,70,2|0,1:2|1:0,0:0:0:0:
158,180,89793,1,8,1:2:0:0:
42,36,90093,6,0,P|51:96|50:201,1,140,2|8,1:2|1:2,0:0:0:0:
96,334,90693,2,0,P|133:316|178:308,1,70,0|0,1:0|1:0,0:0:0:0:
237,355,90993,1,8,1:2:0:0:
237,355,91143,1,8,1:2:0:0:
305,305,91293,6,0,P|372:294|445:336,2,140,2|8|0,1:2|1:2|1:0,0:0:0:0:
237,355,92043,1,0,1:0:0:0:
237,355,92193,2,0,L|141:364,1,70,10|0,1:2|0:0,0:0:0:0:
138,285,92493,2,0,L|207:278,1,70,2|0,1:2|0:0,0:0:0:0:
224,200,92793,2,0,L|154:206,1,70,10|0,1:2|0:0,0:0:0:0:
90,153,93093,2,0,P|77:113|95:68,1,70,2|0,1:2|1:0,0:0:0:0:
148,28,93393,1,10,1:2:0:0:
148,28,93543,1,8,1:2:0:0:
226,83,93693,6,0,B|315:81|272:141|381:128,1,140,2|8,1:2|1:2,0:0:0:0:
431,89,94143,1,0,0:0:0:0:
352,130,94293,2,0,B|309:208|277:140|235:241,1,140,2|8,1:2|1:2,0:0:0:0:
266,300,94743,1,0,0:0:0:0:
247,216,94893,2,0,B|200:139|275:146|208:59,1,140,2|8,1:2|1:2,0:0:0:0:
36,16,95493,6,0,B|20:47|20:47|32:99,1,70,0|0,1:0|1:0,0:0:0:0:
113,60,95793,1,8,1:2:0:0:
113,60,95943,1,8,1:2:0:0:
194,0,96093,6,0,B|264:-17|264:-17|339:16,1,140,4|8,1:3|1:2,0:0:0:0:
386,73,96543,1,0,0:0:0:0:
317,133,96693,6,0,B|247:150|247:150|172:117,1,140,2|8,1:2|1:2,0:0:0:0:
125,60,97143,1,0,0:0:0:0:
194,0,97293,6,0,P|264:-17|339:16,1,140,2|8,1:2|1:2,0:0:0:0:
386,73,97743,1,0,0:0:0:0:
317,133,97893,6,0,P|246:148|172:114,1,140,2|8,1:2|1:2,0:0:0:0:
127,56,98343,1,8,1:2:0:0:
49,112,98493,6,0,P|19:173|39:248,1,140,2|8,1:2|1:2,0:0:0:0:
205,319,99093,2,0,P|163:323|129:333,1,70,2|0,1:2|1:0,0:0:0:0:
67,377,99393,1,8,1:2:0:0:
289,377,99693,6,0,B|310:322|310:322|275:228,1,140,2|8,1:2|1:2,0:0:0:0:
358,112,100293,2,0,P|401:97|444:104,1,70,0|0,1:0|1:0,0:0:0:0:
504,138,100593,1,10,1:2:0:0:
504,138,100743,1,10,1:2:0:0:
441,198,100893,6,0,P|437:266|430:366,1,140,2|8,1:2|1:2,0:0:0:0:
273,371,101493,1,0,1:0:0:0:
273,371,101643,1,0,1:0:0:0:
213,302,101793,2,0,P|182:300|130:318,1,70,10|0,1:2|0:0,0:0:0:0:
72,363,102093,6,0,P|61:310|51:265,1,70,2|0,1:2|0:0,0:0:0:0:
0,232,102393,2,0,P|40:195|74:164,1,70,10|0,1:2|0:0,0:0:0:0:
54,102,102693,2,0,P|105:118|149:132,1,70,2|0,1:2|1:0,0:0:0:0:
170,193,102993,1,10,1:2:0:0:
170,193,103143,1,8,1:2:0:0:
226,268,103293,6,0,P|299:258|408:250,1,140,2|8,1:2|1:2,0:0:0:0:
468,246,103743,1,0,0:0:0:0:
468,246,103893,2,0,P|422:187|361:97,1,140,2|8,1:2|1:2,0:0:0:0:
327,46,104343,1,0,0:0:0:0:
327,46,104493,2,0,P|299:114|251:212,1,140,2|8,1:2|1:2,0:0:0:0:
322,334,105093,2,0,P|352:339|395:349,1,70,0|0,1:0|1:0,0:0:0:0:
474,375,105393,1,8,1:2:0:0:
474,375,105543,1,8,1:2:0:0:
499,294,105693,6,0,P|504:199|514:141,1,140,4|8,1:3|1:2,0:0:0:0:
459,78,106143,1,0,0:0:0:0:
386,135,106293,2,0,P|381:230|371:288,1,140,2|8,1:2|1:2,0:0:0:0:
428,346,106743,1,0,0:0:0:0:
499,288,106893,6,0,P|521:210|504:135,1,140,2|8,1:2|1:2,0:0:0:0:
459,78,107343,1,0,0:0:0:0:
386,135,107493,2,0,P|364:213|381:288,1,140,2|8,1:2|1:2,0:0:0:0:
428,346,107943,1,8,1:2:0:0:
341,352,108093,6,0,P|258:357|171:386,1,140,2|8,1:2|1:2,0:0:0:0:
130,324,108543,1,0,0:0:0:0:
87,240,108693,2,0,P|170:245|257:274,1,140,2|8,1:2|1:2,0:0:0:0:
281,199,109143,1,0,0:0:0:0:
331,113,109293,2,0,P|248:118|161:147,1,140,2|8,1:2|1:2,0:0:0:0:
137,72,109743,1,0,0:0:0:0:
64,19,109893,2,0,P|48:72|75:122,1,70,0|0,1:0|1:0,0:0:0:0:
110,159,110193,1,10,1:2:0:0:
110,159,110343,1,8,1:2:0:0:
192,230,110493,6,0,P|115:244|22:263,2,140,2|8|0,1:2|1:2|1:0,0:0:0:0:
262,285,111243,1,0,1:0:0:0:
333,234,111393,2,0,P|346:200|326:147,1,70,10|0,1:2|0:0,0:0:0:0:
273,116,111693,2,0,P|260:82|280:29,1,70,2|0,1:2|0:0,0:0:0:0:
334,4,111993,6,0,L|425:18,1,70,10|0,1:2|0:0,0:0:0:0:
382,100,112293,2,0,L|473:86,1,70,2|0,1:2|1:0,0:0:0:0:
501,161,112593,1,10,1:2:0:0:
501,161,112743,1,10,1:2:0:0:
440,227,112893,6,0,P|377:200|281:210,1,140,2|8,1:2|1:2,0:0:0:0:
200,338,113493,2,0,P|161:356|110:350,1,70,2|0,1:2|1:0,0:0:0:0:
68,307,113793,1,8,1:2:0:0:
1,139,114093,6,0,P|124:154|175:160,1,140,2|8,1:2|1:2,0:0:0:0:
276,7,114693,2,0,B|258:36|258:36|271:92,1,70,0|0,1:0|1:0,0:0:0:0:
325,129,114993,1,8,1:2:0:0:
325,129,115143,1,8,1:2:0:0:
256,192,115293,5,4,1:3:0:0:
256,192,123693,5,8,1:2:0:0:
256,192,124893,6,0,B|314:201|314:201|335:222|335:222|415:233,1,140,4|10,1:3|0:2,0:0:0:0:
463,186,125343,1,2,0:2:0:0:
463,186,125493,2,0,P|476:231|452:281,1,70,2|2,1:2|1:2,0:0:0:0:
415,314,125793,1,10,0:2:0:0:
415,314,125943,1,2,0:2:0:0:
332,350,126093,6,0,P|237:355|138:369,1,140,2|10,1:2|0:2,0:0:0:0:
158,280,126543,2,0,P|227:272|297:269,1,140,2|0,0:2|0:0,0:0:0:0:
367,215,126993,1,10,0:2:0:0:
367,215,127143,1,8,0:2:0:0:
300,153,127293,2,0,P|254:151|209:146,1,70,4|0,1:3|0:0,0:0:0:0:
155,106,127593,5,10,0:2:0:0:
155,106,127743,1,2,0:2:0:0:
155,106,127893,2,0,P|141:153|164:199,1,70,2|2,1:2|0:2,0:0:0:0:
208,232,128193,2,0,P|222:279|199:325,1,70,10|10,0:2|0:2,0:0:0:0:
146,349,128493,2,0,B|114:367|76:347|76:347|57:349|30:363,2,105,2|0|2,1:2|0:0|0:2,0:0:0:0:
217,298,129093,2,0,P|261:302|302:311,1,70,2|0,1:2|0:0,0:0:0:0:
352,362,129393,1,8,0:2:0:0:
352,362,129543,1,8,0:2:0:0:
434,305,129693,6,0,B|446:234|397:242|420:165,2,140,4|10|0,1:3|0:2|1:0,0:0:0:0:
270,359,130593,2,0,B|235:362|235:362|226:369|226:369|190:373,1,70,8|0,0:2|0:0,0:0:0:0:
141,317,130893,2,0,P|109:256|128:180,1,140,2|10,1:2|0:2,0:0:0:0:
216,110,131343,2,0,P|248:171|229:247,1,140,2|0,0:2|0:0,0:0:0:0:
275,314,131793,2,0,P|314:335|362:323,1,70,10|8,0:2|0:2,0:0:0:0:
403,275,132093,6,0,P|408:232|415:182,1,70,6|0,1:3|0:0,0:0:0:0:
387,125,132393,2,0,P|352:99|312:68,1,70,10|0,0:2|0:0,0:0:0:0:
252,53,132693,2,0,P|212:70|165:89,1,70,0|0,1:0|0:0,0:0:0:0:
151,158,132993,1,8,0:2:0:0:
151,158,133143,1,8,0:2:0:0:
221,215,133293,6,0,P|232:248|227:289,1,70,10|8,0:2|0:2,0:0:0:0:
160,338,133593,1,10,0:0:0:0:
160,338,133743,1,8,0:0:0:0:
233,376,133893,2,0,P|271:378|317:384,1,70,2|0,1:2|1:0,0:0:0:0:
369,332,134193,2,0,P|407:330|453:324,1,70,8|8,1:2|1:2,0:0:0:0:
492,261,134493,6,0,P|503:212|427:156,1,140,6|0,1:3|0:0,0:0:0:0:
374,201,134943,2,0,P|339:223|289:217,1,70,2|8,0:3|0:2,0:0:0:0:
205,101,135393,1,0,0:0:0:0:
284,96,135543,2,0,L|276:139,2,35,0|0|2,1:0|1:0|0:3,0:0:0:0:
191,19,135893,6,0,B|168:15|148:19|148:19|137:27|137:27|116:23|91:28,2,93.3333333333333,2|2|8,0:3|0:3|0:2,0:0:0:0:
24,105,136593,1,8,0:2:0:0:
40,251,136893,6,0,P|80:201|157:202,1,140,4|0,1:3|0:0,0:0:0:0:
204,260,137343,2,0,P|236:284|279:280,1,70,2|8,0:3|0:2,0:0:0:0:
430,189,137793,1,0,0:0:0:0:
351,184,137943,2,0,L|358:227,2,35,2|2|2,0:3|0:3|1:3,0:0:0:0:
409,78,138293,6,0,B|432:86|453:78|453:78|457:84|457:84|479:77|502:84,2,93.3333333333333,2|2|12,0:3|0:3|0:3,0:0:0:0:
343,36,138843,1,0,1:0:0:0:
282,87,138993,2,0,P|242:95|202:103,1,70,0|0,1:0|1:0,0:0:0:0:
145,56,139293,6,0,P|128:118|176:177,2,140,4|0|8,1:3|0:0|0:2,0:0:0:0:
43,152,140193,1,0,0:0:0:0:
71,228,140343,2,0,L|36:233,2,35,0|0|2,1:0|1:0|1:3,0:0:0:0:
149,279,140693,6,0,B|176:279|194:288|194:288|201:296|201:296|220:302|247:301,1,93.3333333333333,2|2,0:3|0:3,0:0:0:0:
147,364,141093,1,8,0:2:0:0:
335,318,141393,1,4,1:3:0:0:
445,384,141693,6,0,P|450:329|463:218,1,140,4|0,1:3|0:0,0:0:0:0:
411,160,142143,1,0,0:0:0:0:
338,212,142293,2,0,B|248:210|288:265|189:261,1,140,8|0,0:2|0:0,0:0:0:0:
146,206,142743,1,2,0:3:0:0:
92,289,142893,5,0,1:0:0:0:
92,289,144093,6,0,P|132:295|174:313,1,70,6|2,1:2|0:0,0:0:0:0:
213,222,144393,2,0,P|173:216|131:198,1,70,10|2,0:2|0:0,0:0:0:0:
84,298,144693,2,0,P|121:312|159:338,1,70,2|2,1:2|0:0,0:0:0:0:
221,212,144993,2,0,P|183:197|145:171,1,70,10|2,0:2|0:0,0:0:0:0:
106,94,145293,6,0,L|99:4,1,70,2|2,1:2|0:0,0:0:0:0:
189,35,145593,2,0,L|194:104,1,70,10|10,2:0|0:2,0:0:0:0:
98,93,145893,2,0,L|72:6,1,70,2|2,1:2|0:0,0:0:0:0:
199,38,146193,2,0,L|224:124,1,70,10|10,0:2|0:2,0:0:0:0:
272,177,146493,6,0,P|341:190|364:195,1,70,4|2,1:3|0:0,0:0:0:0:
409,126,146793,2,0,P|432:192|439:214,1,70,10|2,1:2|0:0,0:0:0:0:
512,228,147093,2,0,P|466:281|450:298,1,70,2|2,1:2|0:0,0:0:0:0:
487,372,147393,2,0,P|418:359|394:353,1,70,10|2,0:2|0:0,0:0:0:0:
339,308,147693,6,0,B|294:314|294:314|289:318|289:318|239:326,2,93.3333333333333,2|0|0,1:2|0:0|0:0,0:0:0:0:
412,234,148293,2,0,B|457:240|457:240|462:244|462:244|512:252,2,93.3333333333333,2|0|0,1:2|0:0|0:0,0:0:0:0:
358,154,148893,6,0,B|315:99|355:54|355:54|382:81,1,140,6|10,1:2|1:2,0:0:0:0:
412,234,149493,6,0,P|373:240|323:252,1,70,0|0,1:0|0:0,0:0:0:0:
282,305,149793,2,0,P|247:297|213:292,1,70,8|0,1:2|0:0,0:0:0:0:
143,343,150093,2,0,P|122:287|168:218,1,140,0|8,1:0|1:2,0:0:0:0:
308,139,150693,2,0,P|320:94|307:63,1,70,0|0,1:0|0:0,0:0:0:0:
242,30,150993,1,8,1:2:0:0:
242,30,151143,1,8,1:2:0:0:
171,84,151293,6,0,L|31:99,1,140,6|10,1:2|0:2,0:0:0:0:
104,241,151893,2,0,L|202:251,1,70,2|0,1:2|0:0,0:0:0:0:
240,196,152193,2,0,L|338:185,1,70,10|0,0:2|0:0,0:0:0:0:
371,249,152493,5,8,0:2:0:0:
371,249,152643,1,8,0:2:0:0:
447,287,152793,1,0,1:0:0:0:
447,287,152943,1,0,1:0:0:0:
379,338,153093,1,0,1:0:0:0:
306,302,153243,2,0,L|251:310,2,35,0|0|8,1:0|1:0|1:2,0:0:0:0:
371,249,153543,2,0,L|360:158,1,70,8|2,1:2|0:3,0:0:0:0:
256,192,156093,12,8,157293,1:2:0:0:
371,249,158343,5,8,1:2:0:0:
371,249,158418,1,8,1:2:0:0:
371,249,158493,6,0,B|308:255|308:255|292:268|292:268|224:278,2,140,4|10|2,1:3|1:2|1:2,0:0:0:0:
435,185,159243,1,0,0:0:0:0:
435,185,159393,2,0,P|440:122|443:101,1,70,8|0,1:2|0:0,0:0:0:0:
386,47,159693,6,0,P|325:38|257:92,1,140,2|10,1:2|1:2,0:0:0:0:
236,160,160143,2,0,P|175:168|107:114,1,140
69,54,160593,1,10,1:2:0:0:
69,54,160743,1,8,1:2:0:0:
8,114,160893,2,0,L|-4:214,1,70,4|0,1:3|0:0,0:0:0:0:
53,250,161193,6,0,B|134:238|109:300|197:278,1,140,10|2,1:2|1:2,0:0:0:0:
261,194,161643,2,0,P|266:272|271:363,1,140,2|0,0:0|0:0,0:0:0:0:
337,378,162093,6,0,B|375:385|375:385|419:370,1,70,2|2,1:2|1:2,0:0:0:0:
457,310,162393,1,10,1:2:0:0:
351,197,162693,6,0,B|313:190|313:190|269:205,1,70,2|2,1:2|1:2,0:0:0:0:
231,265,162993,1,8,1:2:0:0:
231,265,163143,1,8,1:2:0:0:
175,199,163293,5,0,1:0:0:0:
256,192,165693,12,8,166893,1:2:0:0:
175,199,168093,6,0,B|175:111|223:152|210:50,2,140,4|8|0,1:3|1:2|1:0,0:0:0:0:
233,262,168843,1,2,0:3:0:0:
161,318,168993,2,0,P|106:325|69:332,1,70,10|0,1:3|0:0,0:0:0:0:
237,359,169293,6,0,B|313:373|294:320|368:325,1,140,2|10,1:2|1:2,0:0:0:0:
439,245,169743,2,0,B|363:259|382:206|307:211,1,140,2|10,1:2|1:2,0:0:0:0:
241,157,170193,1,8,1:2:0:0:
241,157,170343,1,8,1:2:0:0:
289,81,170493,6,0,P|240:70|191:71,1,70,6|0,1:3|0:0,0:0:0:0:
143,103,170793,2,0,P|108:139|85:182,1,70,10|0,1:2|0:0,0:0:0:0:
88,239,171093,2,0,P|102:286|128:328,1,70,2|0,1:2|0:0,0:0:0:0:
187,346,171393,1,10,1:2:0:0:
187,346,171543,1,2,1:2:0:0:
256,292,171693,5,2,1:2:0:0:
332,334,171843,2,0,L|337:264,1,70,10|2,1:2|1:2,0:0:0:0:
256,199,172143,1,10,1:2:0:0:
181,236,172293,2,0,L|175:166,1,70,2|8,1:2|1:2,0:0:0:0:
258,116,172593,1,10,1:2:0:0:
258,116,172743,1,0,1:0:0:0:
256,32,172893,5,4,1:3:0:0:
256,192,172968,12,0,177693,0:0:0:0:
