osu file format v14

[General]
AudioFilename: audio.mp3
AudioLeadIn: 0
PreviewTime: 124818
Countdown: 0
SampleSet: Soft
StackLeniency: 0.7
Mode: 0
LetterboxInBreaks: 0
WidescreenStoryboard: 1

[Editor]
Bookmarks: 115293
DistanceSpacing: 0.7
BeatDivisor: 4
GridSize: 8
TimelineZoom: 2.5

[Metadata]
Title:Devil Town
TitleUnicode:Devil Town
Artist:Cavetown
ArtistUnicode:Cavetown
Creator:The Honeysticks
Version:Clubber's Insane
Source:
Tags:maiden omtereston lugu -Clubber- paka indie rock english aranel clubber - Clubber - legosi sleepylegosi tristan
BeatmapID:3424789
BeatmapSetID:1644536

[Difficulty]
HPDrainRate:4.5
CircleSize:4.2
OverallDifficulty:8
ApproachRate:8.8
SliderMultiplier:1.6
SliderTickRate:1

[Events]
//Background and Video events
0,0,"placeholder.jpg",0,0
//Break Periods
2,115493,123064
2,153893,156664
2,163493,166264
//Storyboard Layer 0 (Background)
//Storyboard Layer 1 (Fail)
//Storyboard Layer 2 (Pass)
//Storyboard Layer 3 (Foreground)
//Storyboard Layer 4 (Overlay)
//Storyboard Sound Samples

[TimingPoints]
19293,300,4,2,2,65,1,0
19293,-100,4,2,2,65,0,0
19518,-100,4,2,1,65,0,0
19893,-100,4,2,2,65,0,0
20193,-100,4,2,1,65,0,0
20493,-100,4,2,2,65,0,0
20793,-100,4,2,1,65,0,0
21093,-100,4,2,2,65,0,0
21393,-100,4,2,1,65,0,0
21693,-100,4,2,2,65,0,0
21993,-100,4,2,1,65,0,0
22293,-100,4,2,2,65,0,0
22593,-100,4,2,1,65,0,0
22893,-100,4,2,2,65,0,0
23193,-100,4,2,1,65,0,0
23493,-100,4,2,2,65,0,0
23793,-100,4,2,1,65,0,0
24093,-100,4,2,2,65,0,0
24393,-100,4,2,1,65,0,0
24693,-100,4,2,2,65,0,0
24843,-100,4,2,1,65,0,0
25293,-100,4,2,2,65,0,0
25593,-100,4,2,1,65,0,0
25893,-100,4,2,2,65,0,0
26793,-100,4,2,1,65,0,0
27093,-100,4,2,2,65,0,0
27393,-100,4,2,1,65,0,0
27693,-100,4,2,2,65,0,0
27993,-100,4,2,1,65,0,0
28293,-100,4,2,2,65,0,0
28443,-100,4,2,1,65,0,0
28593,-100,4,2,2,65,0,0
28743,-100,4,2,1,65,0,0
28893,-100,4,2,2,65,0,0
29193,-100,4,2,1,65,0,0
29493,-100,4,2,2,65,0,0
29793,-100,4,2,1,65,0,0
30093,-100,4,2,2,65,0,0
30393,-100,4,2,1,65,0,0
30693,-100,4,2,2,65,0,0
30843,-100,4,2,1,65,0,0
31293,-100,4,2,2,65,0,0
31593,-100,4,2,1,65,0,0
31893,-100,4,2,2,65,0,0
32043,-100,4,2,1,65,0,0
32493,-100,4,2,2,65,0,0
32793,-100,4,2,1,65,0,0
33093,-100,4,2,2,65,0,0
33243,-100,4,2,1,65,0,0
33693,-100,4,2,2,65,0,0
33993,-100,4,2,1,65,0,0
34293,-100,4,2,2,65,0,0
34593,-100,4,2,1,65,0,0
34893,-100,4,2,2,65,0,0
35118,-100,4,2,2,65,0,0
35493,-100,4,2,2,65,0,0
36393,-100,4,2,1,65,0,0
36693,-100,4,2,2,65,0,0
36993,-100,4,2,1,65,0,0
37293,-100,4,2,2,65,0,0
37593,-100,4,2,1,65,0,0
37893,-100,4,2,2,65,0,0
38193,-100,4,2,1,65,0,0
38493,-117.647058823529,4,2,2,65,0,0
38793,-117.647058823529,4,2,1,65,0,0
39093,-117.647058823529,4,2,2,65,0,0
39393,-117.647058823529,4,2,1,65,0,0
39693,-117.647058823529,4,2,2,65,0,0
39993,-117.647058823529,4,2,1,65,0,0
40293,-117.647058823529,4,2,2,65,0,0
40443,-117.647058823529,4,2,1,65,0,0
40893,-117.647058823529,4,2,2,65,0,0
41193,-117.647058823529,4,2,1,65,0,0
41493,-117.647058823529,4,2,2,65,0,0
41793,-117.647058823529,4,2,1,65,0,0
42093,-117.647058823529,4,2,2,65,0,0
42243,-117.647058823529,4,2,1,65,0,0
42693,-117.647058823529,4,2,2,65,0,0
42843,-117.647058823529,4,2,1,65,0,0
43293,-117.647058823529,4,2,2,65,0,0
43593,-117.647058823529,4,2,1,65,0,0
43893,-117.647058823529,4,2,2,65,0,0
44193,-117.647058823529,4,2,1,65,0,0
44493,-117.647058823529,4,2,2,65,0,0
44643,-117.647058823529,4,2,1,65,0,0
45093,-117.647058823529,4,2,2,65,0,0
45393,-117.647058823529,4,2,1,65,0,0
45693,-117.647058823529,4,2,2,65,0,0
45993,-117.647058823529,4,2,1,65,0,0
46293,-117.647058823529,4,2,2,65,0,0
46593,-117.647058823529,4,2,1,65,0,0
46893,-117.647058823529,4,2,2,65,0,0
47193,-117.647058823529,4,2,1,65,0,0
47493,-117.647058823529,4,2,2,65,0,0
47793,-117.647058823529,4,2,1,65,0,0
48093,-117.647058823529,4,2,2,65,0,0
48393,-117.647058823529,4,2,1,65,0,0
48693,-117.647058823529,4,2,2,65,0,0
48993,-117.647058823529,4,2,1,65,0,0
49293,-117.647058823529,4,2,2,65,0,0
49593,-117.647058823529,4,2,1,65,0,0
49893,-117.647058823529,4,2,2,65,0,0
50193,-117.647058823529,4,2,1,65,0,0
50493,-117.647058823529,4,2,2,65,0,0
50793,-117.647058823529,4,2,1,65,0,0
51093,-117.647058823529,4,2,2,65,0,0
51393,-117.647058823529,4,2,1,65,0,0
51693,-117.647058823529,4,2,2,65,0,0
51993,-117.647058823529,4,2,1,65,0,0
52293,-117.647058823529,4,2,2,65,0,0
52593,-117.647058823529,4,2,1,65,0,0
52893,-117.647058823529,4,2,2,65,0,0
53193,-117.647058823529,4,2,1,65,0,0
53493,-117.647058823529,4,2,2,65,0,0
53793,-117.647058823529,4,2,1,65,0,0
54093,-117.647058823529,4,2,2,65,0,0
54393,-117.647058823529,4,2,1,65,0,0
54693,-117.647058823529,4,2,2,65,0,0
54993,-117.647058823529,4,2,1,65,0,0
55293,-117.647058823529,4,2,2,65,0,0
55593,-117.647058823529,4,2,1,65,0,0
55893,-117.647058823529,4,2,2,65,0,0
56193,-117.647058823529,4,2,1,65,0,0
56493,-100,4,2,1,65,0,0
57093,-100,4,2,2,65,0,0
57393,-100,4,2,1,65,0,0
57693,-80,4,2,2,75,0,1
76893,-133.333333333333,4,2,2,75,0,0
77193,-133.333333333333,4,2,1,70,0,0
77493,-133.333333333333,4,2,2,70,0,0
77793,-133.333333333333,4,2,1,70,0,0
78093,-133.333333333333,4,2,2,70,0,0
78243,-133.333333333333,4,2,1,70,0,0
78393,-133.333333333333,4,2,2,70,0,0
78543,-133.333333333333,4,2,1,70,0,0
78693,-133.333333333333,4,2,2,70,0,0
78843,-133.333333333333,4,2,1,70,0,0
79293,-133.333333333333,4,2,2,70,0,0
79593,-133.333333333333,4,2,1,70,0,0
79893,-133.333333333333,4,2,2,70,0,0
80193,-133.333333333333,4,2,1,70,0,0
80493,-133.333333333333,4,2,2,70,0,0
80793,-133.333333333333,4,2,1,70,0,0
81093,-133.333333333333,4,2,2,70,0,0
81393,-133.333333333333,4,2,1,70,0,0
81693,-133.333333333333,4,2,2,70,0,0
81993,-133.333333333333,4,2,1,70,0,0
82293,-133.333333333333,4,2,2,70,0,0
82593,-133.333333333333,4,2,1,70,0,0
82893,-133.333333333333,4,2,2,70,0,0
83193,-133.333333333333,4,2,1,70,0,0
83493,-133.333333333333,4,2,2,70,0,0
83793,-133.333333333333,4,2,1,70,0,0
84093,-133.333333333333,4,2,2,70,0,0
84393,-133.333333333333,4,2,1,70,0,0
84693,-133.333333333333,4,2,2,70,0,0
84993,-133.333333333333,4,2,1,70,0,0
85293,-133.333333333333,4,2,2,70,0,0
85593,-133.333333333333,4,2,1,70,0,0
85893,-133.333333333333,4,2,2,70,0,0
86193,-133.333333333333,4,2,1,70,0,0
86493,-133.333333333333,4,2,2,70,0,0
86793,-133.333333333333,4,2,1,70,0,0
87093,-133.333333333333,4,2,2,70,0,0
87393,-133.333333333333,4,2,1,70,0,0
87693,-133.333333333333,4,2,2,70,0,0
87993,-133.333333333333,4,2,1,70,0,0
88293,-133.333333333333,4,2,2,70,0,0
88593,-133.333333333333,4,2,1,70,0,0
88893,-133.333333333333,4,2,2,70,0,0
89193,-133.333333333333,4,2,1,70,0,0
89493,-133.333333333333,4,2,2,70,0,0
89793,-133.333333333333,4,2,1,70,0,0
90093,-133.333333333333,4,2,2,70,0,0
90393,-133.333333333333,4,2,1,70,0,0
90693,-133.333333333333,4,2,2,70,0,0
91593,-133.333333333333,4,2,1,70,0,0
91893,-133.333333333333,4,2,2,70,0,0
92193,-133.333333333333,4,2,1,70,0,0
92493,-133.333333333333,4,2,2,70,0,0
92793,-133.333333333333,4,2,1,70,0,0
93093,-133.333333333333,4,2,2,70,0,0
93393,-133.333333333333,4,2,1,70,0,0
93693,-133.333333333333,4,2,2,70,0,0
93993,-133.333333333333,4,2,1,70,0,0
94293,-133.333333333333,4,2,2,70,0,0
94593,-133.333333333333,4,2,1,70,0,0
94893,-133.333333333333,4,2,2,70,0,0
95193,-133.333333333333,4,2,1,70,0,0
95493,-133.333333333333,4,2,2,70,0,0
95793,-133.333333333333,4,2,1,70,0,0
96093,-117.647058823529,4,2,2,70,0,0
96393,-117.647058823529,4,2,1,70,0,0
96693,-117.647058823529,4,2,2,70,0,0
96993,-117.647058823529,4,2,1,70,0,0
97293,-117.647058823529,4,2,2,70,0,0
97593,-117.647058823529,4,2,1,70,0,0
97893,-117.647058823529,4,2,2,70,0,0
98193,-117.647058823529,4,2,1,70,0,0
98493,-117.647058823529,4,2,2,70,0,0
98793,-117.647058823529,4,2,1,70,0,0
99093,-117.647058823529,4,2,2,70,0,0
99393,-117.647058823529,4,2,1,70,0,0
99693,-117.647058823529,4,2,2,70,0,0
99993,-117.647058823529,4,2,1,70,0,0
100293,-117.647058823529,4,2,2,70,0,0
100593,-117.647058823529,4,2,1,70,0,0
100893,-117.647058823529,4,2,2,70,0,0
101193,-117.647058823529,4,2,1,70,0,0
101493,-117.647058823529,4,2,2,70,0,0
101793,-117.647058823529,4,2,1,70,0,0
102093,-117.647058823529,4,2,2,70,0,0
102393,-117.647058823529,4,2,1,70,0,0
102693,-117.647058823529,4,2,2,70,0,0
102993,-117.647058823529,4,2,1,70,0,0
103293,-117.647058823529,4,2,2,70,0,0
103593,-117.647058823529,4,2,1,70,0,0
103893,-117.647058823529,4,2,2,70,0,0
104193,-117.647058823529,4,2,1,70,0,0
104493,-117.647058823529,4,2,2,70,0,0
104793,-117.647058823529,4,2,1,70,0,0
105093,-117.647058823529,4,2,2,70,0,0
105393,-117.647058823529,4,2,1,70,0,0
105693,-117.647058823529,4,2,2,70,0,0
105993,-117.647058823529,4,2,1,70,0,0
106293,-117.647058823529,4,2,2,70,0,0
106593,-117.647058823529,4,2,1,70,0,0
106893,-117.647058823529,4,2,2,70,0,0
107193,-117.647058823529,4,2,1,70,0,0
107493,-117.647058823529,4,2,2,70,0,0
107793,-117.647058823529,4,2,1,70,0,0
108093,-117.647058823529,4,2,2,70,0,0
108393,-117.647058823529,4,2,1,70,0,0
108693,-117.647058823529,4,2,2,70,0,0
108993,-117.647058823529,4,2,1,70,0,0
109293,-117.647058823529,4,2,2,70,0,0
109593,-117.647058823529,4,2,1,70,0,0
109893,-117.647058823529,4,2,2,70,0,0
110193,-117.647058823529,4,2,1,70,0,0
110493,-117.647058823529,4,2,2,70,0,0
110793,-117.647058823529,4,2,1,70,0,0
111093,-117.647058823529,4,2,2,70,0,0
111393,-117.647058823529,4,2,1,70,0,0
111693,-117.647058823529,4,2,2,70,0,0
111993,-117.647058823529,4,2,1,70,0,0
112293,-117.647058823529,4,2,2,70,0,0
112593,-117.647058823529,4,2,1,70,0,0
112893,-117.647058823529,4,2,2,70,0,0
113193,-117.647058823529,4,2,1,70,0,0
113493,-117.647058823529,4,2,2,70,0,0
113793,-117.647058823529,4,2,1,70,0,0
114093,-117.647058823529,4,2,2,70,0,0
114393,-117.647058823529,4,2,1,70,0,0
114693,-117.647058823529,4,2,2,70,0,0
114993,-117.647058823529,4,2,1,70,0,0
115293,-117.647058823529,4,2,2,60,0,0
123693,-117.647058823529,4,2,2,70,0,0
124893,-80,4,2,2,70,0,1
134493,-117.647058823529,4,2,2,70,0,0
144093,-80,4,2,2,70,0,1
144393,-80,4,2,1,70,0,1
144693,-80,4,2,2,70,0,1
144993,-80,4,2,1,70,0,1
145293,-80,4,2,2,70,0,1
145743,-80,4,2,1,70,0,1
145893,-80,4,2,2,70,0,1
146193,-80,4,2,1,70,0,1
146493,-80,4,2,2,70,0,1
146793,-80,4,2,1,70,0,1
147093,-80,4,2,2,70,0,1
147393,-80,4,2,1,70,0,1
147693,-80,4,2,2,70,0,1
147993,-80,4,2,1,70,0,1
148293,-80,4,2,2,70,0,1
148593,-80,4,2,1,70,0,1
148893,-80,4,2,2,70,0,1
149193,-80,4,2,1,70,0,1
149493,-80,4,2,2,70,0,1
149793,-80,4,2,1,70,0,1
150093,-80,4,2,2,70,0,1
150393,-80,4,2,1,70,0,1
150693,-80,4,2,2,70,0,1
150993,-80,4,2,1,70,0,1
151293,-80,4,2,2,70,0,1
151593,-80,4,2,1,70,0,1
151893,-80,4,2,2,70,0,1
152193,-80,4,2,1,70,0,1
152493,-80,4,2,2,70,0,1
152643,-80,4,2,1,70,0,1
152793,-80,4,2,2,70,0,1
153393,-80,4,2,1,70,0,1
153693,-100,4,2,1,70,0,0
157293,-100,4,2,2,70,0,0
158493,-80,4,2,2,70,0,1
158793,-80,4,2,1,80,0,1
159093,-80,4,2,2,80,0,1
159393,-80,4,2,1,80,0,1
159693,-80,4,2,2,80,0,1
159993,-80,4,2,1,80,0,1
160293,-80,4,2,2,80,0,1
160593,-80,4,2,1,80,0,1
160893,-80,4,2,2,80,0,1
161193,-80,4,2,1,80,0,1
161493,-80,4,2,2,80,0,1
161793,-80,4,2,1,80,0,1
162093,-80,4,2,2,80,0,1
162243,-80,4,2,1,80,0,1
162843,-80,4,2,2,80,0,1
162993,-80,4,2,1,80,0,1
163293,-100,4,2,2,70,0,0
167943,-100,4,2,1,80,0,0
168093,-80,4,2,2,80,0,1
168393,-80,4,2,1,80,0,1
169293,-80,4,2,2,80,0,1
169593,-80,4,2,1,80,0,1
169893,-80,4,2,2,80,0,1
170043,-80,4,2,1,80,0,1
170493,-80,4,2,2,80,0,1
170793,-80,4,2,1,80,0,1
171093,-80,4,2,2,80,0,1
171393,-80,4,2,1,80,0,1
171693,-80,4,2,2,80,0,1
171843,-80,4,2,1,80,0,1
172743,-80,4,2,2,80,0,1
172893,-531.914893617021,4,2,2,80,0,0
172968,-531.914893617021,4,2,2,80,0,0
173493,-531.914893617021,4,2,2,70,0,0
174093,-531.914893617021,4,2,2,60,0,0
174693,-531.914893617021,4,2,2,50,0,0
175293,-531.914893617021,4,2,2,40,0,0
175893,-531.914893617021,4,2,2,30,0,0
176493,-531.914893617021,4,2,2,20,0,0
177093,-531.914893617021,4,2,2,10,0,0
177693,-531.914893617021,4,2,2,5,0,0

[Colours]
Combo1 : 255,94,55
Combo2 : 173,255,95
Combo3 : 17,254,176
Combo4 : 255,88,100

[HitObjects]
471,384,19143,5,8,0:0:0:0:
409,268,19293,2,0,L|417:148,1,120,6|2,1:2|1:3,0:0:0:0:
434,132,19593,1,10,1:2:0:0:
347,0,19743,1,10,1:3:0:0:
439,51,19893,2,0,P|400:58|370:84,1,80,2|0,1:2|0:0,0:0:0:0:
198,39,20193,5,10,1:2:0:0:
276,96,20343,1,10,1:2:0:0:
184,31,20493,2,0,L|64:39,1,120,2|0,1:3|0:0,0:0:0:0:
42,53,20793,2,0,P|31:90|49:125,1,80,8|10,1:2|1:2,0:0:0:0:
135,152,21093,2,0,P|145:114|127:79,1,80,2|0,1:3|0:0,0:0:0:0:
46,224,21393,1,10,1:2:0:0:
175,258,21543,1,10,1:2:0:0:
241,299,21693,6,0,P|181:300|122:311,1,120,2|0,1:3|0:0,0:0:0:0:
108,329,21993,1,10,1:2:0:0:
192,384,22143,1,10,1:2:0:0:
175,258,22293,2,0,L|165:178,1,80,2|0,1:3|0:0,0:0:0:0:
265,67,22593,2,0,L|255:146,1,80,8|10,1:2|1:2,0:0:0:0:
54,76,22893,6,0,P|112:87|172:88,1,120,2|0,1:3|0:0,0:0:0:0:
187,72,23193,2,0,P|182:33|152:7,1,80,8|10,1:3|1:2,0:0:0:0:
35,157,23493,2,0,P|59:211|92:261,1,120,2|0,1:3|0:0,0:0:0:0:
115,271,23793,1,10,1:2:0:0:
29,379,23943,1,10,1:2:0:0:
201,291,24093,6,0,P|255:311|272:366,1,120,2|0,1:3|0:0,0:0:0:0:
268,384,24393,1,10,1:2:0:0:
356,337,24543,1,10,1:2:0:0:
198,368,24693,2,0,L|118:358,1,80,2|2,1:3|1:2,0:0:0:0:
147,192,24993,2,0,L|226:201,1,80,10|10,1:2|1:2,0:0:0:0:
356,337,25293,6,0,P|410:316|427:261,1,120,2|0,1:3|0:0,0:0:0:0:
423,244,25593,1,10,1:2:0:0:
511,291,25743,1,2,1:2:0:0:
353,260,25893,2,0,L|273:269,1,80,8|0,1:3|0:0,0:0:0:0:
266,283,26118,1,10,1:2:0:0:
258,296,26193,2,0,L|178:286,1,80,10|10,1:3|1:3,0:0:0:0:
35,377,26493,6,0,B|51:348|51:348|21:266,1,120,4|0,1:2|0:0,0:0:0:0:
2,258,26793,2,0,L|22:180,1,80,10|10,1:2|1:2,0:0:0:0:
235,104,27093,6,0,B|153:74|153:74|124:90,1,120,2|0,1:3|0:0,0:0:0:0:
119,108,27393,1,10,1:2:0:0:
47,53,27543,1,10,1:2:0:0:
181,167,27693,2,0,B|177:184|177:184|117:243|117:243|99:247,1,120,2|0,1:3|0:0,0:0:0:0:
94,232,27993,2,0,B|138:233|138:233|169:251,1,80,10|10,1:2|1:2,0:0:0:0:
264,346,28293,2,0,B|308:345|308:345|339:326,1,80,10|8,1:3|1:2,0:0:0:0:
463,374,28593,1,10,1:3:0:0:
506,258,28743,1,8,1:2:0:0:
389,206,28893,6,0,L|374:86,1,120,4|0,1:2|0:0,0:0:0:0:
358,71,29193,1,8,1:2:0:0:
462,139,29343,1,10,1:2:0:0:
296,143,29493,2,0,P|269:113|263:74,1,80,2|0,1:3|0:0,0:0:0:0:
109,24,29793,1,10,1:2:0:0:
204,0,29943,1,10,1:2:0:0:
155,111,30093,6,0,L|35:100,1,120,2|0,1:3|0:0,0:0:0:0:
21,87,30393,2,0,P|56:102|66:139,1,80,10|10,1:2|1:2,0:0:0:0:
0,280,30693,2,0,P|-4:241|22:214,1,80,2|2,1:3|1:2,0:0:0:0:
165,135,30993,1,10,1:3:0:0:
75,268,31143,1,10,1:2:0:0:
50,346,31293,6,0,P|109:352|168:364,1,120,2|0,1:3|0:0,0:0:0:0:
182,377,31593,1,10,1:2:0:0:
324,294,31743,1,10,1:2:0:0:
268,384,31893,2,0,B|252:319|252:319|241:310,1,80,2|2,1:3|1:2,0:0:0:0:
285,157,32193,1,10,1:2:0:0:
373,229,32343,1,10,1:2:0:0:
398,372,32493,6,0,P|418:318|475:307,1,120,2|0,1:3|0:0,0:0:0:0:
487,326,32793,2,0,P|453:306|438:269,1,80,10|10,1:2|1:2,0:0:0:0:
387,101,33093,2,0,P|422:145|404:200,1,120,2|0,1:3|0:0,0:0:0:0:
382,201,33393,2,0,P|416:181|454:187,1,80,8|10,1:2|1:2,0:0:0:0:
324,294,33693,6,0,P|267:273|208:266,1,120,2|0,1:3|0:0,0:0:0:0:
184,280,33993,2,0,P|174:317|198:347,1,80,10|10,1:2|1:2,0:0:0:0:
269,189,34293,2,0,P|325:168|384:161,1,120,2|0,1:3|0:0,0:0:0:0:
409,175,34593,2,0,P|418:212|394:242,1,80,10|10,1:2|1:2,0:0:0:0:
184,187,34893,6,0,L|166:68,1,120,2|8,1:3|1:2,0:0:0:0:
149,52,35193,1,10,0:2:0:0:
260,0,35343,1,10,1:2:0:0:
318,205,35493,6,0,L|335:86,1,120,10|10,1:3|1:3,0:0:0:0:
353,70,35793,1,10,1:3:0:0:
242,18,35943,1,10,1:3:0:0:
369,56,36093,6,0,B|465:48|465:48|481:30,1,120,6|0,1:3|0:0,0:0:0:0:
496,13,36393,1,10,1:2:0:0:
426,126,36543,1,10,1:2:0:0:
500,174,36693,2,0,P|445:197|392:225,1,120,2|0,1:3|0:0,0:0:0:0:
378,249,36993,2,0,P|362:212|327:195,1,80,10|10,1:2|1:2,0:0:0:0:
320,349,37293,6,0,B|224:341|224:341|207:323,1,120,2|0,1:3|0:0,0:0:0:0:
204,303,37593,2,0,B|193:282|155:268|117:297|112:361,1,120,10|0,1:2|0:0,0:0:0:0:
98,358,37893,2,0,L|78:280,1,80,2|0,1:3|0:0,0:0:0:0:
140,168,38193,1,10,1:2:0:0:
13,138,38343,1,10,1:2:0:0:
152,182,38493,6,0,P|211:155|221:91,1,136.000002593994,4|8,1:3|1:2,0:0:0:0:
164,38,38943,1,2,1:3:0:0:
293,54,39093,2,0,P|358:34|424:20,1,136.000002593994,2|8,1:2|1:2,0:0:0:0:
492,57,39543,1,0,0:0:0:0:
433,143,39693,6,0,P|400:151|380:178,1,68.0000012969971,2|0,1:2|0:0,0:0:0:0:
450,285,39993,2,0,P|458:252|446:221,1,68.0000012969971,8|2,1:2|1:3,0:0:0:0:
374,256,40293,2,0,P|341:251|318:228,1,68.0000012969971,2|8,1:2|1:2,0:0:0:0:
345,96,40593,1,8,1:2:0:0:
345,96,40743,1,10,1:3:0:0:
277,135,40893,6,0,P|227:122|177:114,1,102.000001945496,2|0,1:2|0:0,0:0:0:0:
157,135,41193,2,0,P|123:140|93:155,1,68.0000012969971,8|0,1:2|0:0,0:0:0:0:
0,267,41493,2,0,P|49:254|99:246,1,102.000001945496,2|0,1:2|0:0,0:0:0:0:
120,267,41793,2,0,P|153:272|183:287,1,68.0000012969971,8|0,1:2|0:0,0:0:0:0:
317,238,42093,2,0,P|366:250|416:258,1,102.000001945496,2|0,1:2|0:0,0:0:0:0:
437,238,42393,2,0,P|470:232|500:217,1,68.0000012969971,8|0,1:2|0:0,0:0:0:0:
404,326,42693,6,0,P|353:333|304:346,1,102.000001945496,2|0,1:3|0:0,0:0:0:0:
261,286,42993,1,10,1:3:0:0:
261,286,43143,1,8,1:2:0:0:
133,377,43293,6,0,P|76:344|72:278,2,136.000002593994,2|8|2,1:2|1:2|1:3,0:0:0:0:
64,264,44043,1,0,0:0:0:0:
167,235,44193,2,0,P|151:265|146:298,1,68.0000012969971,10|0,1:2|0:0,0:0:0:0:
98,194,44493,2,0,P|81:145|54:102,1,102.000001945496,2|0,1:2|0:0,0:0:0:0:
70,92,44793,1,8,1:2:0:0:
70,92,44943,1,0,0:0:0:0:
182,144,45093,2,0,P|198:95|225:52,1,102.000001945496,2|0,1:3|0:0,0:0:0:0:
216,31,45393,1,8,1:2:0:0:
118,0,45543,1,10,1:2:0:0:
225,52,45693,6,0,L|292:43,1,68.0000012969971,2|0,1:2|0:0,0:0:0:0:
380,86,45993,2,0,L|447:77,1,68.0000012969971,8|0,1:2|0:0,0:0:0:0:
499,183,46293,2,0,L|431:174,1,68.0000012969971,2|0,1:2|0:0,0:0:0:0:
344,217,46593,2,0,L|276:208,1,68.0000012969971,8|0,1:2|0:0,0:0:0:0:
136,270,46893,6,0,P|199:283|223:344,2,136.000002593994,2|8|0,1:2|1:2|1:0,0:0:0:0:
126,345,47643,1,0,0:0:0:0:
84,212,47793,1,8,1:2:0:0:
84,212,47943,1,8,1:2:0:0:
202,103,48093,6,0,B|254:128|282:172|275:207,1,136.000002593994,6|8,1:2|1:2,0:0:0:0:
489,347,48693,2,0,B|468:340|449:331|449:331|402:343|361:362,1,136.000002593994,2|8,1:2|1:2,0:0:0:0:
119,113,49293,2,0,B|78:176|53:259|194:329|230:214|175:186,1,272.000005187988,2|2,1:2|1:2,0:0:0:0:
488,259,50193,1,8,1:2:0:0:
512,188,50343,1,8,1:2:0:0:
415,123,50493,6,0,L|400:56,1,68.0000012969971,2|0,1:2|0:0,0:0:0:0:
325,197,50793,2,0,L|310:130,1,68.0000012969971,8|0,1:2|0:0,0:0:0:0:
413,209,51093,2,0,L|398:275,1,68.0000012969971,2|0,1:2|0:0,0:0:0:0:
503,283,51393,2,0,L|488:349,1,68.0000012969971,8|0,1:2|0:0,0:0:0:0:
275,262,51693,6,0,P|224:268|178:290,1,102.000001945496,2|0,1:2|0:0,0:0:0:0:
171,307,51993,1,8,1:2:0:0:
99,332,52143,1,8,1:2:0:0:
156,383,52293,2,0,P|189:384|219:368,1,68.0000012969971,2|0,1:2|0:0,0:0:0:0:
250,190,52593,2,0,P|216:188|186:204,1,68.0000012969971,10|8,1:2|1:2,0:0:0:0:
45,275,52893,6,0,P|36:207|22:141,1,136.000002593994,2|8,1:2|1:2,0:0:0:0:
66,79,53343,1,0,0:0:0:0:
146,199,53493,2,0,L|278:169,1,136.000002593994,0|10,1:0|1:2,0:0:0:0:
328,113,53943,1,0,0:0:0:0:
316,20,54093,6,0,P|267:31|240:73,1,102.000001945496,2|0,1:2|0:0,0:0:0:0:
225,88,54393,2,0,P|208:59|175:39,1,68.0000012969971,10|8,1:2|1:2,0:0:0:0:
8,95,54693,2,0,P|56:106|83:148,1,102.000001945496,2|0,1:2|0:0,0:0:0:0:
99,163,54993,2,0,P|116:134|149:114,1,68.0000012969971,8|8,1:2|1:2,0:0:0:0:
262,212,55293,6,0,L|194:201,1,68.0000012969971,2|0,1:2|0:0,0:0:0:0:
314,99,55593,2,0,L|382:89,1,68.0000012969971,8|0,1:2|0:0,0:0:0:0:
256,218,55893,2,0,L|188:207,1,68.0000012969971,2|0,1:2|0:0,0:0:0:0:
320,93,56193,2,0,L|387:82,1,68.0000012969971,8|0,1:2|0:0,0:0:0:0:
408,235,56493,6,0,B|359:222|335:261|348:268|331:309|278:303,1,160,8|8,1:2|1:2,0:0:0:0:
431,318,56943,2,0,P|449:325|466:335,1,40,8|0,0:0|0:0,0:0:0:0:
488,233,57093,2,0,P|497:194|503:154,1,80,0|0,1:0|0:0,0:0:0:0:
391,41,57393,2,0,P|397:80|406:119,1,80,8|8,1:2|1:2,0:0:0:0:
271,226,57693,6,0,P|224:167|169:115,1,150,4|0,1:2|0:0,0:0:0:0:
155,129,57993,1,8,0:2:0:0:
214,17,58143,1,2,0:2:0:0:
274,69,58293,2,0,P|298:112|326:153,1,100,2|0,1:3|0:0,0:0:0:0:
464,189,58593,1,10,0:2:0:0:
378,253,58743,6,0,P|279:269|184:301,1,200,2|2,0:2|0:3,0:0:0:0:
67,171,59193,2,0,P|106:199|149:225,1,100,10|2,0:2|0:2,0:0:0:0:
64,311,59493,2,0,P|112:320|161:325,1,100,2|10,1:2|0:2,0:0:0:0:
271,226,59793,1,10,0:2:0:0:
295,317,59943,1,8,0:2:0:0:
364,217,60093,6,0,P|413:131|476:53,2,200,4|10|2,1:3|0:2|1:2,0:0:0:0:
292,144,60843,2,0,P|306:96|315:47,1,100,2|8,0:2|0:2,0:0:0:0:
254,0,61143,1,2,0:2:0:0:
214,164,61293,2,0,P|206:114|194:66,1,100,0|2,1:0|0:2,0:0:0:0:
152,226,61593,2,0,P|124:184|93:145,1,100,10|2,0:2|0:2,0:0:0:0:
18,135,61893,1,2,1:2:0:0:
18,135,62043,1,10,0:2:0:0:
43,37,62193,1,10,0:2:0:0:
99,118,62343,1,8,0:2:0:0:
0,224,62493,6,0,P|84:272|162:340,2,200,4|10|2,1:3|0:2|1:2,0:0:0:0:
77,223,63243,1,0,0:0:0:0:
219,159,63393,2,0,P|204:206|197:256,1,100,8|0,0:0|0:0,0:0:0:0:
339,207,63693,2,0,P|297:268|266:336,1,150,2|0,1:2|0:0,0:0:0:0:
269,353,63993,1,10,0:2:0:0:
168,363,64143,2,0,P|78:322|-20:308,1,200
75,367,64593,1,10,0:2:0:0:
75,367,64743,1,8,0:2:0:0:
104,231,64893,6,0,P|94:181|92:132,1,100,4|0,1:3|0:0,0:0:0:0:
198,57,65193,2,0,P|271:43|342:19,1,150,10|0,0:2|0:0,0:0:0:0:
353,1,65493,1,2,1:2:0:0:
424,35,65643,1,2,0:2:0:0:
318,116,65793,2,0,P|287:155|251:190,1,100,8|2,0:2|0:2,0:0:0:0:
256,358,66093,5,10,0:2:0:0:
295,274,66243,1,10,0:2:0:0:
217,260,66393,1,2,1:2:0:0:
196,244,66543,1,2,0:0:0:0:
176,166,66693,5,0,1:0:0:0:
229,108,66843,1,0,1:0:0:0:
229,108,66918,1,0,1:0:0:0:
229,108,66993,1,8,0:2:0:0:
306,111,67143,1,8,0:2:0:0:
336,197,67293,6,0,P|408:179|478:152,1,150,4|0,1:3|0:0,0:0:0:0:
489,139,67593,1,8,0:2:0:0:
512,215,67743,1,0,0:0:0:0:
401,301,67893,2,0,P|352:289|306:270,1,100,0|2,1:0|0:2,0:0:0:0:
273,138,68193,2,0,P|316:114|357:84,1,100,8|2,0:2|0:2,0:0:0:0:
241,0,68493,6,0,P|195:88|136:169,1,200,2|8,1:2|0:2,0:0:0:0:
228,316,68943,2,0,P|261:352|300:384,1,100,2|0,1:2|1:0,0:0:0:0:
373,372,69243,1,2,1:2:0:0:
312,287,69393,1,10,0:2:0:0:
358,208,69543,1,8,0:2:0:0:
241,228,69693,6,0,P|167:244|97:268,1,150,4|0,1:3|0:0,0:0:0:0:
89,298,69993,1,10,0:2:0:0:
89,298,70143,1,2,0:2:0:0:
136,169,70293,2,0,P|86:165|38:150,1,100,2|2,1:2|1:2,0:0:0:0:
199,112,70593,2,0,P|155:87|118:54,1,100,10|2,0:2|0:2,0:0:0:0:
264,221,70893,6,0,P|166:246|73:280,2,200,2|10|2,1:2|0:2|1:2,0:0:0:0:
335,251,71643,1,0,0:0:0:0:
389,167,71793,1,8,0:2:0:0:
482,209,71943,1,8,0:2:0:0:
394,142,72093,6,0,P|405:241|423:339,2,200,4|10|0,1:3|0:2|1:0,0:0:0:0:
411,65,72843,1,0,0:0:0:0:
292,154,72993,2,0,P|302:202|320:249,1,100,8|0,0:2|0:0,0:0:0:0:
329,367,73293,2,0,P|267:324|198:295,1,150,2|0,1:2|0:0,0:0:0:0:
185,304,73593,1,10,0:2:0:0:
338,86,73743,2,0,P|255:140|159:169,1,200,2|2,0:2|1:2,0:0:0:0:
43,114,74193,1,8,0:2:0:0:
43,114,74343,1,8,0:2:0:0:
66,246,74493,6,0,P|93:301|110:356,1,100,4|0,1:3|0:0,0:0:0:0:
183,184,74793,2,0,P|184:245|176:302,1,100,10|0,0:2|0:0,0:0:0:0:
327,208,75093,2,0,P|302:264|271:312,1,100,2|0,1:2|0:0,0:0:0:0:
265,148,75393,1,10,0:2:0:0:
265,148,75543,1,2,0:2:0:0:
357,122,75693,5,10,1:2:0:0:
382,27,75843,1,10,0:2:0:0:
310,0,75993,1,10,0:2:0:0:
288,9,76143,1,10,0:2:0:0:
244,71,76293,1,2,1:2:0:0:
222,62,76443,1,0,1:0:0:0:
128,32,76593,5,10,1:2:0:0:
153,127,76743,1,8,1:2:0:0:
145,144,76893,1,2,1:2:0:0:
145,144,78093,6,0,B|109:128|114:86|114:86|120:113|140:128,1,120.000004577637,2|2,1:2|1:2,0:0:0:0:
315,65,78693,2,0,P|256:62|196:65,1,120.000004577637,2|8,1:2|1:2,0:0:0:0:
367,144,79293,2,0,B|403:128|398:86|398:86|392:113|372:128,1,120.000004577637,2|8,1:2|1:2,0:0:0:0:
203,281,79893,2,0,P|255:255|307:280,1,120.000004577637,2|8,1:2|1:2,0:0:0:0:
116,236,80493,2,0,P|58:249|3:271,1,120.000004577637,2|8,1:2|1:2,0:0:0:0:
395,236,81093,2,0,P|453:249|508:271,1,120.000004577637,0|8,1:0|1:2,0:0:0:0:
478,342,81543,1,8,1:2:0:0:
326,275,81693,6,0,P|315:217|350:170,1,120.000004577637,2|8,1:2|1:2,0:0:0:0:
186,275,82293,2,0,P|196:217|161:170,1,120.000004577637,0|10,1:0|1:2,0:0:0:0:
445,306,82893,2,0,P|480:259|470:202,1,120.000004577637,2|10,1:2|1:2,0:0:0:0:
66,306,83493,2,0,P|31:259|42:202,1,120.000004577637,2|8,1:2|1:2,0:0:0:0:
415,139,84093,2,0,B|438:194|438:194|394:235,1,120.000004577637,2|8,1:2|1:2,0:0:0:0:
117,235,84693,2,0,B|74:194|74:194|97:139,1,120.000004577637,2|8,1:2|1:2,0:0:0:0:
256,12,85293,2,0,L|256:372,1,360.000013732911,2|8,1:2|1:2,0:0:0:0:
182,341,86343,1,8,1:2:0:0:
74,384,86493,6,0,P|51:328|39:269,1,120.000004577637,4|8,1:3|1:2,0:0:0:0:
438,384,87093,2,0,P|460:328|472:269,1,120.000004577637,2|8,1:2|1:2,0:0:0:0:
133,25,87693,2,0,P|109:80|96:139,1,120.000004577637,2|8,1:2|1:2,0:0:0:0:
377,25,88293,2,0,P|401:80|415:139,1,120.000004577637,2|8,1:2|1:2,0:0:0:0:
256,192,88743,1,8,1:2:0:0:
347,339,88893,2,0,P|338:281|380:241,1,120.000004577637,2|8,1:2|1:2,0:0:0:0:
165,339,89493,2,0,P|173:281|131:241,1,120.000004577637,2|8,1:2|1:2,0:0:0:0:
53,94,90093,2,0,L|171:74,1,120.000004577637,2|8,1:2|1:2,0:0:0:0:
459,94,90693,2,0,L|340:74,1,120.000004577637,0|8,1:0|1:2,0:0:0:0:
256,96,91143,1,8,1:2:0:0:
332,214,91293,6,0,P|381:183|393:126,1,120.000004577637,2|8,1:2|1:2,0:0:0:0:
118,126,91893,2,0,P|130:183|180:214,1,120.000004577637,0|10,1:0|1:2,0:0:0:0:
361,294,92493,2,0,P|331:299|305:314,1,60.0000022888184,2|0,1:2|0:0,0:0:0:0:
206,314,92793,2,0,P|180:299|151:294,1,60.0000022888184,10|0,1:2|0:0,0:0:0:0:
150,168,93093,2,0,P|180:163|206:148,1,60.0000022888184,2|0,1:2|1:0,0:0:0:0:
305,147,93392,2,0,P|331:162|361:168,1,60.0000022888184,10|8,1:2|1:2,0:0:0:0:
444,260,93693,6,0,P|458:201|476:144,1,120.000004577637,2|8,1:2|1:2,0:0:0:0:
68,260,94293,2,0,P|53:201|35:144,1,120.000004577637,2|8,1:2|1:2,0:0:0:0:
327,41,94893,2,0,P|383:46|404:99,1,120.000004577637,2|8,1:2|1:2,0:0:0:0:
107,99,95493,2,0,P|128:46|185:41,1,120.000004577637,0|8,1:0|1:2,0:0:0:0:
256,96,95943,1,8,1:2:0:0:
188,170,96093,6,0,P|120:176|55:194,1,136.000002593994,4|8,1:3|1:2,0:0:0:0:
0,355,96693,1,2,1:2:0:0:
0,355,96843,1,0,1:0:0:0:
68,313,96993,2,0,P|101:314|132:329,1,68.0000012969971,8|0,1:2|0:0,0:0:0:0:
191,380,97293,2,0,P|255:359|322:349,1,136.000002593994,2|8,1:2|1:2,0:0:0:0:
505,384,97893,2,0,P|514:351|512:317,1,68.0000012969971,2|0,1:2|0:0,0:0:0:0:
447,243,98193,1,8,1:2:0:0:
437,341,98343,1,8,1:2:0:0:
378,288,98493,6,0,P|361:222|329:162,1,136.000002593994,2|8,1:2|1:2,0:0:0:0:
377,8,99093,1,2,1:2:0:0:
377,8,99243,1,0,1:0:0:0:
289,52,99393,2,0,P|222:38|154:31,2,136.000002593994,8|2|8,1:2|1:2|1:2,0:0:0:0:
355,92,100143,1,0,0:0:0:0:
257,129,100293,2,0,P|243:160|246:193,1,68.0000012969971,0|0,1:0|1:0,0:0:0:0:
314,267,100593,1,10,1:2:0:0:
327,172,100743,1,10,1:2:0:0:
234,271,100893,6,0,P|170:251|133:196,1,136.000002593994,2|8,1:2|1:2,0:0:0:0:
141,182,101343,1,0,0:0:0:0:
75,148,101493,1,0,1:0:0:0:
75,148,101643,1,0,1:0:0:0:
18,229,101793,2,0,P|28:296|35:363,2,136.000002593994,10|2|10,1:2|1:2|1:2,0:0:0:0:
136,342,102693,5,2,1:2:0:0:
136,342,102843,1,0,1:0:0:0:
233,374,102993,1,10,1:2:0:0:
310,315,103143,1,8,1:2:0:0:
380,355,103293,6,0,P|413:358|447:365,1,68.0000012969971,2|0,1:2|0:0,0:0:0:0:
508,274,103593,2,0,P|474:277|440:284,1,68.0000012969971,8|0,1:2|0:0,0:0:0:0:
352,250,103893,1,2,1:2:0:0:
352,250,104043,1,0,1:0:0:0:
353,170,104193,2,0,P|420:179|463:192,1,102.000001945496,8|0,1:2|0:0,0:0:0:0:
465,201,104493,2,0,P|424:149|442:85,1,136.000002593994,2|8,1:2|1:2,0:0:0:0:
454,81,104943,1,0,0:0:0:0:
377,22,105093,2,0,P|343:17|311:4,1,68.0000012969971,0|0,1:0|1:0,0:0:0:0:
246,75,105393,2,0,P|212:79|180:92,1,68.0000012969971,8|8,1:2|1:2,0:0:0:0:
11,0,105693,6,0,P|75:2|99:62,1,136.000002593994,4|8,1:3|1:2,0:0:0:0:
91,77,106143,1,0,0:0:0:0:
126,151,106293,1,2,1:2:0:0:
126,151,106443,1,0,1:0:0:0:
55,217,106593,2,0,P|47:183|36:151,1,68.0000012969971,8|0,1:2|0:0,0:0:0:0:
180,229,106893,2,0,B|141:218|122:252|134:259|108:295|70:290,2,136.000002593994,2|8|2,1:2|1:2|1:2,0:0:0:0:
192,240,107643,1,0,0:0:0:0:
262,307,107793,1,8,1:2:0:0:
168,331,107943,1,8,1:2:0:0:
57,383,108093,6,0,P|44:317|0:268,2,136.000002593994,2|8|2,1:2|1:2|1:2,0:0:0:0:
41,373,108843,1,0,1:0:0:0:
169,240,108993,2,0,P|217:255|251:292,1,102.000001945496,8|0,1:2|0:0,0:0:0:0:
243,311,109293,2,0,B|309:305|309:305|312:308|312:308|377:301,1,136.000002593994,2|8,1:2|1:2,0:0:0:0:
392,287,109743,1,0,0:0:0:0:
454,343,109893,1,0,1:0:0:0:
454,343,110043,1,0,1:0:0:0:
494,251,110193,1,10,1:2:0:0:
430,173,110343,1,8,1:2:0:0:
336,204,110493,6,0,B|270:198|270:198|267:201|267:201|201:194,1,136.000002593994,2|8,1:2|1:2,0:0:0:0:
187,207,110943,1,0,0:0:0:0:
133,156,111093,1,0,1:0:0:0:
133,156,111243,1,0,1:0:0:0:
168,64,111393,2,0,P|217:68|243:109,1,102.000001945496,10|0,1:2|0:0,0:0:0:0:
241,125,111693,6,0,P|258:87|278:60,1,68.0000012969971,2|0,1:2|0:0,0:0:0:0:
367,29,111993,1,10,1:2:0:0:
385,37,112143,1,0,0:0:0:0:
459,8,112293,1,2,1:2:0:0:
459,8,112443,1,0,1:0:0:0:
429,104,112593,1,10,1:2:0:0:
483,183,112743,1,10,1:2:0:0:
403,181,112893,6,0,P|354:196|309:220,1,102.000001945496,2|0,1:2|0:0,0:0:0:0:
292,243,113193,2,0,P|276:212|255:186,1,68.0000012969971,8|0,1:2|0:0,0:0:0:0:
159,119,113493,2,0,P|207:103|252:79,1,102.000001945496,2|0,1:2|0:0,0:0:0:0:
270,57,113793,2,0,P|285:87|306:113,1,68.0000012969971,8|0,1:2|0:0,0:0:0:0:
170,196,114093,6,0,P|114:230|111:295,2,136.000002593994,2|8|0,1:2|1:2|1:0,0:0:0:0:
182,204,114843,1,0,1:0:0:0:
221,293,114993,1,8,1:2:0:0:
182,381,115143,1,8,1:2:0:0:
227,313,115293,5,4,1:3:0:0:
415,209,123693,5,8,1:2:0:0:
415,209,124893,6,0,P|367:266|306:310,1,150,4|0,1:3|0:0,0:0:0:0:
300,329,125193,1,10,0:2:0:0:
356,384,125343,1,2,0:2:0:0:
414,335,125493,2,0,P|462:322|512:318,1,100,2|2,1:2|1:2,0:0:0:0:
508,222,125793,1,10,0:2:0:0:
508,222,125943,1,2,0:2:0:0:
393,109,126093,6,0,P|323:179|233:222,1,200,2|10,1:2|0:2,0:0:0:0:
312,82,126543,2,0,P|265:100|215:103,1,100,2|0,0:2|1:0,0:0:0:0:
160,20,126843,1,0,0:0:0:0:
286,0,126993,2,0,P|335:3|382:21,1,100,10|8,0:2|0:2,0:0:0:0:
379,193,127293,6,0,P|323:275|297:371,1,200,4|10,1:3|0:2,0:0:0:0:
230,331,127743,1,2,0:2:0:0:
377,358,127893,2,0,P|409:320|453:296,1,100,2|2,1:2|0:2,0:0:0:0:
242,252,128193,2,0,P|244:202|264:156,1,100,10|10,0:2|0:2,0:0:0:0:
109,220,128493,6,0,P|159:274|193:341,1,150,2|0,1:2|0:0,0:0:0:0:
190,361,128793,1,10,0:2:0:0:
273,331,128943,1,2,0:2:0:0:
111,354,129093,2,0,P|68:328|19:319,1,100,2|0,1:2|0:0,0:0:0:0:
0,203,129393,1,8,0:2:0:0:
0,203,129543,1,8,0:2:0:0:
125,266,129693,6,0,P|224:258|318:225,2,200,4|10|0,1:3|0:2|1:0,0:0:0:0:
111,256,130443,1,0,0:0:0:0:
177,130,130593,2,0,P|224:144|274:148,1,100,8|0,0:2|0:0,0:0:0:0:
438,24,130893,6,0,P|339:15|251:59,1,200,2|10,1:2|0:2,0:0:0:0:
389,165,131343,2,0,P|347:138|298:132,1,100,2|0,0:2|1:0,0:0:0:0:
453,104,131643,2,0,P|482:143|491:192,1,100,0|10,0:0|0:2,0:0:0:0:
422,301,131943,1,8,0:2:0:0:
315,229,132093,2,0,P|216:241|129:289,2,200,6|10|0,1:3|0:2|1:0,0:0:0:0:
82,163,132993,2,0,P|38:139|0:107,1,100,8|8,0:2|0:2,0:0:0:0:
37,7,133293,5,10,0:2:0:0:
130,31,133443,1,8,0:2:0:0:
209,27,133593,1,10,0:0:0:0:
226,16,133743,1,8,0:0:0:0:
274,77,133893,1,2,1:2:0:0:
291,88,134043,1,0,1:0:0:0:
313,0,134193,1,8,1:2:0:0:
397,38,134343,1,8,1:2:0:0:
300,110,134493,6,0,B|266:111|209:131|169:169|167:218|187:240,1,204.000003890991,6|2,1:3|0:3,0:0:0:0:
93,329,135093,2,0,B|139:334|189:346|189:346|190:350|190:350|206:354|224:364,1,136.000002593994,8|0,0:2|0:0,0:0:0:0:
396,322,135543,1,0,1:0:0:0:
373,329,135618,1,0,1:0:0:0:
350,336,135693,2,0,B|408:338|424:355|430:379,2,90.6666683959961,2|2|2,0:3|0:3|0:3,0:0:0:0:
275,273,136293,2,0,B|294:271|303:259|303:259|306:239|317:227,1,68.0000012969971,8|0,0:2|0:0,0:0:0:0:
476,159,136593,6,0,B|434:155|410:183|396:220|404:252,2,136.000002593994,8|4|0,0:2|1:3|0:0,0:0:0:0:
488,171,137343,1,2,0:3:0:0:
418,84,137493,1,8,0:2:0:0:
418,84,137643,1,0,0:0:0:0:
476,22,137793,2,0,P|449:1|415:0,1,68.0000012969971,0|2,0:0|0:3,0:0:0:0:
400,1,138018,1,2,0:3:0:0:
387,8,138093,6,0,L|311:-1,1,45.3333341979981,2|0,1:3|0:0,0:0:0:0:
304,22,138293,6,0,L|228:31,1,45.3333341979981,2|0,0:3|0:0,0:0:0:0:
213,19,138493,5,2,0:3:0:0:
146,102,138693,5,12,0:3:0:0:
106,15,138843,1,0,1:0:0:0:
27,29,138993,1,0,1:0:0:0:
17,51,139143,1,0,1:0:0:0:
65,164,139293,6,0,B|147:154|147:154|150:148|150:148|231:137|231:137|231:120|243:107,1,204.000003890991,4|2,1:3|0:3,0:0:0:0:
340,174,139893,2,0,B|336:184|325:186|325:186|305:164|313:133,1,68.0000012969971,8|0,0:2|0:0,0:0:0:0:
225,223,140193,2,0,B|229:213|240:211|240:211|260:233|252:264,1,68.0000012969971,0|0,0:0|1:0,0:0:0:0:
249,269,140418,1,0,1:0:0:0:
239,282,140493,2,0,P|192:261|143:260,2,90.6666683959961,2|2|2,1:3|0:3|0:3,0:0:0:0:
286,349,141093,2,0,P|251:356|217:371,1,68.0000012969971,8|0,0:2|0:0,0:0:0:0:
125,341,141393,2,0,P|80:317|61:271,1,102.000001945496,4|0,1:3|0:0,0:0:0:0:
72,256,141693,6,0,P|58:196|42:177,1,68.0000012969971,4|0,1:3|0:0,0:0:0:0:
159,110,141993,2,0,P|144:140|142:174,1,68.0000012969971
156,9,142293,2,0,B|204:20|244:39|260:62|256:85,1,136.000002593994,8|0,0:2|0:0,0:0:0:0:
246,98,142743,1,2,0:3:0:0:
301,173,142893,5,0,1:0:0:0:
419,62,143118,1,0,1:0:0:0:
474,221,143343,1,2,0:0:0:0:
474,221,143418,1,2,0:0:0:0:
474,221,143493,5,2,0:0:0:0:
402,154,143718,5,2,0:0:0:0:
377,249,143943,5,2,0:0:0:0:
305,174,144093,6,0,P|279:130|248:92,1,100,6|2,1:2|0:0,0:0:0:0:
195,12,144393,2,0,P|164:50|174:97,1,100,10|2,0:2|0:0,0:0:0:0:
240,221,144693,2,0,P|199:192|154:170,1,100,2|2,1:2|0:0,0:0:0:0:
71,120,144993,2,0,P|59:167|88:206,1,100,10|2,0:2|0:0,0:0:0:0:
193,320,145293,6,0,P|218:276|249:238,1,100,2|2,1:2|0:0,0:0:0:0:
303,158,145593,2,0,P|333:196|323:243,1,100,10|10,2:0|0:2,0:0:0:0:
258,367,145893,2,0,P|298:338|343:316,1,100,2|2,1:2|0:0,0:0:0:0:
427,266,146193,2,0,P|438:313|409:352,1,100,10|10,0:2|0:2,0:0:0:0:
310,240,146493,6,0,P|281:279|292:326,1,100,4|2,1:3|0:0,0:0:0:0:
383,191,146793,2,0,P|367:138|345:99,1,100,10|2,1:2|0:0,0:0:0:0:
484,173,147093,2,0,P|512:212|501:259,1,100,2|2,1:2|0:0,0:0:0:0:
411,124,147393,2,0,P|427:71|449:32,1,100,10|2,0:2|0:0,0:0:0:0:
326,107,147693,6,0,P|301:101|260:85,1,66.6666666666667,2|0,1:2|0:0,0:0:0:0:
199,24,147893,6,0,P|174:29|133:46,1,66.6666666666667,0|10,0:0|0:2,0:0:0:0:
60,143,148093,5,0,0:0:0:0:
66,162,148193,5,0,0:0:0:0:
79,177,148293,6,0,P|117:166|137:142,1,66.6666666666667,2|0,1:2|0:0,0:0:0:0:
198,16,148493,6,0,P|189:47|197:79,1,66.6666666666667,0|10,0:0|0:2,0:0:0:0:
278,199,148694,6,0,P|256:175|224:167,1,66.6666666666667
160,271,148893,6,0,B|104:297|77:242|89:237|61:168|0:199,2,200,6|10|0,1:2|1:2|1:0,0:0:0:0:
173,253,149643,1,0,0:0:0:0:
69,284,149793,2,0,P|43:326|27:374,1,100,8|0,1:2|0:0,0:0:0:0:
155,285,150093,2,0,P|149:334|155:384,1,100,0|0,1:0|0:0,0:0:0:0:
233,249,150393,2,0,P|249:296|275:338,1,100,8|0,1:2|0:0,0:0:0:0:
288,183,150693,2,0,P|322:218|364:246,1,100,0|0,1:0|0:0,0:0:0:0:
512,295,150993,2,0,P|470:322|435:358,1,100,8|8,1:2|1:2,0:0:0:0:
451,223,151293,6,0,P|470:125|474:25,1,200,6|10,1:2|0:2,0:0:0:0:
461,9,151743,1,0,0:0:0:0:
363,22,151893,2,0,P|317:45|280:88,1,100,2|0,1:2|0:0,0:0:0:0:
188,51,152193,2,0,P|156:91|140:145,1,100,10|0,0:2|0:0,0:0:0:0:
164,239,152493,5,8,0:2:0:0:
70,214,152643,1,8,0:2:0:0:
23,276,152793,1,0,1:0:0:0:
16,291,152943,1,0,1:0:0:0:
55,360,153093,1,0,1:0:0:0:
137,378,153243,1,0,1:0:0:0:
137,378,153318,1,0,1:0:0:0:
137,378,153393,1,8,1:2:0:0:
189,319,153543,1,8,1:2:0:0:
105,295,153693,5,2,0:3:0:0:
444,302,157293,5,8,1:2:0:0:
444,302,158343,1,8,1:2:0:0:
428,291,158418,1,8,1:2:0:0:
407,287,158493,6,0,P|308:295|215:329,2,200,4|10|2,1:3|1:2|1:2,0:0:0:0:
442,220,159243,1,0,0:0:0:0:
313,210,159393,2,0,P|268:190|228:161,1,100,8|0,1:2|0:0,0:0:0:0:
386,153,159693,2,0,P|315:85|256:-11,1,200,2|10,1:2|1:2,0:0:0:0:
134,46,160143,2,0,P|139:95|133:145,1,100,0|2,0:0|1:2,0:0:0:0:
217,83,160443,1,0,0:0:0:0:
167,234,160593,2,0,P|121:254|81:284,1,100,10|8,1:2|1:2,0:0:0:0:
18,384,160893,6,0,P|48:288|52:189,2,200,4|10|2,1:3|1:2|1:2,0:0:0:0:
0,308,161643,1,2,0:0:0:0:
115,368,161793,2,0,P|190:356|264:352,1,150,8|0,1:2|0:0,0:0:0:0:
285,365,162093,6,0,P|259:323|245:275,1,100,2|2,1:2|1:2,0:0:0:0:
404,315,162393,2,0,P|398:265|405:216,1,100,10|0,1:2|0:0,0:0:0:0:
358,115,162693,2,0,P|330:156|315:204,1,100,2|2,1:2|1:2,0:0:0:0:
231,156,162993,1,8,1:2:0:0:
269,65,163143,1,8,1:2:0:0:
319,221,163293,5,0,1:0:0:0:
356,351,166893,5,8,1:2:0:0:
356,351,167943,1,8,1:2:0:0:
364,330,168018,1,8,1:2:0:0:
384,322,168093,6,0,P|464:263|522:182,2,200,4|8|0,1:3|1:2|1:0,0:0:0:0:
341,259,168843,1,2,0:3:0:0:
422,170,168993,2,0,P|372:177|322:180,1,100,10|0,1:3|0:0,0:0:0:0:
259,291,169293,2,0,P|164:259|84:202,1,200,2|10,1:2|1:2,0:0:0:0:
238,198,169743,2,0,P|159:136|107:51,2,200,2|10|8,1:2|1:2|1:2,0:0:0:0:
254,200,170418,1,2,0:3:0:0:
270,194,170493,6,0,P|230:225|199:264,1,100,6|0,1:3|0:0,0:0:0:0:
67,194,170793,2,0,P|115:182|160:161,1,100,10|0,1:2|0:0,0:0:0:0:
108,299,171093,2,0,P|59:288|9:289,1,100,2|0,1:2|0:0,0:0:0:0:
0,384,171393,1,10,1:2:0:0:
0,384,171543,1,2,1:2:0:0:
104,322,171693,5,2,1:2:0:0:
172,358,171843,1,10,1:2:0:0:
262,327,171993,2,0,P|291:286|308:240,1,100,2|10,1:2|1:2,0:0:0:0:
429,163,172293,1,2,1:2:0:0:
397,259,172443,1,8,1:2:0:0:
340,149,172593,1,10,1:2:0:0:
340,149,172743,1,0,1:0:0:0:
404,79,172893,6,0,B|427:56|412:1|412:1|419:48|381:79|381:79|311:33|202:33|132:79|132:79|93:48|99:2|99:2|85:56|109:79,1,601.599973562501,4|0,1:3|0:0,0:0:0:0:
