osu file format v14

[General]
AudioFilename: audio.mp3
AudioLeadIn: 0
PreviewTime: 124818
Countdown: 0
SampleSet: Soft
StackLeniency: 0.7
Mode: 0
LetterboxInBreaks: 0
WidescreenStoryboard: 1

[Editor]
Bookmarks: 28893,38493,48093,57693,67293,76893,86493,96093,105693,115293,115368,115443,115518,115593,115743,115818,115893,115968,116043,116118,116268,116343,116418,116493,116643,116718,116793,116868,117018,117093,117168,117243,117393,117468,117543,117618,117768,117843,117918,117993,118143,118218,118293,118368,118443,118518,118668,118743,118818,118893,119043,119118,119193,119268,119343,119493,119568,119643,119718,119793,119943,120018,120093,120168,120318,120393,120468,120543,120693,120768,120843,120918,120993,121143,121218,121293,121368,121518,121593,121668,121743,121818,121968,122043,122118,122268,122343,122418,122493,122643,122718,122793,122868,123018,123093,123168,123243,123393,123468,123543,123618,123693,124893,134493,144093
DistanceSpacing: 1
BeatDivisor: 2
GridSize: 8
TimelineZoom: 1.5

[Metadata]
Title:Devil Town
TitleUnicode:Devil Town
Artist:Cavetown
ArtistUnicode:Cavetown
Creator:The Honeysticks
Version:Aranel's Normal
Source:
Tags:maiden omtereston lugu -Clubber- paka indie rock english aranel clubber - Clubber - legosi sleepylegosi tristan
BeatmapID:3436531
BeatmapSetID:1644536

[Difficulty]
HPDrainRate:4
CircleSize:3.5
OverallDifficulty:6
ApproachRate:7.2
SliderMultiplier:1
SliderTickRate:1

[Events]
//Background and Video events
0,0,"placeholder.jpg",0,0
//Break Periods
2,115493,124023
2,153743,156423
2,163343,166023
//Storyboard Layer 0 (Background)
//Storyboard Layer 1 (Fail)
//Storyboard Layer 2 (Pass)
//Storyboard Layer 3 (Foreground)
//Storyboard Layer 4 (Overlay)
//Storyboard Sound Samples

[TimingPoints]
19293,300,4,2,2,65,1,0
19518,-100,4,2,1,65,0,0
19893,-100,4,2,2,65,0,0
20193,-100,4,2,1,65,0,0
20493,-100,4,2,2,65,0,0
20793,-100,4,2,1,65,0,0
21093,-100,4,2,2,65,0,0
21393,-100,4,2,1,65,0,0
21693,-100,4,2,2,65,0,0
21993,-100,4,2,1,65,0,0
22293,-100,4,2,2,65,0,0
22593,-100,4,2,1,65,0,0
22893,-100,4,2,2,65,0,0
23193,-100,4,2,1,65,0,0
23493,-100,4,2,2,65,0,0
23793,-100,4,2,1,65,0,0
24093,-100,4,2,2,65,0,0
24393,-100,4,2,1,65,0,0
24693,-100,4,2,2,65,0,0
24843,-100,4,2,1,65,0,0
25293,-100,4,2,2,65,0,0
25593,-100,4,2,1,65,0,0
25893,-100,4,2,2,65,0,0
26793,-100,4,2,1,65,0,0
27093,-100,4,2,2,65,0,0
27393,-100,4,2,1,65,0,0
27693,-100,4,2,2,65,0,0
27993,-100,4,2,1,65,0,0
28293,-100,4,2,2,65,0,0
28443,-100,4,2,1,65,0,0
28593,-100,4,2,2,65,0,0
28743,-100,4,2,1,65,0,0
28893,-100,4,2,2,65,0,0
29193,-100,4,2,1,65,0,0
29493,-100,4,2,2,65,0,0
29793,-100,4,2,1,65,0,0
30093,-100,4,2,2,65,0,0
30393,-100,4,2,1,65,0,0
30693,-100,4,2,2,65,0,0
30843,-100,4,2,1,65,0,0
31293,-100,4,2,2,65,0,0
31593,-100,4,2,1,65,0,0
31893,-100,4,2,2,65,0,0
32043,-100,4,2,1,65,0,0
32493,-100,4,2,2,65,0,0
32793,-100,4,2,1,65,0,0
33093,-100,4,2,2,65,0,0
33243,-100,4,2,1,65,0,0
33693,-100,4,2,2,65,0,0
33993,-100,4,2,1,65,0,0
34293,-100,4,2,2,65,0,0
34593,-100,4,2,1,65,0,0
34893,-100,4,2,2,65,0,0
35118,-100,4,2,1,65,0,0
35493,-100,4,2,2,65,0,0
36393,-100,4,2,1,65,0,0
36693,-100,4,2,2,65,0,0
36993,-100,4,2,1,65,0,0
37293,-100,4,2,2,65,0,0
37593,-100,4,2,1,65,0,0
37893,-100,4,2,2,65,0,0
38193,-100,4,2,1,65,0,0
38493,-111.111111111111,4,2,2,65,0,0
38793,-111.111111111111,4,2,1,65,0,0
39093,-111.111111111111,4,2,2,65,0,0
39393,-111.111111111111,4,2,1,65,0,0
39693,-111.111111111111,4,2,2,65,0,0
39993,-111.111111111111,4,2,1,65,0,0
40293,-111.111111111111,4,2,2,65,0,0
40443,-111.111111111111,4,2,1,65,0,0
40893,-111.111111111111,4,2,2,65,0,0
41193,-111.111111111111,4,2,1,65,0,0
41493,-111.111111111111,4,2,2,65,0,0
41793,-111.111111111111,4,2,1,65,0,0
42093,-111.111111111111,4,2,2,65,0,0
42243,-111.111111111111,4,2,1,65,0,0
42693,-111.111111111111,4,2,2,65,0,0
42843,-111.111111111111,4,2,1,65,0,0
43293,-111.111111111111,4,2,2,65,0,0
43593,-111.111111111111,4,2,1,65,0,0
43893,-111.111111111111,4,2,2,65,0,0
44193,-111.111111111111,4,2,1,65,0,0
44493,-111.111111111111,4,2,2,65,0,0
44643,-111.111111111111,4,2,1,65,0,0
45093,-111.111111111111,4,2,2,65,0,0
45393,-111.111111111111,4,2,1,65,0,0
45693,-111.111111111111,4,2,2,65,0,0
45993,-111.111111111111,4,2,1,65,0,0
46293,-111.111111111111,4,2,2,65,0,0
46593,-111.111111111111,4,2,1,65,0,0
46893,-111.111111111111,4,2,2,65,0,0
47193,-111.111111111111,4,2,1,65,0,0
47493,-111.111111111111,4,2,2,65,0,0
47793,-111.111111111111,4,2,1,65,0,0
48093,-111.111111111111,4,2,2,65,0,0
48393,-111.111111111111,4,2,1,65,0,0
48693,-111.111111111111,4,2,2,65,0,0
48993,-111.111111111111,4,2,1,65,0,0
49293,-111.111111111111,4,2,2,65,0,0
49593,-111.111111111111,4,2,1,65,0,0
49893,-111.111111111111,4,2,2,65,0,0
50193,-111.111111111111,4,2,1,65,0,0
50493,-111.111111111111,4,2,2,65,0,0
50793,-111.111111111111,4,2,1,65,0,0
51093,-111.111111111111,4,2,2,65,0,0
51393,-111.111111111111,4,2,1,65,0,0
51693,-111.111111111111,4,2,2,65,0,0
51993,-111.111111111111,4,2,1,65,0,0
52293,-111.111111111111,4,2,2,65,0,0
52593,-111.111111111111,4,2,1,65,0,0
52893,-111.111111111111,4,2,2,65,0,0
53193,-111.111111111111,4,2,1,65,0,0
53493,-111.111111111111,4,2,2,65,0,0
53793,-111.111111111111,4,2,1,65,0,0
54093,-111.111111111111,4,2,2,65,0,0
54393,-111.111111111111,4,2,1,65,0,0
54693,-111.111111111111,4,2,2,65,0,0
54993,-111.111111111111,4,2,1,65,0,0
55293,-111.111111111111,4,2,2,65,0,0
55593,-111.111111111111,4,2,1,65,0,0
55893,-111.111111111111,4,2,2,65,0,0
56193,-111.111111111111,4,2,1,65,0,0
57093,-111.111111111111,4,2,2,65,0,0
57393,-111.111111111111,4,2,1,65,0,0
57693,-100,4,2,2,75,0,1
76893,-125,4,2,2,75,0,0
77193,-125,4,2,1,70,0,0
77493,-125,4,2,2,70,0,0
77793,-125,4,2,1,70,0,0
78093,-125,4,2,2,70,0,0
78243,-125,4,2,1,70,0,0
78393,-125,4,2,2,70,0,0
78543,-125,4,2,1,70,0,0
78693,-125,4,2,2,70,0,0
78843,-125,4,2,1,70,0,0
79293,-125,4,2,2,70,0,0
79593,-125,4,2,1,70,0,0
79893,-125,4,2,2,70,0,0
80193,-125,4,2,1,70,0,0
80493,-125,4,2,2,70,0,0
80793,-125,4,2,1,70,0,0
81093,-125,4,2,2,70,0,0
81393,-125,4,2,1,70,0,0
81693,-125,4,2,2,70,0,0
81993,-125,4,2,1,70,0,0
82293,-125,4,2,2,70,0,0
82593,-125,4,2,1,70,0,0
82893,-125,4,2,2,70,0,0
83193,-125,4,2,1,70,0,0
83493,-125,4,2,2,70,0,0
83793,-125,4,2,1,70,0,0
84093,-125,4,2,2,70,0,0
84393,-125,4,2,1,70,0,0
84693,-125,4,2,2,70,0,0
84993,-125,4,2,1,70,0,0
85293,-125,4,2,2,70,0,0
85593,-125,4,2,1,70,0,0
85893,-125,4,2,2,70,0,0
86193,-125,4,2,1,70,0,0
86493,-125,4,2,2,70,0,0
86793,-125,4,2,1,70,0,0
87093,-125,4,2,2,70,0,0
87393,-125,4,2,1,70,0,0
87693,-125,4,2,2,70,0,0
87993,-125,4,2,1,70,0,0
88293,-125,4,2,2,70,0,0
88593,-125,4,2,1,70,0,0
88893,-125,4,2,2,70,0,0
89193,-125,4,2,1,70,0,0
89493,-125,4,2,2,70,0,0
89793,-125,4,2,1,70,0,0
90093,-125,4,2,2,70,0,0
90393,-125,4,2,1,70,0,0
90693,-125,4,2,2,70,0,0
91593,-125,4,2,1,70,0,0
91893,-125,4,2,2,70,0,0
92193,-125,4,2,1,70,0,0
92493,-125,4,2,2,70,0,0
92793,-125,4,2,1,70,0,0
93093,-125,4,2,2,70,0,0
93393,-125,4,2,1,70,0,0
93693,-125,4,2,2,70,0,0
93993,-125,4,2,1,70,0,0
94293,-125,4,2,2,70,0,0
94593,-125,4,2,1,70,0,0
94893,-125,4,2,2,70,0,0
95193,-125,4,2,1,70,0,0
95493,-125,4,2,2,70,0,0
95793,-125,4,2,1,70,0,0
96093,-111.111111111111,4,2,2,70,0,0
96393,-111.111111111111,4,2,1,70,0,0
96693,-111.111111111111,4,2,2,70,0,0
96993,-111.111111111111,4,2,1,70,0,0
97293,-111.111111111111,4,2,2,70,0,0
97593,-111.111111111111,4,2,1,70,0,0
97893,-111.111111111111,4,2,2,70,0,0
98193,-111.111111111111,4,2,1,70,0,0
98493,-111.111111111111,4,2,2,70,0,0
98793,-111.111111111111,4,2,1,70,0,0
99093,-111.111111111111,4,2,2,70,0,0
99393,-111.111111111111,4,2,1,70,0,0
99693,-111.111111111111,4,2,2,70,0,0
99993,-111.111111111111,4,2,1,70,0,0
100293,-111.111111111111,4,2,2,70,0,0
100593,-111.111111111111,4,2,1,70,0,0
100893,-111.111111111111,4,2,2,70,0,0
101193,-111.111111111111,4,2,1,70,0,0
101493,-111.111111111111,4,2,2,70,0,0
101793,-111.111111111111,4,2,1,70,0,0
102093,-111.111111111111,4,2,2,70,0,0
102393,-111.111111111111,4,2,1,70,0,0
102693,-111.111111111111,4,2,2,70,0,0
102993,-111.111111111111,4,2,1,70,0,0
103293,-111.111111111111,4,2,2,70,0,0
103593,-111.111111111111,4,2,1,70,0,0
103893,-111.111111111111,4,2,2,70,0,0
104193,-111.111111111111,4,2,1,70,0,0
104493,-111.111111111111,4,2,2,70,0,0
104793,-111.111111111111,4,2,1,70,0,0
105093,-111.111111111111,4,2,2,70,0,0
105393,-111.111111111111,4,2,1,70,0,0
105693,-111.111111111111,4,2,2,70,0,0
105993,-111.111111111111,4,2,1,70,0,0
106293,-111.111111111111,4,2,2,70,0,0
106593,-111.111111111111,4,2,1,70,0,0
106893,-111.111111111111,4,2,2,70,0,0
107193,-111.111111111111,4,2,1,70,0,0
107493,-111.111111111111,4,2,2,70,0,0
107793,-111.111111111111,4,2,1,70,0,0
108093,-111.111111111111,4,2,2,70,0,0
108393,-111.111111111111,4,2,1,70,0,0
108693,-111.111111111111,4,2,2,70,0,0
108993,-111.111111111111,4,2,1,70,0,0
109293,-111.111111111111,4,2,2,70,0,0
109593,-111.111111111111,4,2,1,70,0,0
109893,-111.111111111111,4,2,2,70,0,0
110193,-111.111111111111,4,2,1,70,0,0
110493,-111.111111111111,4,2,2,70,0,0
110793,-111.111111111111,4,2,1,70,0,0
111093,-111.111111111111,4,2,2,70,0,0
111393,-111.111111111111,4,2,1,70,0,0
111693,-111.111111111111,4,2,2,70,0,0
111993,-111.111111111111,4,2,1,70,0,0
112293,-111.111111111111,4,2,2,70,0,0
112593,-111.111111111111,4,2,1,70,0,0
112893,-111.111111111111,4,2,2,70,0,0
113193,-111.111111111111,4,2,1,70,0,0
113493,-111.111111111111,4,2,2,70,0,0
113793,-111.111111111111,4,2,1,70,0,0
114093,-111.111111111111,4,2,2,70,0,0
114393,-111.111111111111,4,2,1,70,0,0
114693,-111.111111111111,4,2,2,70,0,0
114993,-111.111111111111,4,2,1,70,0,0
115293,-111.111111111111,4,2,2,60,0,0
123693,-111.111111111111,4,2,2,70,0,0
124893,-100,4,2,2,70,0,1
134493,-111.111111111111,4,2,2,70,0,0
144093,-100,4,2,2,70,0,0
144393,-100,4,2,1,70,0,0
144693,-100,4,2,2,70,0,0
144993,-100,4,2,1,70,0,0
145293,-100,4,2,2,70,0,0
145743,-100,4,2,1,70,0,0
145893,-100,4,2,2,70,0,0
146193,-100,4,2,1,70,0,0
146493,-100,4,2,2,70,0,0
146793,-100,4,2,1,70,0,0
147093,-100,4,2,2,70,0,0
147393,-100,4,2,1,70,0,0
147693,-100,4,2,2,70,0,0
147993,-100,4,2,1,70,0,0
148293,-100,4,2,2,70,0,0
148593,-100,4,2,1,70,0,0
148893,-100,4,2,2,70,0,0
149193,-100,4,2,1,70,0,0
149493,-100,4,2,2,70,0,0
149793,-100,4,2,1,70,0,0
150093,-100,4,2,2,70,0,0
150393,-100,4,2,1,70,0,0
150693,-100,4,2,2,70,0,0
150993,-100,4,2,1,70,0,0
151293,-100,4,2,2,70,0,0
151593,-100,4,2,1,70,0,0
151893,-100,4,2,2,70,0,0
152193,-100,4,2,1,70,0,0
152493,-100,4,2,2,70,0,0
152643,-100,4,2,1,70,0,0
152793,-100,4,2,2,70,0,0
153393,-100,4,2,1,70,0,0
157293,-100,4,2,2,70,0,0
158493,-100,4,2,2,70,0,1
158793,-100,4,2,1,80,0,1
159093,-100,4,2,2,80,0,1
159393,-100,4,2,1,80,0,1
159693,-100,4,2,2,80,0,1
159993,-100,4,2,1,80,0,1
160293,-100,4,2,2,80,0,1
160593,-100,4,2,1,80,0,1
160893,-100,4,2,2,80,0,1
161193,-100,4,2,1,80,0,1
161493,-100,4,2,2,80,0,1
161793,-100,4,2,1,80,0,1
162093,-100,4,2,2,80,0,1
162243,-100,4,2,1,80,0,1
162843,-100,4,2,2,80,0,1
162993,-100,4,2,1,80,0,1
163143,-100,4,2,1,80,0,0
163293,-100,4,2,2,70,0,0
167943,-100,4,2,1,80,0,0
168093,-100,4,2,2,80,0,1
168393,-100,4,2,1,80,0,1
169293,-100,4,2,2,80,0,1
169593,-100,4,2,1,80,0,1
169893,-100,4,2,2,80,0,1
170043,-100,4,2,1,80,0,1
170493,-100,4,2,2,80,0,1
170793,-100,4,2,1,80,0,1
171093,-100,4,2,2,80,0,1
171393,-100,4,2,1,80,0,1
171693,-100,4,2,2,80,0,1
171843,-100,4,2,1,80,0,1
172743,-100,4,2,2,80,0,1
172893,-1000,4,2,2,80,0,0
173193,-1000,4,2,2,80,0,0
173493,-1000,4,2,2,70,0,0
173793,-1000,4,2,2,70,0,0
174093,-1000,4,2,2,60,0,0
174393,-1000,4,2,2,60,0,0
174693,-1000,4,2,2,50,0,0
174993,-1000,4,2,2,50,0,0
175293,-1000,4,2,2,40,0,0
175893,-1000,4,2,2,30,0,0
176493,-1000,4,2,2,20,0,0
177093,-1000,4,2,2,10,0,0
177693,-1000,4,2,2,5,0,0

[Colours]
Combo1 : 255,94,55
Combo2 : 173,255,95
Combo3 : 17,254,176
Combo4 : 255,88,100

[HitObjects]
105,374,19293,6,0,P|95:319|89:256,1,100,6|10,1:2|1:2,0:0:0:0:
102,234,19743,1,10,1:3:0:0:
102,234,19893,1,2,1:2:0:0:
44,164,20193,1,10,1:2:0:0:
98,92,20493,2,0,B|145:75|140:110|196:95,1,100,2|8,1:3|1:2,0:0:0:0:
249,22,21093,2,0,P|279:65|281:117,1,100,2|10,1:3|1:2,0:0:0:0:
272,157,21543,1,10,1:2:0:0:
272,157,21693,6,0,P|325:172|382:193,1,100,2|10,1:3|1:2,0:0:0:0:
413,205,22143,1,10,1:2:0:0:
413,205,22293,1,2,1:3:0:0:
460,281,22593,1,8,1:2:0:0:
396,345,22893,2,0,B|348:334|360:298|311:290,1,100,2|8,1:3|1:3,0:0:0:0:
240,241,23493,2,0,B|187:250|207:285|149:298,1,100,2|10,1:3|1:2,0:0:0:0:
118,308,23943,1,10,1:2:0:0:
118,308,24093,6,0,P|111:253|101:204,1,100,2|10,1:3|1:2,0:0:0:0:
31,153,24693,2,0,P|83:120|131:123,1,100,2|10,1:3|1:2,0:0:0:0:
162,100,25143,1,10,1:2:0:0:
162,100,25293,2,0,P|217:107|256:158,1,100,2|10,1:3|1:2,0:0:0:0:
294,213,25893,2,0,P|349:206|405:196,1,100,10|8,1:2|0:0,0:0:0:0:
435,181,26343,1,8,0:0:0:0:
435,181,26493,6,0,B|454:129|454:129|430:77,1,100,4|10,1:2|1:2,0:0:0:0:
373,23,27093,2,0,B|309:13|320:48|262:40,1,100,2|10,1:3|1:2,0:0:0:0:
237,32,27543,1,10,1:2:0:0:
237,32,27693,2,0,P|203:75|211:139,1,100,2|10,1:3|1:2,0:0:0:0:
244,197,28293,1,10,1:3:0:0:
179,259,28593,1,10,1:3:0:0:
160,300,28743,1,8,1:2:0:0:
167,344,28893,6,0,P|222:334|285:328,1,100,4|8,1:2|1:2,0:0:0:0:
312,347,29343,1,10,1:2:0:0:
312,347,29493,1,2,1:3:0:0:
397,375,29793,1,10,1:2:0:0:
467,319,30093,2,0,P|472:266|436:215,1,100,2|10,1:3|1:2,0:0:0:0:
382,167,30693,2,0,B|336:169|336:169|330:165|330:165|278:170,1,100,2|10,1:3|1:3,0:0:0:0:
245,189,31143,1,10,1:2:0:0:
245,189,31293,6,0,B|196:186|196:186|189:190|189:190|133:185,1,100,2|10,1:3|1:2,0:0:0:0:
106,180,31743,1,10,1:2:0:0:
106,180,31893,1,2,1:3:0:0:
44,113,32193,1,10,1:2:0:0:
98,41,32493,2,0,B|142:38|142:38|148:42|148:42|199:37,1,100,2|10,1:3|1:2,0:0:0:0:
284,16,33093,2,0,B|317:60|317:60|308:104,1,100,2|8,1:3|1:2,0:0:0:0:
292,148,33543,1,10,1:2:0:0:
292,148,33693,6,0,L|310:261,1,100,2|10,1:3|1:2,0:0:0:0:
380,300,34293,2,0,L|398:187,1,100,2|10,1:3|1:2,0:0:0:0:
434,175,34743,1,10,1:2:0:0:
434,175,34893,2,0,P|436:114|404:77,1,100,2|10,1:3|0:2,0:0:0:0:
340,32,35493,2,0,L|229:49,1,100,10|8,1:3|0:0,0:0:0:0:
200,56,35943,1,8,0:0:0:0:
200,56,36093,6,0,L|180:170,1,100,6|10,1:3|1:2,0:0:0:0:
116,216,36693,2,0,L|136:329,1,100,2|10,1:3|1:2,0:0:0:0:
157,358,37143,1,10,1:2:0:0:
157,358,37293,2,0,P|207:381|267:358,1,100,2|10,1:3|1:2,0:0:0:0:
322,319,37893,1,2,1:3:0:0:
267,247,38193,1,10,1:2:0:0:
250,205,38343,1,10,1:2:0:0:
256,160,38493,6,0,B|361:154|332:219|434:221,1,179.999994506836,4|2,1:3|1:2,0:0:0:0:
490,163,39393,1,8,1:2:0:0:
471,75,39693,2,0,P|400:24|312:3,1,179.999994506836,2|2,1:2|1:2,0:0:0:0:
221,14,40593,2,0,L|216:73,1,44.999998626709,8|10,1:2|1:3,0:0:0:0:
184,90,40893,6,0,L|197:192,1,89.9999972534181,2|8,1:2|1:2,0:0:0:0:
268,231,41493,2,0,P|240:336|170:370,1,179.999994506836,2|2,1:2|1:2,0:0:0:0:
100,330,42393,2,0,L|87:229,1,89.9999972534181,8|2,1:2|1:3,0:0:0:0:
32,168,42993,2,0,L|39:113,1,44.999998626709,10|8,1:3|1:2,0:0:0:0:
44,78,43293,6,0,B|107:63|107:63|138:24|138:24|207:15,1,179.999994506836,2|2,1:2|1:3,0:0:0:0:
286,61,44193,1,10,1:2:0:0:
286,61,44493,2,0,B|350:69|350:69|381:108|381:108|444:123,1,179.999994506836,2|2,1:2|1:3,0:0:0:0:
494,198,45393,2,0,P|503:233|503:250,1,44.999998626709,8|10,1:2|1:2,0:0:0:0:
488,284,45693,6,0,L|384:300,1,89.9999972534181,2|8,1:2|1:2,0:0:0:0:
330,356,46293,2,0,L|226:340,1,89.9999972534181,2|8,1:2|1:2,0:0:0:0:
167,289,46893,2,0,B|161:236|161:236|143:206|143:206|154:177|154:177|148:116,1,179.999994506836,2|0,1:2|1:0,0:0:0:0:
105,37,47793,1,8,1:2:0:0:
61,25,47943,1,8,1:2:0:0:
22,48,48093,6,0,B|28:101|28:101|46:131|46:131|35:160|35:160|41:221,1,179.999994506836,6|2,1:2|1:2,0:0:0:0:
57,309,48993,1,8,1:2:0:0:
126,366,49293,2,0,B|231:379|185:311|301:319,1,179.999994506836,2|2,1:2|1:2,0:0:0:0:
365,371,50193,2,0,L|417:363,1,44.999998626709,8|8,1:2|1:2,0:0:0:0:
453,354,50493,6,0,P|460:303|440:252,1,89.9999972534181,2|8,1:2|1:2,0:0:0:0:
461,177,51093,2,0,P|416:182|378:206,1,89.9999972534181,2|8,1:2|1:2,0:0:0:0:
298,247,51693,2,0,B|322:366|322:366|261:382,1,179.999994506836,2|2,1:2|1:2,0:0:0:0:
188,333,52593,2,0,L|124:326,1,44.999998626709,10|8,1:2|1:2,0:0:0:0:
99,316,52893,6,0,B|98:243|171:230|162:153,1,179.999994506836,2|0,1:2|1:0,0:0:0:0:
92,103,53793,1,10,1:2:0:0:
92,103,54093,2,0,P|153:69|203:93,1,89.9999972534181,2|10,1:2|1:2,0:0:0:0:
244,21,54693,2,0,P|288:23|322:51,1,89.9999972534181,2|8,1:2|1:2,0:0:0:0:
334,94,55143,1,8,1:2:0:0:
329,138,55293,6,0,B|362:90|426:122|432:173|387:229|387:229|428:207|481:207,1,269.999991760254,2|8,1:2|1:2,0:0:0:0:
504,287,56493,2,0,B|516:332|516:332|483:361,1,89.9999972534181,8|8,1:2|1:2,0:0:0:0:
447,384,56943,1,8,0:0:0:0:
447,384,57093,1,0,1:0:0:0:
368,339,57393,2,0,P|342:331|312:330,1,44.999998626709,8|8,1:2|1:2,0:0:0:0:
283,309,57693,6,0,L|178:332,1,100,4|8,1:2|0:2,0:0:0:0:
139,342,58143,1,2,0:2:0:0:
139,342,58293,2,0,P|90:338|53:305,1,100,2|10,1:3|0:2,0:0:0:0:
29,261,58743,2,0,L|21:134,1,100,2|2,0:2|0:3,0:0:0:0:
19,111,59193,1,10,0:2:0:0:
62,20,59493,1,2,1:2:0:0:
161,6,59793,2,0,L|208:46,1,50,10|8,0:2|0:2,0:0:0:0:
223,83,60093,6,0,B|213:133|213:133|207:136|207:136|196:186,2,100,4|10|2,1:3|0:2|1:2,0:0:0:0:
267,60,60843,2,0,L|337:49,1,50,2|8,0:2|0:2,0:0:0:0:
361,74,61143,2,0,B|370:115|370:115|376:118|376:118|386:168,1,100,2|2,0:2|0:2,0:0:0:0:
404,215,61593,1,10,0:2:0:0:
485,272,61893,1,2,1:2:0:0:
475,371,62193,2,0,L|420:366,1,50,10|8,0:2|0:2,0:0:0:0:
380,342,62493,6,0,B|314:348|337:369|285:375,2,100,4|10|2,1:3|0:2|1:2,0:0:0:0:
460,283,63393,1,8,0:0:0:0:
381,221,63693,2,0,B|315:215|338:194|286:188,1,100,2|10,1:2|0:2,0:0:0:0:
249,165,64143,1,0,0:0:0:0:
249,165,64293,1,0,1:0:0:0:
162,113,64593,2,0,P|138:113|113:116,1,50,10|8,0:2|0:2,0:0:0:0:
63,123,64893,6,0,P|42:80|42:13,2,100,4|10|2,1:3|0:2|1:2,0:0:0:0:
97,158,65643,2,0,L|81:262,1,100,2|2,0:2|0:2,0:0:0:0:
106,300,66093,2,0,L|160:309,1,50,10|10,0:2|0:2,0:0:0:0:
204,318,66393,1,2,1:2:0:0:
276,248,66693,2,0,P|266:199|265:149,1,100,0|8,1:0|0:2,0:0:0:0:
298,111,67143,1,8,0:2:0:0:
298,111,67293,6,0,L|410:95,1,100,4|8,1:3|0:2,0:0:0:0:
447,119,67743,1,0,0:0:0:0:
447,119,67893,2,0,P|456:167|457:217,1,100,0|8,1:0|0:2,0:0:0:0:
495,310,68493,1,2,1:2:0:0:
426,382,68793,1,8,0:2:0:0:
426,382,68943,2,0,B|379:372|392:342|331:329,1,100,2|2,1:2|1:2,1:0:0:0:
303,298,69393,2,0,P|277:304|248:307,1,50,10|8,0:2|0:2,0:0:0:0:
204,302,69693,5,4,1:3:0:0:
115,349,69993,2,0,P|116:313|112:286,1,50,10|2,0:2|0:2,0:0:0:0:
91,254,70293,2,0,P|97:189|104:155,2,100,2|10|2,1:2|0:2|1:2,0:0:0:0:
115,349,71193,2,0,L|184:361,1,50,10|2,0:2|0:2,0:0:0:0:
212,369,71493,1,2,1:2:0:0:
293,310,71793,2,0,L|302:249,1,50,8|8,0:2|0:2,0:0:0:0:
342,232,72093,6,0,B|387:228|387:228|398:235|398:235|445:235,2,100,4|10|0,1:3|0:2|1:0,0:0:0:0:
268,164,72993,1,8,0:2:0:0:
207,84,73293,2,0,B|162:80|162:80|151:87|151:87|104:87,1,100,2|10,1:2|0:2,0:0:0:0:
58,84,73743,2,0,P|37:139|46:184,1,100,2|2,0:2|1:2,0:0:0:0:
60,225,74193,2,0,P|84:225|109:228,1,50,8|8,0:2|0:2,0:0:0:0:
156,247,74493,6,0,P|161:296|142:341,2,100,4|10|2,1:3|0:2|1:2,0:0:0:0:
235,186,75393,2,0,L|291:175,1,50,10|2,0:2|0:2,0:0:0:0:
326,150,75693,2,0,L|373:181,1,50,10|10,1:2|0:2,0:0:0:0:
417,180,75993,2,0,L|428:236,1,50,10|10,0:2|0:2,0:0:0:0:
459,266,76293,2,0,L|447:366,2,100,2|10|2,1:2|1:2|1:2,0:0:0:0:
459,266,78093,6,0,B|414:249|421:280|376:266,2,80,2|2|2,1:2|1:2|1:2,0:0:0:0:
504,200,78993,2,0,L|496:160,1,40,8|8,1:2|1:2,0:0:0:0:
488,120,79293,2,0,B|406:91|406:155|332:118,1,160,2|2,1:2|1:2,0:0:0:0:
256,88,80193,1,8,1:2:0:0:
179,118,80493,2,0,B|106:155|106:91|24:120,1,160,2|0,1:2|1:0,0:0:0:0:
8,200,81393,2,0,L|32:240,1,40,8|8,1:2|1:2,0:0:0:0:
53,266,81693,6,0,B|120:336|194:328,1,160,2|0,1:2|1:0,0:0:0:0:
256,272,82593,1,10,1:2:0:0:
317,328,82893,2,0,B|354:332|400:296,2,80,2|10|2,1:2|1:2|1:2,0:0:0:0:
256,272,83793,1,8,1:2:0:0:
188,224,84093,2,0,P|256:188|324:224,3,160,2|2|2|0,1:2|1:2|1:2|1:0,0:0:0:0:
256,272,86193,1,8,1:2:0:0:
256,312,86343,1,8,1:2:0:0:
256,352,86493,6,0,B|160:376|192:320|96:336,1,160,4|2,1:3|1:2,0:0:0:0:
56,269,87393,1,8,1:2:0:0:
101,203,87693,2,0,B|192:219|160:163|256:187,1,160,2|2,1:2|1:2,0:0:0:0:
335,203,88593,2,0,L|383:211,1,40,8|8,1:2|1:2,0:0:0:0:
412,223,88893,6,0,B|390:305|390:305|318:339,1,160,2|2,1:2|1:2,0:0:0:0:
256,384,89793,1,8,1:2:0:0:
189,337,90093,2,0,B|122:305|122:305|100:223,1,160,2|0,1:2|1:0,0:0:0:0:
48,160,90993,2,0,L|40:112,1,40,8|8,1:2|1:2,0:0:0:0:
32,80,91293,6,0,B|88:72|88:72|136:88|136:88|192:80,1,160,2|0,1:2|1:0,0:0:0:0:
256,128,92193,1,10,1:2:0:0:
323,80,92493,2,0,B|349:84|349:84|373:76|373:76|401:80,2,80,2|10|2,1:2|1:2|1:2,0:0:0:0:
256,128,93393,1,10,1:2:0:0:
188,172,93693,2,0,P|256:208|324:172,3,160,2|2|2|0,1:2|1:2|1:2|1:0,0:0:0:0:
256,128,95793,1,8,1:2:0:0:
256,88,95943,1,8,1:2:0:0:
256,48,96093,6,0,B|328:40|328:40|352:56|352:56|432:48,1,179.999994506836,4|2,1:3|1:2,0:0:0:0:
499,105,96993,1,8,1:2:0:0:
437,170,97293,2,0,L|420:354,1,179.999994506836,2|2,1:2|1:2,0:0:0:0:
336,381,98193,2,0,L|277:376,1,44.999998626709,8|8,1:2|1:2,0:0:0:0:
247,364,98493,6,0,L|234:262,1,89.9999972534181,2|8,1:2|1:2,0:0:0:0:
151,242,99093,2,0,P|214:183|296:208,1,179.999994506836,2|2,1:2|1:2,0:0:0:0:
367,263,99993,2,0,L|466:243,1,89.9999972534181,8|0,1:2|1:0,0:0:0:0:
502,168,100593,2,0,L|495:113,1,44.999998626709,10|10,1:2|1:2,0:0:0:0:
492,78,100893,6,0,B|389:31|416:117|307:76,1,179.999994506836,2|0,1:2|1:0,0:0:0:0:
248,34,101793,1,10,1:2:0:0:
248,34,102093,2,0,B|154:57,1,89.9999972534181,2|10,1:2|1:2,0:0:0:0:
101,122,102693,2,0,P|108:177|137:214,1,89.9999972534181,2|10,1:2|1:2,0:0:0:0:
173,221,103143,1,8,1:2:0:0:
173,221,103293,6,0,L|277:237,1,89.9999972534181,2|8,1:2|1:2,0:0:0:0:
299,316,103893,2,0,L|195:332,1,89.9999972534181,2|8,1:2|1:2,0:0:0:0:
121,341,104493,2,0,B|125:309|113:277|113:277|96:259|87:228|87:228|88:191|108:159,1,179.999994506836,2|0,1:2|1:0,0:0:0:0:
142,90,105393,1,8,1:2:0:0:
182,69,105543,1,8,1:2:0:0:
226,68,105693,6,0,B|276:70|304:105|304:105|312:161|364:174,1,179.999994506836,4|2,1:3|1:2,0:0:0:0:
447,177,106593,1,8,1:2:0:0:
397,251,106893,2,0,B|376:288|376:288|232:305,1,179.999994506836,2|2,1:2|1:2,0:0:0:0:
163,352,107793,2,0,L|111:344,1,44.999998626709,8|8,1:2|1:2,0:0:0:0:
75,330,108093,6,0,P|68:279|88:228,1,89.9999972534181,2|8,1:2|1:2,0:0:0:0:
56,155,108693,2,0,P|87:113|137:92,1,89.9999972534181,2|8,1:2|1:2,0:0:0:0:
199,53,109293,2,0,B|230:57|251:87|236:130|226:105|210:159|220:182|252:200,1,179.999994506836,2|0,1:2|1:0,0:0:0:0:
321,260,110193,2,0,L|385:253,1,44.999998626709,10|8,1:2|1:2,0:0:0:0:
410,248,110493,6,0,B|463:175|463:175|428:92,1,179.999994506836,2|0,1:2|1:0,0:0:0:0:
375,25,111393,1,10,1:2:0:0:
375,25,111693,2,0,P|305:35|281:85,1,89.9999972534181,2|10,1:2|1:2,0:0:0:0:
211,11,112293,2,0,P|177:39|168:82,1,89.9999972534181,2|10,1:2|1:2,0:0:0:0:
170,127,112743,1,10,1:2:0:0:
176,172,112893,6,0,B|100:152|62:234|124:303|169:270|202:285|227:335|200:371|168:413|109:372,1,359.999989013672,2|2,1:2|1:2,0:0:0:0:
50,308,114393,2,0,P|29:267|21:219,1,89.9999972534181,8|0,1:2|1:0,0:0:0:0:
48,138,114993,2,0,P|63:119|82:103,1,44.999998626709,8|8,1:2|1:2,0:0:0:0:
116,79,115293,1,4,1:3:0:0:
116,79,124893,6,0,L|216:100,1,100,4|10,1:3|0:2,0:0:0:0:
252,139,125343,1,2,0:2:0:0:
252,139,125493,2,0,L|262:245,1,100,2|10,1:2|0:2,0:0:0:0:
281,336,126093,1,2,1:2:0:0:
374,384,126393,1,10,0:2:0:0:
374,384,126543,2,0,B|421:374|408:344|469:331,1,100,2|0,0:2|0:0,0:0:0:0:
484,290,126993,2,0,P|478:264|475:235,1,50,10|8,0:2|0:2,0:0:0:0:
481,191,127293,5,4,1:3:0:0:
415,115,127593,2,0,L|344:105,1,50,10|2,0:2|0:2,0:0:0:0:
315,105,127893,2,0,P|309:40|302:6,2,100,2|10|2,1:2|0:2|1:2,0:0:0:0:
266,193,128793,2,0,L|197:205,1,50,10|2,0:2|0:2,0:0:0:0:
168,214,129093,1,2,1:2:0:0:
82,162,129393,2,0,L|91:101,1,50,8|8,0:2|0:2,0:0:0:0:
97,62,129693,6,0,B|53:42|29:79|-6:65,2,100,4|10|0,1:3|0:2|1:0,0:0:0:0:
184,14,130593,1,8,0:2:0:0:
261,77,130893,2,0,B|265:122|265:122|258:133|258:133|262:180,1,100,2|10,1:2|0:2,0:0:0:0:
270,224,131343,2,0,P|325:245|370:236,1,100,2|0,0:2|0:0,0:0:0:0:
398,201,131793,2,0,P|398:177|401:152,1,50,10|8,0:2|0:2,0:0:0:0:
415,102,132093,6,0,P|470:81|515:90,2,100,6|10|0,1:3|0:2|1:0,0:0:0:0:
398,201,132993,2,0,P|398:225|395:250,1,50,8|8,0:2|0:2,0:0:0:0:
360,287,133293,2,0,P|336:287|311:284,1,50,10|8,0:2|0:2,0:0:0:0:
270,253,133593,2,0,P|246:253|221:256,1,50,10|8,0:0|0:0,0:0:0:0:
178,284,133893,2,0,L|166:384,1,100,2|8,1:2|1:2,0:0:0:0:
72,348,134493,6,0,L|56:197,1,134.999995880127,6|2,1:3|0:3,0:0:0:0:
53,168,135093,1,8,0:2:0:0:
203,68,135693,2,0,P|170:64|138:48,2,59.9999981689454,2|2|2,0:3|0:3|0:3,0:0:0:0:
258,44,136293,1,8,0:2:0:0:
347,57,136593,1,8,0:2:0:0:
409,121,136893,6,0,B|404:180|404:180|399:187|399:187|394:257,1,134.999995880127,4|2,1:3|0:3,0:0:0:0:
387,298,137493,1,8,0:2:0:0:
214,246,138093,2,0,L|221:319,2,59.9999981689454,2|2|2,1:3|0:3|0:3,0:0:0:0:
178,197,138693,2,0,P|138:178|85:181,1,89.9999972534181,12|0,0:3|1:0,0:0:0:0:
53,193,139143,1,0,1:0:0:0:
53,193,139293,6,0,L|75:345,1,134.999995880127,4|2,1:3|0:3,0:0:0:0:
81,370,139893,1,8,0:2:0:0:
237,281,140493,2,0,L|247:215,2,59.9999981689454,2|2|2,1:3|0:3|0:3,0:0:0:0:
273,329,141093,1,8,0:2:0:0:
360,351,141393,1,4,1:3:0:0:
439,308,141693,6,0,P|443:257|407:169,1,134.999995880127,4|0,1:3|0:0,0:0:0:0:
385,144,142293,1,8,0:2:0:0:
222,66,142893,2,0,L|230:-2,2,67.4999979400635,0|0|0,1:0|1:0|0:0,0:0:0:0:
215,109,143493,1,0,0:0:0:0:
64,241,144093,6,0,B|110:263|110:263|173:248,1,100,6|10,1:2|0:2,0:0:0:0:
207,235,144543,1,2,0:0:0:0:
207,235,144693,2,0,B|253:213|253:213|302:229,1,100,2|10,1:2|0:2,0:0:0:0:
395,255,145293,2,0,B|417:154,1,100,2|10,1:2|2:0,0:0:0:0:
435,113,145743,1,10,0:2:0:0:
435,113,145893,1,2,1:2:0:0:
380,29,146193,2,0,L|330:17,1,50,10|10,0:2|0:2,0:0:0:0:
282,3,146493,6,0,B|260:100,1,100,4|10,1:3|1:2,0:0:0:0:
224,135,146943,1,2,0:0:0:0:
224,135,147093,2,0,B|245:232,1,100,2|10,1:2|0:2,0:0:0:0:
266,330,147693,2,0,B|356:342|391:266|317:231|387:128|478:178,1,300,2|10,1:2|0:2,0:0:0:0:
512,201,148743,1,10,0:2:0:0:
512,201,148893,6,0,L|501:321,1,100,6|10,1:2|1:2,0:0:0:0:
425,363,149493,2,0,L|326:353,1,100,0|8,1:0|1:2,0:0:0:0:
276,341,149943,2,0,P|250:298|249:241,1,100
235,200,150393,2,0,P|257:161|309:138,1,100,8|0,1:2|1:0,0:0:0:0:
405,151,150993,2,0,L|397:85,1,50,8|8,1:2|1:2,0:0:0:0:
391,51,151293,6,0,P|332:44|273:36,1,100,6|10,1:2|0:2,0:0:0:0:
198,3,151893,2,0,B|129:14|129:14|115:7|115:7|51:16,1,150,2|0,1:2|0:0,0:0:0:0:
15,52,152493,2,0,L|26:104,1,50,8|8,0:2|0:2,0:0:0:0:
66,132,152793,2,0,L|77:184,1,50,0|0,1:0|1:0,0:0:0:0:
55,227,153093,2,0,L|77:328,1,100,0|8,1:0|1:2,0:0:0:0:
116,355,153543,1,8,1:2:0:0:
116,355,157293,5,8,1:2:0:0:
116,355,158343,1,8,1:2:0:0:
116,355,158493,6,0,B|181:345|163:371|215:365,2,100,4|10|2,1:3|1:2|1:2,0:0:0:0:
47,281,159393,1,8,1:2:0:0:
125,219,159693,2,0,B|191:213|168:192|220:186,1,100,2|10,1:2|1:2,0:0:0:0:
271,180,160143,1,0,0:0:0:0:
271,180,160293,1,2,1:2:0:0:
349,242,160593,2,0,P|375:238|400:233,1,50,10|8,1:2|1:2,0:0:0:0:
445,248,160893,6,0,L|466:358,2,100,4|10|2,1:3|1:2|1:2,0:0:0:0:
480,212,161643,2,0,P|495:168|485:115,1,100,2|0,0:0|0:0,0:0:0:0:
461,72,162093,2,0,L|407:81,1,50,2|2,1:2|1:2,0:0:0:0:
362,91,162393,1,10,1:2:0:0:
287,158,162693,2,0,L|187:141,1,100,2|8,1:2|1:2,0:0:0:0:
139,129,163143,1,8,1:2:0:0:
139,129,166893,5,8,1:2:0:0:
139,129,167943,1,8,1:2:0:0:
139,129,168093,6,0,B|92:127|92:127|95:132|95:132|47:129,2,100,4|8|0,1:3|1:2|1:0,0:0:0:0:
219,69,168993,1,10,1:3:0:0:
304,120,169293,2,0,P|322:167|314:222,1,100,2|10,1:2|1:2,0:0:0:0:
327,264,169743,2,0,P|278:296|232:298,1,100,2|2,1:2|1:2,0:0:0:0:
188,300,170193,2,0,P|188:276|185:251,1,50,8|8,1:2|1:2,0:0:0:0:
144,218,170493,6,0,P|95:210|47:198,2,100,4|10|2,1:3|1:2|1:2,0:0:0:0:
181,125,171393,2,0,P|214:115|242:111,1,50,10|2,1:2|1:2,0:0:0:0:
267,78,171693,2,0,P|300:88|328:92,1,50,2|10,1:2|1:2,0:0:0:0:
347,130,171993,2,0,P|380:120|408:116,1,50,2|10,1:2|1:2,0:0:0:0:
442,100,172293,2,0,L|458:199,1,100,2|10,1:2|1:2,0:0:0:0:
421,291,172893,6,0,B|401:314|406:352|406:352|384:340|366:302|385:267,1,160,4|0,1:3|0:0,0:0:0:0:
