osu file format v14

[General]
AudioFilename: audio.mp3
AudioLeadIn: 0
PreviewTime: -1
Countdown: 0
SampleSet: None
StackLeniency: 0.7
Mode: 0
LetterboxInBreaks: 0
WidescreenStoryboard: 1

[Editor]
DistanceSpacing: 1
BeatDivisor: 4
GridSize: 4
TimelineZoom: 1

[Metadata]
Title:Rap Dos MEMES [-Nightcore-]
TitleUnicode:Rap Dos MEMES [-Nightcore-]
Artist:Caue Moura
ArtistUnicode:CauĂȘ Moura
Creator:Ycro
Version:Extra
Source:
Tags:
BeatmapID:1993576
BeatmapSetID:954983

[Difficulty]
HPDrainRate:5
CircleSize:4
OverallDifficulty:7.5
ApproachRate:9.7
SliderMultiplier:1.6
SliderTickRate:1

[Events]
//Background and Video events
//Break Periods
//Storyboard Layer 0 (Background)
//Storyboard Layer 1 (Fail)
//Storyboard Layer 2 (Pass)
//Storyboard Layer 3 (Foreground)
//Storyboard Sound Samples

[TimingPoints]
301,566.037735849057,4,2,0,100,1,0
301,-100,4,2,0,100,0,0
9245,545.454545454546,4,2,0,100,1,0
64426,-100,4,2,0,100,0,1
82699,-100,4,2,0,100,0,0
120608,-100,4,2,0,100,0,1
139063,-100,4,2,0,100,0,0

[HitObjects]
86,70,301,5,0,0:0:0:0:
46,66,442,1,0,0:0:0:0:
391,113,1150,2,2,L|456:112,2,40
199,44,1716,5,0,0:0:0:0:
199,44,1857,1,0,0:0:0:0:
199,44,1999,1,0,0:0:0:0:
208,56,2140,1,0,0:0:0:0:
212,76,2282,1,0,0:0:0:0:
204,100,2423,1,0,0:0:0:0:
433,50,2565,6,0,L|481:28,1,40
62,63,3980,1,0,0:0:0:0:
62,63,4121,1,0,0:0:0:0:
62,63,4263,1,0,0:0:0:0:
62,63,4404,1,0,0:0:0:0:
86,86,4546,1,0,0:0:0:0:
86,86,4687,1,0,0:0:0:0:
86,86,4829,1,0,0:0:0:0:
441,299,5678,5,0,0:0:0:0:
270,277,5819,1,0,0:0:0:0:
482,215,5961,1,0,0:0:0:0:
277,134,6385,2,0,P|230:155|222:168,4,40,2|2|0|0|0,0:0|0:0|0:0|0:0|0:0,0:0:0:0:
81,49,7234,5,0,0:0:0:0:
52,69,7376,1,0,0:0:0:0:
42,104,7517,1,0,0:0:0:0:
53,135,7659,1,0,0:0:0:0:
79,153,7801,1,0,0:0:0:0:
114,161,7942,1,0,0:0:0:0:
149,151,8084,1,0,0:0:0:0:
183,135,8225,5,0,0:0:0:0:
228,133,8367,1,0,0:0:0:0:
248,162,8508,1,0,0:0:0:0:
266,194,8650,1,0,0:0:0:0:
273,226,8791,1,0,0:0:0:0:
267,266,8933,1,0,0:0:0:0:
184,67,9245,6,8,L|118:67,3,40
251,80,9790,6,2,L|303:119,3,40
330,194,10472,2,4,L|308:231,3,40
220,245,11017,2,0,L|262:334,2,80
278,267,11699,2,10,L|302:314,3,40
197,257,12245,6,12,L|176:298,3,40
247,162,12790,2,2,L|279:106,1,40
173,148,13063,2,2,L|152:187,1,40
286,226,13335,2,8,L|336:250,3,40
372,172,14017,6,0,L|342:133,2,40
218,75,14426,2,0,L|260:122,2,40
303,269,14835,2,0,L|259:221,2,40
94,282,15381,2,0,L|121:251,4,40
188,38,16199,6,8,L|188:104,4,40
414,174,16881,2,6,L|414:219,5,40
384,246,17699,2,0,L|384:198,4,40
161,80,18517,6,0,L|161:131,4,40
221,170,19199,2,0,L|220:229,3,40
289,302,19745,2,0,L|288:238,3,40
269,75,20426,6,0,L|338:73,2,40
154,75,20972,2,0,L|97:75,5,40
199,149,21790,2,0,L|257:151,6,40
78,65,22881,1,4,0:0:0:0:
163,75,23154,6,0,L|233:76,2,40
120,152,23563,2,0,L|120:207,3,40
262,64,24108,2,0,L|261:114,2,40
379,253,24654,2,0,L|381:177,3,40
170,263,25472,6,0,L|215:263,3,40
309,262,26017,2,0,L|395:261,3,80
489,96,26972,2,8,L|487:149,2,40
412,332,27517,6,0,L|231:331,2,160
192,240,28881,2,2,L|235:242,2,40
268,113,29426,2,4,L|320:112,2,40
462,317,29972,2,0,L|462:260,3,40
466,188,30517,6,0,L|466:133,3,40
428,63,31063,6,0,B|381:69|365:88|340:95|302:58|280:107|272:271,1,280
391,184,32426,6,0,L|391:377,3,160
297,350,34608,2,0,L|250:351,3,40
322,246,35426,2,0,L|321:78,2,160
135,73,36790,2,0,L|112:131,4,40
293,62,37608,6,0,L|349:39,3,40
241,246,38290,6,0,L|241:187,4,40
432,55,39108,2,0,P|479:30|490:40,3,40
66,59,39654,2,0,P|29:24|23:27,3,40
160,193,40608,6,0,L|159:261,4,40
248,235,41426,6,0,B|249:172|289:170|354:176|398:181,2,160
113,196,42790,2,0,P|77:209|73:223,3,40
230,313,43608,2,0,L|400:314,4,160
232,237,46063,2,0,L|293:237,7,40
411,238,48245,6,0,B|411:166|411:166|163:166,1,320
423,102,49472,2,0,P|467:131|467:137,3,40
412,39,50017,2,0,P|454:37|468:51,2,40
169,270,50699,2,0,L|278:270,7,80
337,166,52881,2,0,L|274:167,3,40
244,88,53426,2,0,L|298:88,4,40
422,57,54381,5,0,0:0:0:0:
422,57,54517,1,0,0:0:0:0:
422,57,54654,1,0,0:0:0:0:
422,57,54790,1,0,0:0:0:0:
153,232,55063,6,0,L|237:232,2,80
361,175,55745,2,0,P|401:195|401:211,3,40
491,42,56290,2,0,P|449:34|445:46,3,40
479,257,56835,2,0,L|431:266,2,40
154,157,57517,6,0,L|341:157,4,160
131,64,59835,2,0,L|70:64,5,40
109,117,61063,2,0,L|165:117,5,40
303,38,61881,2,0,L|246:38,4,40
30,68,62835,5,0,0:0:0:0:
43,46,62972,1,0,0:0:0:0:
64,42,63108,1,0,0:0:0:0:
255,40,63245,1,0,0:0:0:0:
255,40,63381,1,0,0:0:0:0:
255,40,63517,1,0,0:0:0:0:
98,317,63790,2,0,L|196:316,1,80
257,311,64517,6,0,L|258:174,1,106.666666666667
161,26,65017,2,0,P|130:40|123:53,3,40
77,293,65563,2,0,P|109:313|117:305,3,40
356,62,66108,2,0,P|284:80|276:127,1,120
478,182,66790,6,0,L|478:263,2,53.3333333333333
275,233,67335,2,0,L|106:233,2,160
368,238,68972,6,0,P|368:288|368:288,2,40
277,317,69517,2,0,B|185:315|185:315|185:220|185:220|185:220,2,160
460,319,71426,2,0,B|484:239|484:239|435:177,3,160
465,339,73608,2,0,L|367:339,1,53.3333333333333,8|4,0:0|0:0,0:0:0:0:
250,93,74154,6,0,P|250:158|250:158,7,40,2|2|2|2|2|2|0|0,0:0|0:0|0:0|0:0|0:0|0:0|0:0|0:0,0:0:0:0:
364,84,75245,2,0,P|427:97|462:160,1,120
265,38,75926,2,0,L|318:20,3,40
129,93,76608,2,0,P|79:172|187:276,1,240
255,271,78245,2,0,P|298:233|295:207,1,53.3333333333333
275,124,78654,2,0,P|211:68|141:103,2,160
282,253,80563,6,0,L|282:371,7,80
75,52,82745,2,0,P|48:60|33:59,3,40
95,113,83290,2,0,P|61:126|46:123,3,40
124,177,83835,2,0,P|88:203|66:203,2,40
376,200,84335,6,0,P|470:201|470:201,2,80
261,140,85063,2,0,L|316:139,5,40
434,216,86017,2,0,L|394:217,5,40
110,53,86835,2,0,P|151:67|149:78,2,40
314,220,87245,6,0,L|235:76,4,160
225,30,89563,2,0,L|293:44,2,40
468,61,90108,2,0,P|465:89|445:111,3,40
427,309,90654,2,0,P|448:276|447:259,3,40
347,42,91199,6,0,P|393:57|394:76,4,40
153,200,92017,6,0,L|201:200,5,40
343,134,92835,2,0,L|298:130,4,40
258,295,93608,2,0,L|202:374,2,53.3333333333333
485,46,94335,6,0,P|440:44|437:53,3,40
497,259,94881,2,0,P|465:286|449:286,3,40
406,66,95426,2,0,L|445:44,1,40
228,228,95790,2,0,L|177:154,2,53.3333333333333
111,51,96517,6,0,L|111:107,4,40
444,93,97335,2,0,P|479:73|483:64,3,40
276,201,97972,6,0,L|363:201,3,53.3333333333333
454,112,98835,2,0,P|498:90|506:92,2,40
455,322,99245,2,0,P|497:298|507:309,3,40
128,69,100063,6,0,L|74:102,2,40
366,65,100472,1,0,0:0:0:0:
418,60,100608,1,0,0:0:0:0:
470,45,100745,1,0,0:0:0:0:
35,43,101154,5,0,0:0:0:0:
35,43,101290,1,0,0:0:0:0:
35,43,101426,1,0,0:0:0:0:
35,43,101563,1,0,0:0:0:0:
466,97,101699,6,0,L|418:131,1,40
60,239,101972,6,0,L|89:278,4,40
443,74,102654,1,0,0:0:0:0:
465,100,102790,1,0,0:0:0:0:
478,131,102926,1,0,0:0:0:0:
480,164,103063,1,0,0:0:0:0:
96,71,103199,5,0,0:0:0:0:
81,96,103335,1,0,0:0:0:0:
68,124,103472,1,0,0:0:0:0:
462,145,103608,1,0,0:0:0:0:
481,169,103745,1,0,0:0:0:0:
501,200,103881,1,0,0:0:0:0:
129,271,104017,6,0,L|93:287,2,40
381,75,104426,1,0,0:0:0:0:
408,62,104563,1,0,0:0:0:0:
441,70,104699,1,0,0:0:0:0:
463,105,104835,1,0,0:0:0:0:
100,214,104972,5,0,0:0:0:0:
74,244,105108,1,0,0:0:0:0:
54,281,105245,1,0,0:0:0:0:
69,316,105381,1,0,0:0:0:0:
132,49,105517,2,0,L|98:17,1,40
424,283,105790,6,0,L|471:288,2,40
78,95,106335,1,0,0:0:0:0:
78,95,106472,1,0,0:0:0:0:
306,117,106608,1,0,0:0:0:0:
306,117,106745,1,0,0:0:0:0:
127,234,106881,1,0,0:0:0:0:
127,234,107017,1,0,0:0:0:0:
393,182,107154,2,0,P|374:221|366:224,3,40
452,37,107699,5,0,0:0:0:0:
435,38,107835,1,0,0:0:0:0:
407,53,107972,1,0,0:0:0:0:
57,138,108108,1,0,0:0:0:0:
97,128,108245,1,0,0:0:0:0:
117,98,108381,1,0,0:0:0:0:
451,206,108517,1,0,0:0:0:0:
411,190,108654,1,0,0:0:0:0:
389,200,108790,1,0,0:0:0:0:
42,40,108926,2,0,L|79:71,1,40
256,192,109335,12,0,111245,0:0:0:0:
242,106,111517,6,0,B|299:169|299:169|234:251,4,160
463,184,113835,2,0,B|496:193|496:193|512:166,3,40
280,47,114381,2,0,P|234:55|234:65,3,40
469,301,114926,2,0,P|506:280|507:270,1,40
437,56,115199,2,0,P|473:36|481:42,4,40
70,73,116154,5,0,0:0:0:0:
49,101,116290,1,0,0:0:0:0:
55,139,116426,1,0,0:0:0:0:
79,169,116563,1,0,0:0:0:0:
125,177,116699,1,0,0:0:0:0:
159,164,116835,1,0,0:0:0:0:
304,217,117245,6,0,L|366:218,4,40
201,185,118335,2,0,B|158:113|158:113|228:66,1,160
401,66,119426,1,0,0:0:0:0:
447,50,119563,1,0,0:0:0:0:
488,34,119699,1,0,0:0:0:0:
471,336,119972,5,0,0:0:0:0:
471,336,120108,1,0,0:0:0:0:
471,336,120245,1,0,0:0:0:0:
197,209,120699,2,0,L|150:140,1,80
150,60,121245,2,0,B|241:60|241:60|280:124,2,160
85,204,122835,5,0,0:0:0:0:
85,204,122972,1,0,0:0:0:0:
85,204,123108,1,0,0:0:0:0:
469,81,123517,2,0,P|460:42|473:41,3,40
477,306,124063,2,0,P|462:348|473:358,3,40
154,66,124608,2,0,P|109:100|99:172,1,120
481,205,125290,5,0,0:0:0:0:
481,205,125426,1,0,0:0:0:0:
203,60,125699,2,0,B|277:60|277:60|277:360,1,373.333333333333
200,358,127608,6,0,B|151:308|151:308|101:304|101:304|99:224|99:224|32:198|32:198|32:192,2,266.666666666667
465,46,129790,1,0,0:0:0:0:
454,59,129926,1,0,0:0:0:0:
460,75,130063,1,0,0:0:0:0:
265,257,130335,2,0,P|222:224|266:44,1,266.666666666667
105,264,131426,1,0,0:0:0:0:
81,295,131563,1,0,0:0:0:0:
72,322,131699,1,0,0:0:0:0:
341,56,132108,6,0,P|381:77|386:93,2,40
244,53,132790,2,0,B|181:75|181:75|181:191,2,160
62,126,134426,1,0,0:0:0:0:
62,126,134563,1,0,0:0:0:0:
329,64,134835,6,0,B|374:102|381:92|339:154,5,80
275,138,136745,6,0,B|275:195|275:195|351:319,1,200
436,317,137699,2,0,B|466:270|466:270|466:0,1,320
117,105,139063,1,0,0:0:0:0:
117,105,139199,1,0,0:0:0:0:
117,105,139335,1,0,0:0:0:0:
446,91,139608,5,0,0:0:0:0:
446,91,139745,1,0,0:0:0:0:
446,91,139881,1,0,0:0:0:0:
225,144,140017,1,0,0:0:0:0:
225,144,140154,1,0,0:0:0:0:
225,144,140290,1,0,0:0:0:0:
469,334,140426,2,0,P|462:261|379:218,1,160
51,48,141245,5,0,0:0:0:0:
51,48,141381,1,0,0:0:0:0:
51,48,141517,1,0,0:0:0:0:
430,86,141790,1,0,0:0:0:0:
418,100,141926,1,0,0:0:0:0:
409,121,142063,1,0,0:0:0:0:
79,100,142199,1,0,0:0:0:0:
95,121,142335,1,0,0:0:0:0:
100,142,142472,1,0,0:0:0:0:
396,53,142608,5,0,0:0:0:0:
381,75,142745,1,0,0:0:0:0:
30,60,142881,2,0,P|76:74|106:153,1,120
465,49,143563,1,0,0:0:0:0:
465,49,143699,1,0,0:0:0:0:
465,49,143835,1,0,0:0:0:0:
113,179,144108,1,0,0:0:0:0:
113,179,144245,1,0,0:0:0:0:
113,179,144381,1,0,0:0:0:0:
397,115,144517,5,0,0:0:0:0:
397,115,144654,1,0,0:0:0:0:
397,115,144790,1,0,0:0:0:0:
108,57,144926,1,0,0:0:0:0:
108,57,145063,1,0,0:0:0:0:
108,57,145199,1,0,0:0:0:0:
432,189,145335,2,0,L|479:200,1,40
77,77,145881,5,0,0:0:0:0:
77,77,146017,1,0,0:0:0:0:
77,77,146154,1,0,0:0:0:0:
442,120,146290,1,0,0:0:0:0:
442,120,146426,1,0,0:0:0:0:
442,120,146563,1,0,0:0:0:0:
65,238,146699,5,0,0:0:0:0:
65,238,146835,1,0,0:0:0:0:
65,238,146972,1,0,0:0:0:0:
356,77,147108,1,0,0:0:0:0:
238,145,147245,1,0,0:0:0:0:
445,193,147381,1,0,0:0:0:0:
216,40,147517,1,0,0:0:0:0:
105,153,147654,1,0,0:0:0:0:
426,290,147790,1,0,0:0:0:0:
