osu file format v14

[General]
AudioFilename: remember.mp3
AudioLeadIn: 0
PreviewTime: 28846
Countdown: 0
SampleSet: Soft
StackLeniency: 0.7
Mode: 0
LetterboxInBreaks: 0
EpilepsyWarning: 1
WidescreenStoryboard: 1

[Editor]
Bookmarks: 13787,28905,44023,59141,62920
DistanceSpacing: 1.2
BeatDivisor: 4
GridSize: 4
TimelineZoom: 0.5999998

[Metadata]
Title:Remember
TitleUnicode:Remember
Artist:Catwool
ArtistUnicode:Catwool
Creator:Zerss
Version:Normal
Source:
Tags:c4twool le clubird made in france
BeatmapID:779483
BeatmapSetID:353809

[Difficulty]
HPDrainRate:2.5
CircleSize:2.8
OverallDifficulty:4
ApproachRate:5
SliderMultiplier:1.6
SliderTickRate:1

[Events]
//Background and Video events
0,0,"bg.jpg",0,0
//Break Periods
//Storyboard Layer 0 (Background)
//Storyboard Layer 1 (Fail)
//Storyboard Layer 2 (Pass)
//Storyboard Layer 3 (Foreground)
//Storyboard Sound Samples

[TimingPoints]
13787,472.44094488189,4,2,1,50,1,0
13787,-100,4,2,1,50,0,0
28905,-100,4,2,1,90,0,1
29377,-100,4,2,1,90,0,0
44023,-100,4,2,1,90,0,1
44495,-100,4,2,1,90,0,0
59377,-100,4,2,2,5,0,0

[Colours]
Combo1 : 145,229,103
Combo2 : 255,213,128
Combo3 : 242,121,97
Combo4 : 255,140,179
Combo5 : 187,103,229
Combo6 : 140,236,255

[HitObjects]
128,208,13787,6,0,P|188:268|280:252,1,160,2|0,0:0|0:0,0:0:0:0:
328,200,14495,2,0,L|332:64,2,120,2|2|0,0:0|0:0|0:0,0:0:0:0:
396,268,15440,1,0,0:0:0:0:
304,296,15676,6,0,P|244:252|244:148,1,160,2|0,0:0|0:0,0:0:0:0:
156,116,16385,2,0,B|76:132|76:132|12:120,2,120,2|2|0,0:0|0:0|0:0,0:0:0:0:
332,40,17566,6,0,L|328:220,1,160,2|0,0:0|0:0,0:0:0:0:
396,268,18275,2,0,B|468:304|468:304|520:296,2,120,2|2|0,0:0|0:0|0:0,0:0:0:0:
304,296,19220,1,0,0:0:0:0:
228,240,19456,6,0,P|200:192|84:188,1,160,2|0,0:0|0:0,0:0:0:0:
20,228,20164,2,0,L|28:364,2,120,2|2|0,0:0|0:0|0:0,0:0:0:0:
20,132,21109,1,0,0:0:0:0:
104,176,21346,6,0,P|185:172|233:100,1,160,2|0,0:0|0:0,0:0:0:0:
320,80,22054,2,0,L|444:88,2,120,2|2|0,0:0|0:0|0:0,0:0:0:0:
245,19,22999,1,0,0:0:0:0:
230,113,23235,6,0,L|233:284,1,160,2|0,0:0|0:0,0:0:0:0:
304,340,23944,2,0,P|360:320|444:344,2,120,2|2|0,0:0|0:0|0:0,0:0:0:0:
132,256,25125,6,0,P|176:192|276:184,1,160,2|0,0:0|0:0,0:0:0:0:
348,168,25834,2,0,L|352:40,2,120,2|2|0,0:0|0:0|0:0,0:0:0:0:
364,264,26779,1,0,0:0:0:0:
304,340,27015,5,2,0:0:0:0:
28,268,28432,1,0,0:0:0:0:
216,312,28905,6,0,P|264:256|368:276,1,160,4|4,0:3|1:3,0:0:0:0:
436,224,29613,2,0,L|440:348,2,120,0|0|4,0:0|0:0|1:3,0:0:0:0:
456,128,30558,1,0,0:0:0:0:
400,52,30794,6,0,P|324:100|244:80,1,160,4|4,0:3|1:3,0:0:0:0:
184,28,31503,1,0,0:0:0:0:
104,80,31739,2,0,P|100:124|104:168,1,80,4|0,0:3|0:0,0:0:0:0:
164,236,32212,2,0,P|166:275|162:315,1,80,4|0,1:3|0:0,0:0:0:0:
80,364,32684,6,0,L|276:356,2,160,4|4|4,0:3|1:3|0:3,0:0:0:0:
24,284,33865,1,0,0:0:0:0:
76,204,34101,6,0,P|76:128|12:72,2,160,4|4|4,1:3|0:3|1:3,0:0:0:0:
24,284,35283,2,0,B|64:304|96:303|128:288|148:264|148:264|200:272,1,160
256,312,35991,1,0,0:0:0:0:
344,272,36227,1,0,0:0:0:0:
436,300,36464,6,0,L|432:132,1,160,4|4,0:3|1:3,0:0:0:0:
364,72,37172,2,0,P|304:96|232:84,2,120,0|0|4,0:0|0:0|1:3,0:0:0:0:
456,48,38117,1,0,0:0:0:0:
432,140,38353,6,0,L|436:304,2,160,4|4|4,0:3|1:3|0:3,0:0:0:0:
456,48,39535,1,0,0:0:0:0:
364,72,39771,2,0,P|320:80|264:72,1,80,4|0,1:3|0:0,0:0:0:0:
228,156,40243,6,0,P|268:224|244:324,2,160,4|4|4,0:3|1:3|0:3,0:0:0:0:
188,68,41424,1,0,0:0:0:0:
285,77,41661,2,0,P|324:79|364:72,1,80,4|0,1:3|0:0,0:0:0:0:
456,48,42133,6,0,L|456:232,1,160,4|4,0:3|1:3,0:0:0:0:
488,300,42842,1,0,0:0:0:0:
400,336,43078,2,0,P|348:308|244:336,1,160,4|0,0:3|0:0,0:0:0:0:
76,252,44023,6,0,P|132:176|100:100,1,160,4|4,0:3|1:3,0:0:0:0:
168,36,44731,2,0,L|304:28,2,120,8|0|4,0:3|0:0|1:3,0:0:0:0:
72,32,45676,1,8,0:3:0:0:
116,118,45912,6,0,P|128:195|76:252,1,160,4|4,0:3|1:3,0:0:0:0:
24,332,46621,1,8,0:3:0:0:
120,348,46857,2,0,P|168:356|216:340,1,80,4|8,0:3|0:3,0:0:0:0:
284,304,47330,2,0,P|323:296|362:305,1,80,4|8,1:3|0:3,0:0:0:0:
448,260,47802,6,0,L|448:76,2,160,4|4|4,0:3|1:3|0:3,0:0:0:0:
444,356,48983,1,8,0:3:0:0:
362,305,49220,6,0,P|288:296|208:344,2,160,4|4|4,1:3|0:3|1:3,0:0:0:0:
444,356,50401,1,0,0:0:0:0:
444,356,51582,6,0,P|392:292|400:200,1,160,4|4,0:3|1:3,0:0:0:0:
440,132,52290,2,0,L|444:8,2,120,8|0|4,0:3|0:0|1:3,0:0:0:0:
392,217,53235,1,8,0:3:0:0:
312,160,53472,6,0,P|244:116|152:136,2,160,4|4|4,0:3|1:3|0:3,0:0:0:0:
392,217,54653,1,8,0:3:0:0:
440,132,54889,2,0,P|432:96|440:44,1,80,4|8,1:3|0:3,0:0:0:0:
348,16,55361,6,0,L|160:20,2,160,4|4|4,0:3|1:3|0:3,0:0:0:0:
444,36,56542,1,8,0:3:0:0:
440,132,56779,2,0,P|432:180|440:228,1,80,4|8,1:3|0:3,0:0:0:0:
472,300,57251,6,0,P|408:252|320:296,1,160,4|4,0:3|1:3,0:0:0:0:
292,360,57960,1,0,0:0:0:0:
216,300,58196,6,0,P|224:252|208:200,1,80
288,160,58668,2,0,P|282:120|290:81,1,80,0|0,0:0|0:0,0:0:0:0:
228,8,59141,5,4,0:1:0:0:
256,192,59377,12,0,62920,0:0:0:0:
