osu file format v14

[General]
AudioFilename: audio.mp3
AudioLeadIn: 0
PreviewTime: 95514
Countdown: 0
SampleSet: Normal
StackLeniency: 0.2
Mode: 1
LetterboxInBreaks: 0
WidescreenStoryboard: 0

[Editor]
DistanceSpacing: 1.3
BeatDivisor: 8
GridSize: 32
TimelineZoom: 4.499999

[Metadata]
Title:The Geocide
TitleUnicode:The Geocide
Artist:Cattle Decapitation
ArtistUnicode:Cattle Decapitation
Creator:Genjuro
Version:Carnage
Source:
Tags:english deathgrind progressive metal atlas blade records
BeatmapID:2440811
BeatmapSetID:1170000

[Difficulty]
HPDrainRate:4
CircleSize:2
OverallDifficulty:8
ApproachRate:10
SliderMultiplier:1.4
SliderTickRate:1

[Events]
//Background and Video events
0,0,"bg.jpg",0,-50
//Break Periods
//Storyboard Layer 0 (Background)
//Storyboard Layer 1 (Fail)
//Storyboard Layer 2 (Pass)
//Storyboard Layer 3 (Foreground)
//Storyboard Layer 4 (Overlay)
//Storyboard Sound Samples

[TimingPoints]
-354,234.375,4,1,0,100,1,0
114,-200,4,1,0,100,0,0
583,234.375,4,1,0,100,1,1
30583,410.958904109589,4,1,0,100,1,0
30583,-57.0312713867268,4,1,0,100,0,0
30788,-58.6051390846463,4,1,0,100,0,0
30993,-60.268338751457,4,1,0,100,0,0
31096,-61.1358303651888,4,1,0,100,0,0
31199,-62.0286981975081,4,1,0,100,0,0
31302,-62.9480326221884,4,1,0,100,0,0
31404,-63.8949873104555,4,1,0,100,0,0
31610,-65.8770641754596,4,1,0,100,0,0
31815,-67.9860492626913,4,1,0,100,0,0
31918,-69.0919793884807,4,1,0,100,0,0
32021,-70.2345341799872,4,1,0,100,0,0
32124,-71.4155125919832,4,1,0,100,0,0
32226,-72.6368332665075,4,1,0,100,0,0
32432,-75.2092886479852,4,1,0,100,0,0
32637,-77.9706424936883,4,1,0,100,0,0
32740,-79.4287484412108,4,1,0,100,0,0
32843,-80.9424944048501,4,1,0,100,0,0
32946,-82.5150589982672,4,1,0,100,0,0
33048,-84.1498675481085,4,1,0,100,0,0
33254,-87.6219149419023,4,1,0,100,0,0
33459,-91.3928081171436,4,1,0,100,0,0
33562,-93.4026007020139,4,1,0,100,0,0
33665,-95.5028655634812,4,1,0,100,0,0
33870,-100,4,1,0,100,0,0
43733,410.958904109589,6,1,0,100,1,0
46198,410.958904109589,4,1,0,100,1,8
46199,410.958904109589,4,1,0,100,1,0
49486,410.958904109589,4,1,0,100,1,8
49487,410.958904109589,4,1,0,100,1,0
56062,-50,4,1,0,100,0,1
69213,-50,4,1,0,100,0,0
70034,-100,4,1,0,100,0,0
95514,-100,4,1,0,100,0,1
121815,400,6,1,0,100,1,0
124215,400,4,1,0,100,1,0
127415,400,4,1,0,100,1,0
133815,234.375,4,1,0,100,1,1
163815,410.958904109589,4,1,0,100,1,0
163815,-57.0312713867268,4,1,0,100,0,0
164636,-100,4,1,0,100,0,0
190116,-100,4,1,0,100,0,1
216417,-100,4,1,0,100,0,0

[HitObjects]
256,192,114,5,0,0:0:0:0:
256,192,583,1,8,0:0:0:0:
256,192,641,1,8,0:0:0:0:
256,192,700,1,8,0:0:0:0:
256,192,758,1,0,0:0:0:0:
256,192,817,1,8,0:0:0:0:
256,192,875,1,0,0:0:0:0:
256,192,934,1,8,0:0:0:0:
256,192,993,1,0,0:0:0:0:
256,192,1051,1,8,0:0:0:0:
256,192,1110,1,8,0:0:0:0:
256,192,1168,1,8,0:0:0:0:
256,192,1227,1,8,0:0:0:0:
256,192,1286,1,0,0:0:0:0:
256,192,1344,1,0,0:0:0:0:
256,192,1403,1,0,0:0:0:0:
256,192,1461,1,0,0:0:0:0:
256,192,1520,1,8,0:0:0:0:
256,192,1579,1,8,0:0:0:0:
256,192,1637,1,0,0:0:0:0:
256,192,1696,1,0,0:0:0:0:
256,192,1754,1,8,0:0:0:0:
256,192,1813,1,0,0:0:0:0:
256,192,1872,1,8,0:0:0:0:
256,192,1930,1,0,0:0:0:0:
256,192,1989,1,8,0:0:0:0:
256,192,2047,1,8,0:0:0:0:
256,192,2106,1,0,0:0:0:0:
256,192,2165,1,0,0:0:0:0:
256,192,2223,1,8,0:0:0:0:
256,192,2282,1,8,0:0:0:0:
256,192,2340,1,0,0:0:0:0:
256,192,2399,1,0,0:0:0:0:
256,192,2458,1,8,0:0:0:0:
256,192,2516,1,8,0:0:0:0:
256,192,2575,1,8,0:0:0:0:
256,192,2633,1,0,0:0:0:0:
256,192,2692,1,8,0:0:0:0:
256,192,2750,1,0,0:0:0:0:
256,192,2809,1,8,0:0:0:0:
256,192,2868,1,0,0:0:0:0:
256,192,2926,1,8,0:0:0:0:
256,192,2985,1,8,0:0:0:0:
256,192,3043,1,8,0:0:0:0:
256,192,3102,1,8,0:0:0:0:
256,192,3161,1,0,0:0:0:0:
256,192,3219,1,0,0:0:0:0:
256,192,3278,1,0,0:0:0:0:
256,192,3336,1,0,0:0:0:0:
256,192,3395,1,8,0:0:0:0:
256,192,3454,1,8,0:0:0:0:
256,192,3512,1,0,0:0:0:0:
256,192,3571,1,0,0:0:0:0:
256,192,3629,1,8,0:0:0:0:
256,192,3688,1,0,0:0:0:0:
256,192,3747,1,8,0:0:0:0:
256,192,3805,1,0,0:0:0:0:
256,192,3864,1,8,0:0:0:0:
256,192,3922,1,0,0:0:0:0:
256,192,3981,1,8,0:0:0:0:
256,192,4040,1,0,0:0:0:0:
256,192,4098,1,8,0:0:0:0:
256,192,4157,1,8,0:0:0:0:
256,192,4215,1,0,0:0:0:0:
256,192,4274,1,0,0:0:0:0:
256,192,4333,1,8,0:0:0:0:
256,192,4391,1,8,0:0:0:0:
256,192,4450,1,8,0:0:0:0:
256,192,4508,1,0,0:0:0:0:
256,192,4567,1,8,0:0:0:0:
256,192,4625,1,0,0:0:0:0:
256,192,4684,1,8,0:0:0:0:
256,192,4743,1,0,0:0:0:0:
256,192,4801,1,8,0:0:0:0:
256,192,4860,1,8,0:0:0:0:
256,192,4918,1,8,0:0:0:0:
256,192,4977,1,8,0:0:0:0:
256,192,5036,1,0,0:0:0:0:
256,192,5094,1,0,0:0:0:0:
256,192,5153,1,0,0:0:0:0:
256,192,5211,1,0,0:0:0:0:
256,192,5270,1,8,0:0:0:0:
256,192,5329,1,8,0:0:0:0:
256,192,5387,1,0,0:0:0:0:
256,192,5446,1,0,0:0:0:0:
256,192,5504,1,8,0:0:0:0:
256,192,5563,1,0,0:0:0:0:
256,192,5622,1,8,0:0:0:0:
256,192,5680,1,0,0:0:0:0:
256,192,5739,1,8,0:0:0:0:
256,192,5797,1,8,0:0:0:0:
256,192,5856,1,0,0:0:0:0:
256,192,5915,1,0,0:0:0:0:
256,192,5973,1,8,0:0:0:0:
256,192,6032,1,8,0:0:0:0:
256,192,6090,1,0,0:0:0:0:
256,192,6149,1,0,0:0:0:0:
256,192,6208,1,8,0:0:0:0:
256,192,6266,1,8,0:0:0:0:
256,192,6325,1,8,0:0:0:0:
256,192,6383,1,0,0:0:0:0:
256,192,6442,1,8,0:0:0:0:
256,192,6500,1,0,0:0:0:0:
256,192,6559,1,8,0:0:0:0:
256,192,6618,1,0,0:0:0:0:
256,192,6676,1,8,0:0:0:0:
256,192,6735,1,8,0:0:0:0:
256,192,6793,1,8,0:0:0:0:
256,192,6852,1,8,0:0:0:0:
256,192,6911,1,0,0:0:0:0:
256,192,6969,1,0,0:0:0:0:
256,192,7028,1,0,0:0:0:0:
256,192,7086,1,0,0:0:0:0:
256,192,7145,1,8,0:0:0:0:
256,192,7204,1,8,0:0:0:0:
256,192,7262,1,0,0:0:0:0:
256,192,7321,1,0,0:0:0:0:
256,192,7379,1,8,0:0:0:0:
256,192,7438,1,0,0:0:0:0:
256,192,7497,1,0,0:0:0:0:
256,192,7555,1,0,0:0:0:0:
256,192,7614,1,8,0:0:0:0:
256,192,7672,1,8,0:0:0:0:
256,192,7731,1,0,0:0:0:0:
256,192,7790,1,0,0:0:0:0:
256,192,7848,1,8,0:0:0:0:
256,192,7907,1,0,0:0:0:0:
256,192,7965,1,0,0:0:0:0:
256,192,8024,1,0,0:0:0:0:
256,192,8083,1,8,0:0:0:0:
256,192,8141,1,8,0:0:0:0:
256,192,8200,1,8,0:0:0:0:
256,192,8258,1,0,0:0:0:0:
256,192,8317,1,8,0:0:0:0:
256,192,8375,1,0,0:0:0:0:
256,192,8434,1,8,0:0:0:0:
256,192,8493,1,0,0:0:0:0:
256,192,8551,1,8,0:0:0:0:
256,192,8610,1,8,0:0:0:0:
256,192,8668,1,8,0:0:0:0:
256,192,8727,1,8,0:0:0:0:
256,192,8786,1,0,0:0:0:0:
256,192,8844,1,0,0:0:0:0:
256,192,8903,1,0,0:0:0:0:
256,192,8961,1,0,0:0:0:0:
256,192,9020,1,8,0:0:0:0:
256,192,9079,1,8,0:0:0:0:
256,192,9137,1,0,0:0:0:0:
256,192,9196,1,0,0:0:0:0:
256,192,9254,1,8,0:0:0:0:
256,192,9313,1,0,0:0:0:0:
256,192,9372,1,8,0:0:0:0:
256,192,9430,1,0,0:0:0:0:
256,192,9489,1,8,0:0:0:0:
256,192,9547,1,8,0:0:0:0:
256,192,9606,1,0,0:0:0:0:
256,192,9665,1,0,0:0:0:0:
256,192,9723,1,8,0:0:0:0:
256,192,9782,1,8,0:0:0:0:
256,192,9840,1,0,0:0:0:0:
256,192,9899,1,0,0:0:0:0:
256,192,9958,1,8,0:0:0:0:
256,192,10016,1,8,0:0:0:0:
256,192,10075,1,8,0:0:0:0:
256,192,10133,1,0,0:0:0:0:
256,192,10192,1,8,0:0:0:0:
256,192,10250,1,0,0:0:0:0:
256,192,10309,1,8,0:0:0:0:
256,192,10368,1,0,0:0:0:0:
256,192,10426,1,8,0:0:0:0:
256,192,10485,1,8,0:0:0:0:
256,192,10543,1,8,0:0:0:0:
256,192,10602,1,8,0:0:0:0:
256,192,10661,1,0,0:0:0:0:
256,192,10719,1,0,0:0:0:0:
256,192,10778,1,0,0:0:0:0:
256,192,10836,1,0,0:0:0:0:
256,192,10895,1,8,0:0:0:0:
256,192,10954,1,8,0:0:0:0:
256,192,11012,1,0,0:0:0:0:
256,192,11071,1,0,0:0:0:0:
256,192,11129,1,8,0:0:0:0:
256,192,11188,1,0,0:0:0:0:
256,192,11247,1,8,0:0:0:0:
256,192,11305,1,0,0:0:0:0:
256,192,11364,1,8,0:0:0:0:
256,192,11422,1,0,0:0:0:0:
256,192,11481,1,8,0:0:0:0:
256,192,11540,1,0,0:0:0:0:
256,192,11598,1,8,0:0:0:0:
256,192,11657,1,8,0:0:0:0:
256,192,11715,1,0,0:0:0:0:
256,192,11774,1,0,0:0:0:0:
256,192,11833,1,8,0:0:0:0:
256,192,11891,1,8,0:0:0:0:
256,192,11950,1,8,0:0:0:0:
256,192,12008,1,0,0:0:0:0:
256,192,12067,1,8,0:0:0:0:
256,192,12125,1,0,0:0:0:0:
256,192,12184,1,8,0:0:0:0:
256,192,12243,1,0,0:0:0:0:
256,192,12301,1,8,0:0:0:0:
256,192,12360,1,8,0:0:0:0:
256,192,12418,1,8,0:0:0:0:
256,192,12477,1,8,0:0:0:0:
256,192,12536,1,0,0:0:0:0:
256,192,12594,1,0,0:0:0:0:
256,192,12653,1,0,0:0:0:0:
256,192,12711,1,0,0:0:0:0:
256,192,12770,1,8,0:0:0:0:
256,192,12829,1,8,0:0:0:0:
256,192,12887,1,0,0:0:0:0:
256,192,12946,1,0,0:0:0:0:
256,192,13004,1,8,0:0:0:0:
256,192,13063,1,0,0:0:0:0:
256,192,13122,1,8,0:0:0:0:
256,192,13180,1,0,0:0:0:0:
256,192,13239,1,8,0:0:0:0:
256,192,13297,1,8,0:0:0:0:
256,192,13356,1,0,0:0:0:0:
256,192,13415,1,0,0:0:0:0:
256,192,13473,1,8,0:0:0:0:
256,192,13532,1,8,0:0:0:0:
256,192,13590,1,0,0:0:0:0:
256,192,13649,1,0,0:0:0:0:
256,192,13708,1,8,0:0:0:0:
256,192,13766,1,8,0:0:0:0:
256,192,13825,1,8,0:0:0:0:
256,192,13883,1,0,0:0:0:0:
256,192,13942,1,8,0:0:0:0:
256,192,14000,1,0,0:0:0:0:
256,192,14059,1,8,0:0:0:0:
256,192,14118,1,0,0:0:0:0:
256,192,14176,1,8,0:0:0:0:
256,192,14235,1,8,0:0:0:0:
256,192,14293,1,0,0:0:0:0:
256,192,14352,1,0,0:0:0:0:
256,192,14411,1,8,0:0:0:0:
256,192,14469,1,0,0:0:0:0:
256,192,14528,1,0,0:0:0:0:
256,192,14586,1,0,0:0:0:0:
256,192,14645,1,8,0:0:0:0:
256,192,14704,1,8,0:0:0:0:
256,192,14762,1,8,0:0:0:0:
256,192,14821,1,8,0:0:0:0:
256,192,14879,1,0,0:0:0:0:
256,192,14938,1,0,0:0:0:0:
256,192,14997,1,0,0:0:0:0:
256,192,15055,1,0,0:0:0:0:
256,192,15114,1,8,0:0:0:0:
256,192,15172,1,0,0:0:0:0:
256,192,15231,1,0,0:0:0:0:
256,192,15290,1,0,0:0:0:0:
256,192,15348,1,8,0:0:0:0:
256,192,15407,1,8,0:0:0:0:
256,192,15465,1,0,0:0:0:0:
256,192,15524,1,0,0:0:0:0:
256,192,15583,1,8,0:0:0:0:
256,192,15641,1,0,0:0:0:0:
256,192,15700,1,0,0:0:0:0:
256,192,15758,1,0,0:0:0:0:
256,192,15817,1,0,0:0:0:0:
256,192,15875,1,0,0:0:0:0:
256,192,15934,1,0,0:0:0:0:
256,192,15993,1,0,0:0:0:0:
256,192,16051,1,8,0:0:0:0:
256,192,16110,1,8,0:0:0:0:
256,192,16168,1,0,0:0:0:0:
256,192,16227,1,0,0:0:0:0:
256,192,16286,1,0,0:0:0:0:
256,192,16344,1,0,0:0:0:0:
256,192,16403,1,0,0:0:0:0:
256,192,16461,1,0,0:0:0:0:
256,192,16520,1,8,0:0:0:0:
256,192,16579,1,0,0:0:0:0:
256,192,16637,1,0,0:0:0:0:
256,192,16696,1,0,0:0:0:0:
256,192,16754,1,0,0:0:0:0:
256,192,16813,1,0,0:0:0:0:
256,192,16872,1,0,0:0:0:0:
256,192,16930,1,0,0:0:0:0:
256,192,16989,1,8,0:0:0:0:
256,192,17047,1,8,0:0:0:0:
256,192,17106,1,0,0:0:0:0:
256,192,17165,1,0,0:0:0:0:
256,192,17223,1,8,0:0:0:0:
256,192,17282,1,0,0:0:0:0:
256,192,17340,1,0,0:0:0:0:
256,192,17399,1,0,0:0:0:0:
256,192,17458,1,8,0:0:0:0:
256,192,17516,1,0,0:0:0:0:
256,192,17575,1,0,0:0:0:0:
256,192,17633,1,0,0:0:0:0:
256,192,17692,1,0,0:0:0:0:
256,192,17750,1,0,0:0:0:0:
256,192,17809,1,0,0:0:0:0:
256,192,17868,1,0,0:0:0:0:
256,192,17926,1,8,0:0:0:0:
256,192,17985,1,8,0:0:0:0:
256,192,18043,1,0,0:0:0:0:
256,192,18102,1,0,0:0:0:0:
256,192,18161,1,0,0:0:0:0:
256,192,18219,1,0,0:0:0:0:
256,192,18278,1,0,0:0:0:0:
256,192,18336,1,0,0:0:0:0:
256,192,18395,1,8,0:0:0:0:
256,192,18454,1,0,0:0:0:0:
256,192,18512,1,0,0:0:0:0:
256,192,18571,1,0,0:0:0:0:
256,192,18629,1,0,0:0:0:0:
256,192,18688,1,0,0:0:0:0:
256,192,18747,1,0,0:0:0:0:
256,192,18805,1,0,0:0:0:0:
256,192,18864,1,8,0:0:0:0:
256,192,18922,1,8,0:0:0:0:
256,192,18981,1,0,0:0:0:0:
256,192,19040,1,0,0:0:0:0:
256,192,19098,1,8,0:0:0:0:
256,192,19157,1,0,0:0:0:0:
256,192,19215,1,0,0:0:0:0:
256,192,19274,1,0,0:0:0:0:
256,192,19333,1,8,0:0:0:0:
256,192,19391,1,8,0:0:0:0:
256,192,19450,1,8,0:0:0:0:
256,192,19508,1,8,0:0:0:0:
256,192,19567,1,0,0:0:0:0:
256,192,19625,1,0,0:0:0:0:
256,192,19684,1,0,0:0:0:0:
256,192,19743,1,0,0:0:0:0:
256,192,19801,1,8,0:0:0:0:
256,192,19860,1,8,0:0:0:0:
256,192,19918,1,0,0:0:0:0:
256,192,19977,1,0,0:0:0:0:
256,192,20036,1,0,0:0:0:0:
256,192,20094,1,0,0:0:0:0:
256,192,20153,1,0,0:0:0:0:
256,192,20211,1,0,0:0:0:0:
256,192,20270,1,8,0:0:0:0:
256,192,20329,1,0,0:0:0:0:
256,192,20387,1,0,0:0:0:0:
256,192,20446,1,0,0:0:0:0:
256,192,20504,1,0,0:0:0:0:
256,192,20563,1,0,0:0:0:0:
256,192,20622,1,0,0:0:0:0:
256,192,20680,1,0,0:0:0:0:
256,192,20739,1,8,0:0:0:0:
256,192,20797,1,8,0:0:0:0:
256,192,20856,1,0,0:0:0:0:
256,192,20915,1,0,0:0:0:0:
256,192,20973,1,8,0:0:0:0:
256,192,21032,1,0,0:0:0:0:
256,192,21090,1,0,0:0:0:0:
256,192,21149,1,0,0:0:0:0:
256,192,21208,1,8,0:0:0:0:
256,192,21266,1,8,0:0:0:0:
256,192,21325,1,8,0:0:0:0:
256,192,21383,1,8,0:0:0:0:
256,192,21442,1,0,0:0:0:0:
256,192,21500,1,0,0:0:0:0:
256,192,21559,1,0,0:0:0:0:
256,192,21618,1,0,0:0:0:0:
256,192,21676,1,8,0:0:0:0:
256,192,21735,1,8,0:0:0:0:
256,192,21793,1,0,0:0:0:0:
256,192,21852,1,0,0:0:0:0:
256,192,21911,1,0,0:0:0:0:
256,192,21969,1,0,0:0:0:0:
256,192,22028,1,0,0:0:0:0:
256,192,22086,1,0,0:0:0:0:
256,192,22145,1,8,0:0:0:0:
256,192,22204,1,0,0:0:0:0:
256,192,22262,1,0,0:0:0:0:
256,192,22321,1,0,0:0:0:0:
256,192,22379,1,0,0:0:0:0:
256,192,22438,1,0,0:0:0:0:
256,192,22497,1,0,0:0:0:0:
256,192,22555,1,0,0:0:0:0:
256,192,22614,1,8,0:0:0:0:
256,192,22672,1,8,0:0:0:0:
256,192,22731,1,0,0:0:0:0:
256,192,22790,1,0,0:0:0:0:
256,192,22848,1,8,0:0:0:0:
256,192,22907,1,0,0:0:0:0:
256,192,22965,1,8,0:0:0:0:
256,192,23024,1,8,0:0:0:0:
256,192,23083,1,0,0:0:0:0:
256,192,23141,1,0,0:0:0:0:
256,192,23200,1,0,0:0:0:0:
256,192,23258,1,0,0:0:0:0:
256,192,23317,1,8,0:0:0:0:
256,192,23375,1,0,0:0:0:0:
256,192,23434,1,8,0:0:0:0:
256,192,23493,1,0,0:0:0:0:
256,192,23551,1,8,0:0:0:0:
256,192,23610,1,8,0:0:0:0:
256,192,23668,1,0,0:0:0:0:
256,192,23727,1,0,0:0:0:0:
256,192,23786,1,8,0:0:0:0:
256,192,23844,1,0,0:0:0:0:
256,192,23903,1,8,0:0:0:0:
256,192,23961,1,0,0:0:0:0:
256,192,24020,1,8,0:0:0:0:
256,192,24079,1,8,0:0:0:0:
256,192,24137,1,0,0:0:0:0:
256,192,24196,1,0,0:0:0:0:
256,192,24254,1,8,0:0:0:0:
256,192,24313,1,0,0:0:0:0:
256,192,24372,1,8,0:0:0:0:
256,192,24430,1,0,0:0:0:0:
256,192,24489,1,8,0:0:0:0:
256,192,24547,1,8,0:0:0:0:
256,192,24606,1,8,0:0:0:0:
256,192,24665,1,8,0:0:0:0:
256,192,24723,1,0,0:0:0:0:
256,192,24782,1,0,0:0:0:0:
256,192,24840,1,0,0:0:0:0:
256,192,24899,1,0,0:0:0:0:
256,192,24958,1,8,0:0:0:0:
256,192,25016,1,8,0:0:0:0:
256,192,25075,1,8,0:0:0:0:
256,192,25133,1,0,0:0:0:0:
256,192,25192,1,8,0:0:0:0:
256,192,25250,1,0,0:0:0:0:
256,192,25309,1,8,0:0:0:0:
256,192,25368,1,0,0:0:0:0:
256,192,25426,1,8,0:0:0:0:
256,192,25485,1,8,0:0:0:0:
256,192,25543,1,0,0:0:0:0:
256,192,25602,1,0,0:0:0:0:
256,192,25661,1,8,0:0:0:0:
256,192,25719,1,0,0:0:0:0:
256,192,25778,1,8,0:0:0:0:
256,192,25836,1,0,0:0:0:0:
256,192,25895,1,8,0:0:0:0:
256,192,25954,1,8,0:0:0:0:
256,192,26012,1,0,0:0:0:0:
256,192,26071,1,0,0:0:0:0:
256,192,26129,1,8,0:0:0:0:
256,192,26188,1,0,0:0:0:0:
256,192,26247,1,8,0:0:0:0:
256,192,26305,1,0,0:0:0:0:
256,192,26364,1,8,0:0:0:0:
256,192,26422,1,8,0:0:0:0:
256,192,26481,1,0,0:0:0:0:
256,192,26540,1,0,0:0:0:0:
256,192,26598,1,8,0:0:0:0:
256,192,26657,1,8,0:0:0:0:
256,192,26715,1,0,0:0:0:0:
256,192,26774,1,0,0:0:0:0:
256,192,26833,1,8,0:0:0:0:
256,192,26891,1,8,0:0:0:0:
256,192,26950,1,8,0:0:0:0:
256,192,27008,1,0,0:0:0:0:
256,192,27067,1,8,0:0:0:0:
256,192,27125,1,0,0:0:0:0:
256,192,27184,1,8,0:0:0:0:
256,192,27243,1,0,0:0:0:0:
256,192,27301,1,8,0:0:0:0:
256,192,27360,1,8,0:0:0:0:
256,192,27418,1,0,0:0:0:0:
256,192,27477,1,0,0:0:0:0:
256,192,27536,1,8,0:0:0:0:
256,192,27594,1,0,0:0:0:0:
256,192,27653,1,8,0:0:0:0:
256,192,27711,1,0,0:0:0:0:
256,192,27770,1,8,0:0:0:0:
256,192,27829,1,8,0:0:0:0:
256,192,27887,1,0,0:0:0:0:
256,192,27946,1,0,0:0:0:0:
256,192,28004,1,8,0:0:0:0:
256,192,28063,1,0,0:0:0:0:
256,192,28122,1,8,0:0:0:0:
256,192,28180,1,0,0:0:0:0:
256,192,28239,1,8,0:0:0:0:
256,192,28297,1,8,0:0:0:0:
256,192,28356,1,8,0:0:0:0:
256,192,28415,1,8,0:0:0:0:
256,192,28473,1,0,0:0:0:0:
256,192,28532,1,0,0:0:0:0:
256,192,28590,1,0,0:0:0:0:
256,192,28649,1,0,0:0:0:0:
256,192,28708,1,8,0:0:0:0:
256,192,28766,1,8,0:0:0:0:
256,192,28825,1,8,0:0:0:0:
256,192,28883,1,0,0:0:0:0:
256,192,28942,1,8,0:0:0:0:
256,192,29000,1,0,0:0:0:0:
256,192,29059,1,8,0:0:0:0:
256,192,29118,1,0,0:0:0:0:
256,192,29176,1,8,0:0:0:0:
256,192,29235,1,8,0:0:0:0:
256,192,29293,1,0,0:0:0:0:
256,192,29352,1,0,0:0:0:0:
256,192,29411,1,8,0:0:0:0:
256,192,29469,1,0,0:0:0:0:
256,192,29528,1,8,0:0:0:0:
256,192,29586,1,0,0:0:0:0:
256,192,29645,1,8,0:0:0:0:
256,192,29704,1,8,0:0:0:0:
256,192,29762,1,0,0:0:0:0:
256,192,29821,1,0,0:0:0:0:
256,192,29879,1,8,0:0:0:0:
256,192,29938,1,0,0:0:0:0:
256,192,29997,1,8,0:0:0:0:
256,192,30055,1,0,0:0:0:0:
256,192,30114,1,8,0:0:0:0:
256,192,30231,1,0,0:0:0:0:
256,192,30348,1,8,0:0:0:0:
256,192,30465,1,8,0:0:0:0:
256,192,30583,1,4,0:0:0:0:
256,192,30788,1,8,0:0:0:0:
256,192,30993,1,0,0:0:0:0:
256,192,31096,1,0,0:0:0:0:
256,192,31199,1,0,0:0:0:0:
256,192,31302,1,0,0:0:0:0:
256,192,31404,1,8,0:0:0:0:
256,192,31610,1,0,0:0:0:0:
256,192,31815,1,8,0:0:0:0:
256,192,31918,1,0,0:0:0:0:
256,192,32021,1,8,0:0:0:0:
256,192,32124,1,8,0:0:0:0:
256,192,32226,1,0,0:0:0:0:
256,192,32432,1,8,0:0:0:0:
256,192,32637,1,0,0:0:0:0:
256,192,32740,1,8,0:0:0:0:
256,192,32843,1,0,0:0:0:0:
256,192,32946,1,0,0:0:0:0:
256,192,33048,1,8,0:0:0:0:
256,192,33254,1,0,0:0:0:0:
256,192,33459,1,0,0:0:0:0:
256,192,33562,1,0,0:0:0:0:
256,192,33665,1,0,0:0:0:0:
256,192,33870,1,4,0:0:0:0:
256,192,34076,1,8,0:0:0:0:
256,192,34281,1,0,0:0:0:0:
256,192,34384,1,0,0:0:0:0:
256,192,34487,1,8,0:0:0:0:
256,192,34589,1,0,0:0:0:0:
256,192,34692,1,8,0:0:0:0:
256,192,34898,1,0,0:0:0:0:
256,192,35103,1,8,0:0:0:0:
256,192,35206,1,0,0:0:0:0:
256,192,35309,1,8,0:0:0:0:
256,192,35411,1,8,0:0:0:0:
256,192,35514,1,0,0:0:0:0:
256,192,35719,1,8,0:0:0:0:
256,192,35822,1,0,0:0:0:0:
256,192,35874,1,0,0:0:0:0:
256,192,35925,1,8,0:0:0:0:
256,192,36028,1,0,0:0:0:0:
256,192,36130,1,8,0:0:0:0:
256,192,36233,1,8,0:0:0:0:
256,192,36336,1,0,0:0:0:0:
256,192,36387,1,0,0:0:0:0:
256,192,36439,1,0,0:0:0:0:
256,192,36541,1,0,0:0:0:0:
256,192,36644,1,0,0:0:0:0:
256,192,36747,1,8,0:0:0:0:
256,192,36850,1,8,0:0:0:0:
256,192,36952,1,8,0:0:0:0:
256,192,37055,1,8,0:0:0:0:
256,192,37158,1,4,0:0:0:0:
256,192,37363,1,8,0:0:0:0:
256,192,37569,1,0,0:0:0:0:
256,192,37672,1,0,0:0:0:0:
256,192,37774,1,0,0:0:0:0:
256,192,37877,1,0,0:0:0:0:
256,192,37980,1,8,0:0:0:0:
256,192,38185,1,0,0:0:0:0:
256,192,38391,1,8,0:0:0:0:
256,192,38493,1,0,0:0:0:0:
256,192,38596,1,8,0:0:0:0:
256,192,38699,1,8,0:0:0:0:
256,192,38802,1,0,0:0:0:0:
256,192,39007,1,8,0:0:0:0:
256,192,39213,1,0,0:0:0:0:
256,192,39315,1,8,0:0:0:0:
256,192,39418,1,0,0:0:0:0:
256,192,39521,1,0,0:0:0:0:
256,192,39624,1,8,0:0:0:0:
256,192,39829,1,0,0:0:0:0:
256,192,40035,1,8,0:0:0:0:
256,192,40137,1,8,0:0:0:0:
256,192,40240,1,0,0:0:0:0:
256,192,40446,1,4,0:0:0:0:
256,192,40651,1,8,0:0:0:0:
256,192,40856,1,0,0:0:0:0:
256,192,40959,1,0,0:0:0:0:
256,192,41062,1,8,0:0:0:0:
256,192,41165,1,0,0:0:0:0:
256,192,41267,1,8,0:0:0:0:
256,192,41473,1,0,0:0:0:0:
256,192,41678,1,8,0:0:0:0:
256,192,41781,1,0,0:0:0:0:
256,192,41884,1,8,0:0:0:0:
256,192,41987,1,8,0:0:0:0:
256,192,42089,1,0,0:0:0:0:
256,192,42295,1,8,0:0:0:0:
256,192,42346,1,8,0:0:0:0:
256,192,42398,1,8,0:0:0:0:
256,192,42500,1,8,0:0:0:0:
256,192,42603,1,0,0:0:0:0:
256,192,42706,1,8,0:0:0:0:
256,192,42809,1,8,0:0:0:0:
256,192,42911,1,0,0:0:0:0:
256,192,42963,1,0,0:0:0:0:
256,192,43014,1,0,0:0:0:0:
256,192,43117,1,0,0:0:0:0:
256,192,43219,1,0,0:0:0:0:
256,192,43322,1,8,0:0:0:0:
256,192,43425,1,8,0:0:0:0:
256,192,43528,1,0,0:0:0:0:
256,192,43630,1,0,0:0:0:0:
256,192,43733,1,12,0:0:0:0:
256,192,43938,1,0,0:0:0:0:
256,192,44041,1,0,0:0:0:0:
256,192,44143,1,0,0:0:0:0:
256,192,44246,1,0,0:0:0:0:
256,192,44349,1,0,0:0:0:0:
256,192,44452,1,0,0:0:0:0:
256,192,44554,1,0,0:0:0:0:
256,192,44657,1,0,0:0:0:0:
256,192,44760,1,0,0:0:0:0:
256,192,44863,1,0,0:0:0:0:
256,192,44965,1,8,0:0:0:0:
256,192,45068,1,8,0:0:0:0:
256,192,45171,1,0,0:0:0:0:
256,192,45274,1,0,0:0:0:0:
256,192,45376,1,8,0:0:0:0:
256,192,45479,1,0,0:0:0:0:
256,192,45582,1,0,0:0:0:0:
256,192,45685,1,0,0:0:0:0:
256,192,45787,1,8,0:0:0:0:
256,192,45890,1,8,0:0:0:0:
256,192,45993,1,0,0:0:0:0:
256,192,46096,1,0,0:0:0:0:
256,192,46199,1,8,0:0:0:0:
256,192,46301,1,0,0:0:0:0:
256,192,46404,1,8,0:0:0:0:
256,192,46507,1,0,0:0:0:0:
256,192,46609,1,8,0:0:0:0:
256,192,46712,1,8,0:0:0:0:
256,192,46815,1,0,0:0:0:0:
256,192,46918,1,0,0:0:0:0:
256,192,47020,1,8,0:0:0:0:
256,192,47123,1,0,0:0:0:0:
256,192,47226,1,0,0:0:0:0:
256,192,47329,1,0,0:0:0:0:
256,192,47431,1,0,0:0:0:0:
256,192,47534,1,0,0:0:0:0:
256,192,47637,1,0,0:0:0:0:
256,192,47740,1,0,0:0:0:0:
256,192,47842,1,0,0:0:0:0:
256,192,47945,1,0,0:0:0:0:
256,192,48048,1,0,0:0:0:0:
256,192,48151,1,0,0:0:0:0:
256,192,48253,1,8,0:0:0:0:
256,192,48356,1,0,0:0:0:0:
256,192,48459,1,8,0:0:0:0:
256,192,48562,1,0,0:0:0:0:
256,192,48664,1,8,0:0:0:0:
256,192,48767,1,8,0:0:0:0:
256,192,48870,1,0,0:0:0:0:
256,192,48972,1,0,0:0:0:0:
256,192,49075,1,8,0:0:0:0:
256,192,49178,1,0,0:0:0:0:
256,192,49281,1,8,0:0:0:0:
256,192,49383,1,0,0:0:0:0:
256,192,49487,1,8,0:0:0:0:
256,192,49589,1,8,0:0:0:0:
256,192,49692,1,0,0:0:0:0:
256,192,49795,1,0,0:0:0:0:
256,192,49897,1,8,0:0:0:0:
256,192,50000,1,0,0:0:0:0:
256,192,50103,1,0,0:0:0:0:
256,192,50206,1,0,0:0:0:0:
256,192,50308,1,8,0:0:0:0:
256,192,50411,1,0,0:0:0:0:
256,192,50514,1,0,0:0:0:0:
256,192,50617,1,0,0:0:0:0:
256,192,50719,1,0,0:0:0:0:
256,192,50822,1,0,0:0:0:0:
256,192,50925,1,0,0:0:0:0:
256,192,51028,1,0,0:0:0:0:
256,192,51130,1,0,0:0:0:0:
256,192,51233,1,0,0:0:0:0:
256,192,51336,1,0,0:0:0:0:
256,192,51439,1,0,0:0:0:0:
256,192,51541,1,8,0:0:0:0:
256,192,51644,1,0,0:0:0:0:
256,192,51747,1,8,0:0:0:0:
256,192,51850,1,0,0:0:0:0:
256,192,51952,1,8,0:0:0:0:
256,192,52055,1,0,0:0:0:0:
256,192,52158,1,0,0:0:0:0:
256,192,52260,1,8,0:0:0:0:
256,192,52363,1,0,0:0:0:0:
256,192,52466,1,0,0:0:0:0:
256,192,52569,1,8,0:0:0:0:
256,192,52671,1,0,0:0:0:0:
256,192,52774,1,8,0:0:0:0:
256,192,52877,1,8,0:0:0:0:
256,192,52980,1,0,0:0:0:0:
256,192,53082,1,0,0:0:0:0:
256,192,53185,1,8,0:0:0:0:
256,192,53288,1,0,0:0:0:0:
256,192,53391,1,0,0:0:0:0:
256,192,53493,1,0,0:0:0:0:
256,192,53596,1,8,0:0:0:0:
256,192,53699,1,0,0:0:0:0:
256,192,53802,1,0,0:0:0:0:
256,192,53904,1,0,0:0:0:0:
256,192,54007,1,0,0:0:0:0:
256,192,54110,1,0,0:0:0:0:
256,192,54213,1,0,0:0:0:0:
256,192,54315,1,0,0:0:0:0:
256,192,54418,1,0,0:0:0:0:
256,192,54521,1,0,0:0:0:0:
256,192,54623,1,0,0:0:0:0:
256,192,54726,1,0,0:0:0:0:
256,192,54829,1,8,0:0:0:0:
256,192,54932,1,8,0:0:0:0:
256,192,55034,1,0,0:0:0:0:
256,192,55137,1,0,0:0:0:0:
256,192,55240,1,8,0:0:0:0:
256,192,55343,1,0,0:0:0:0:
256,192,55445,1,8,0:0:0:0:
256,192,55548,1,8,0:0:0:0:
256,192,55651,1,0,0:0:0:0:
256,192,55702,1,0,0:0:0:0:
256,192,55754,1,0,0:0:0:0:
256,192,55856,1,0,0:0:0:0:
256,192,55959,1,0,0:0:0:0:
256,192,56062,1,12,0:0:0:0:
256,192,56267,1,8,0:0:0:0:
256,192,56370,1,0,0:0:0:0:
256,192,56421,1,0,0:0:0:0:
256,192,56473,1,8,0:0:0:0:
256,192,56576,1,0,0:0:0:0:
256,192,56678,1,8,0:0:0:0:
256,192,56730,1,8,0:0:0:0:
256,192,56781,1,0,0:0:0:0:
256,192,56832,1,0,0:0:0:0:
256,192,56884,1,8,0:0:0:0:
256,192,56987,1,0,0:0:0:0:
256,192,57089,1,8,0:0:0:0:
256,192,57141,1,0,0:0:0:0:
256,192,57192,1,8,0:0:0:0:
256,192,57295,1,0,0:0:0:0:
256,192,57397,1,8,0:0:0:0:
256,192,57500,1,0,0:0:0:0:
256,192,57552,1,0,0:0:0:0:
256,192,57603,1,0,0:0:0:0:
256,192,57706,1,8,0:0:0:0:
256,192,57808,1,8,0:0:0:0:
256,192,57911,1,0,0:0:0:0:
256,192,57963,1,0,0:0:0:0:
256,192,58014,1,0,0:0:0:0:
256,192,58065,1,0,0:0:0:0:
256,192,58117,1,8,0:0:0:0:
256,192,58219,1,0,0:0:0:0:
256,192,58322,1,0,0:0:0:0:
256,192,58425,1,0,0:0:0:0:
256,192,58528,1,8,0:0:0:0:
256,192,58579,1,8,0:0:0:0:
256,192,58630,1,0,0:0:0:0:
256,192,58682,1,0,0:0:0:0:
256,192,58733,1,0,0:0:0:0:
256,192,58784,1,0,0:0:0:0:
256,192,58836,1,8,0:0:0:0:
256,192,58887,1,8,0:0:0:0:
256,192,58939,1,0,0:0:0:0:
256,192,59041,1,8,0:0:0:0:
256,192,59144,1,0,0:0:0:0:
256,192,59247,1,0,0:0:0:0:
256,192,59350,1,8,0:0:0:0:
256,192,59401,1,8,0:0:0:0:
256,192,59452,1,0,0:0:0:0:
256,192,59555,1,8,0:0:0:0:
256,192,59658,1,0,0:0:0:0:
256,192,59709,1,0,0:0:0:0:
256,192,59760,1,8,0:0:0:0:
256,192,59863,1,0,0:0:0:0:
256,192,59966,1,8,0:0:0:0:
256,192,60017,1,8,0:0:0:0:
256,192,60069,1,0,0:0:0:0:
256,192,60120,1,0,0:0:0:0:
256,192,60171,1,8,0:0:0:0:
256,192,60274,1,0,0:0:0:0:
256,192,60377,1,8,0:0:0:0:
256,192,60428,1,0,0:0:0:0:
256,192,60480,1,8,0:0:0:0:
256,192,60531,1,8,0:0:0:0:
256,192,60582,1,0,0:0:0:0:
256,192,60685,1,8,0:0:0:0:
256,192,60788,1,0,0:0:0:0:
256,192,60839,1,0,0:0:0:0:
256,192,60891,1,0,0:0:0:0:
256,192,60993,1,8,0:0:0:0:
256,192,61096,1,8,0:0:0:0:
256,192,61199,1,0,0:0:0:0:
256,192,61250,1,0,0:0:0:0:
256,192,61302,1,0,0:0:0:0:
256,192,61353,1,0,0:0:0:0:
256,192,61404,1,8,0:0:0:0:
256,192,61507,1,0,0:0:0:0:
256,192,61610,1,8,0:0:0:0:
256,192,61713,1,0,0:0:0:0:
256,192,61815,1,8,0:0:0:0:
256,192,61867,1,0,0:0:0:0:
256,192,61918,1,0,0:0:0:0:
256,192,61969,1,0,0:0:0:0:
256,192,62021,1,8,0:0:0:0:
256,192,62072,1,0,0:0:0:0:
256,192,62123,1,0,0:0:0:0:
256,192,62175,1,0,0:0:0:0:
256,192,62226,1,8,0:0:0:0:
256,192,62329,1,0,0:0:0:0:
256,192,62432,1,0,0:0:0:0:
256,192,62534,1,0,0:0:0:0:
256,192,62637,1,8,0:0:0:0:
256,192,62689,1,8,0:0:0:0:
256,192,62740,1,0,0:0:0:0:
256,192,62843,1,8,0:0:0:0:
256,192,62945,1,0,0:0:0:0:
256,192,62997,1,0,0:0:0:0:
256,192,63048,1,8,0:0:0:0:
256,192,63151,1,0,0:0:0:0:
256,192,63254,1,8,0:0:0:0:
256,192,63305,1,8,0:0:0:0:
256,192,63356,1,0,0:0:0:0:
256,192,63408,1,0,0:0:0:0:
256,192,63459,1,8,0:0:0:0:
256,192,63562,1,0,0:0:0:0:
256,192,63665,1,8,0:0:0:0:
256,192,63716,1,0,0:0:0:0:
256,192,63767,1,8,0:0:0:0:
256,192,63870,1,0,0:0:0:0:
256,192,63973,1,8,0:0:0:0:
256,192,64076,1,0,0:0:0:0:
256,192,64127,1,0,0:0:0:0:
256,192,64178,1,0,0:0:0:0:
256,192,64281,1,8,0:0:0:0:
256,192,64384,1,0,0:0:0:0:
256,192,64487,1,8,0:0:0:0:
256,192,64538,1,0,0:0:0:0:
256,192,64589,1,0,0:0:0:0:
256,192,64641,1,0,0:0:0:0:
256,192,64692,1,8,0:0:0:0:
256,192,64795,1,0,0:0:0:0:
256,192,64897,1,8,0:0:0:0:
256,192,65000,1,0,0:0:0:0:
256,192,65103,1,8,0:0:0:0:
256,192,65154,1,8,0:0:0:0:
256,192,65206,1,0,0:0:0:0:
256,192,65257,1,0,0:0:0:0:
256,192,65308,1,8,0:0:0:0:
256,192,65360,1,0,0:0:0:0:
256,192,65411,1,0,0:0:0:0:
256,192,65463,1,0,0:0:0:0:
256,192,65514,1,8,0:0:0:0:
256,192,65617,1,0,0:0:0:0:
256,192,65719,1,8,0:0:0:0:
256,192,65822,1,0,0:0:0:0:
256,192,65925,1,8,0:0:0:0:
256,192,65976,1,8,0:0:0:0:
256,192,66028,1,0,0:0:0:0:
256,192,66130,1,8,0:0:0:0:
256,192,66233,1,0,0:0:0:0:
256,192,66284,1,0,0:0:0:0:
256,192,66336,1,8,0:0:0:0:
256,192,66439,1,0,0:0:0:0:
256,192,66541,1,8,0:0:0:0:
256,192,66593,1,8,0:0:0:0:
256,192,66644,1,0,0:0:0:0:
256,192,66695,1,0,0:0:0:0:
256,192,66747,1,8,0:0:0:0:
256,192,66850,1,0,0:0:0:0:
256,192,66952,1,8,0:0:0:0:
256,192,67004,1,0,0:0:0:0:
256,192,67055,1,8,0:0:0:0:
256,192,67106,1,8,0:0:0:0:
256,192,67158,1,0,0:0:0:0:
256,192,67260,1,8,0:0:0:0:
256,192,67363,1,0,0:0:0:0:
256,192,67415,1,0,0:0:0:0:
256,192,67466,1,0,0:0:0:0:
256,192,67569,1,8,0:0:0:0:
256,192,67671,1,8,0:0:0:0:
256,192,67774,1,0,0:0:0:0:
256,192,67826,1,0,0:0:0:0:
256,192,67877,1,0,0:0:0:0:
256,192,67928,1,0,0:0:0:0:
256,192,67980,1,8,0:0:0:0:
256,192,68082,1,0,0:0:0:0:
256,192,68185,1,0,0:0:0:0:
256,192,68288,1,8,0:0:0:0:
256,192,68391,1,0,0:0:0:0:
256,192,68442,1,0,0:0:0:0:
256,192,68493,1,0,0:0:0:0:
256,192,68545,1,0,0:0:0:0:
256,192,68596,1,0,0:0:0:0:
256,192,68647,1,0,0:0:0:0:
256,192,68699,1,0,0:0:0:0:
256,192,68750,1,0,0:0:0:0:
256,192,68802,1,8,0:0:0:0:
256,192,68904,1,0,0:0:0:0:
256,192,69007,1,8,0:0:0:0:
256,192,69110,1,8,0:0:0:0:
256,192,69213,1,4,0:0:0:0:
256,192,70034,1,8,0:0:0:0:
256,192,70856,1,4,0:0:0:0:
256,192,71678,1,8,0:0:0:0:
256,192,72500,1,12,0:0:0:0:
256,192,73322,1,8,0:0:0:0:
256,192,74144,1,4,0:0:0:0:
256,192,74760,1,0,0:0:0:0:
256,192,74829,1,0,0:0:0:0:
256,192,74897,1,0,0:0:0:0:
256,192,74966,1,8,0:0:0:0:
256,192,75171,1,0,0:0:0:0:
256,192,75377,1,8,0:0:0:0:
256,192,75582,1,8,0:0:0:0:
256,192,75788,1,4,0:0:0:0:
256,192,76610,1,8,0:0:0:0:
256,192,77226,1,0,0:0:0:0:
256,192,77432,1,12,0:0:0:0:
256,192,78254,1,8,0:0:0:0:
256,192,79076,1,12,0:0:0:0:
256,192,79897,1,8,0:0:0:0:
256,192,80719,1,4,0:0:0:0:
256,192,81130,1,0,0:0:0:0:
256,192,81233,1,0,0:0:0:0:
256,192,81336,1,0,0:0:0:0:
256,192,81439,1,0,0:0:0:0:
256,192,81541,1,8,0:0:0:0:
256,192,81644,1,8,0:0:0:0:
256,192,81747,1,8,0:0:0:0:
256,192,81850,1,8,0:0:0:0:
256,192,81952,1,0,0:0:0:0:
256,192,82158,1,8,0:0:0:0:
256,192,82363,1,4,0:0:0:0:
256,192,83185,1,8,0:0:0:0:
256,192,83802,1,0,0:0:0:0:
256,192,84007,1,4,0:0:0:0:
256,192,84829,1,8,0:0:0:0:
256,192,85445,1,0,0:0:0:0:
256,192,85651,1,12,0:0:0:0:
256,192,86473,1,8,0:0:0:0:
256,192,87089,1,0,0:0:0:0:
256,192,87295,1,4,0:0:0:0:
256,192,87911,1,0,0:0:0:0:
256,192,87980,1,0,0:0:0:0:
256,192,88048,1,0,0:0:0:0:
256,192,88117,1,8,0:0:0:0:
256,192,88322,1,0,0:0:0:0:
256,192,88528,1,8,0:0:0:0:
256,192,88733,1,8,0:0:0:0:
256,192,88939,1,4,0:0:0:0:
256,192,89760,1,8,0:0:0:0:
256,192,90377,1,0,0:0:0:0:
256,192,90582,1,12,0:0:0:0:
256,192,91404,1,8,0:0:0:0:
256,192,92021,1,0,0:0:0:0:
256,192,92226,1,12,0:0:0:0:
256,192,93048,1,8,0:0:0:0:
256,192,93665,1,0,0:0:0:0:
256,192,93870,1,4,0:0:0:0:
256,192,94487,1,0,0:0:0:0:
256,192,94555,1,0,0:0:0:0:
256,192,94623,1,0,0:0:0:0:
256,192,94692,1,8,0:0:0:0:
256,192,94897,1,8,0:0:0:0:
256,192,95000,1,8,0:0:0:0:
256,192,95103,1,0,0:0:0:0:
256,192,95206,1,8,0:0:0:0:
256,192,95308,1,8,0:0:0:0:
256,192,95411,1,8,0:0:0:0:
256,192,95514,1,0,0:0:0:0:
256,192,95617,1,0,0:0:0:0:
256,192,95719,1,0,0:0:0:0:
256,192,95822,1,0,0:0:0:0:
256,192,95925,1,8,0:0:0:0:
256,192,96028,1,0,0:0:0:0:
256,192,96130,1,0,0:0:0:0:
256,192,96233,1,0,0:0:0:0:
256,192,96336,1,8,0:0:0:0:
256,192,96439,1,8,0:0:0:0:
256,192,96541,1,0,0:0:0:0:
256,192,96644,1,0,0:0:0:0:
256,192,96747,1,8,0:0:0:0:
256,192,96850,1,0,0:0:0:0:
256,192,96952,1,0,0:0:0:0:
256,192,97055,1,0,0:0:0:0:
256,192,97158,1,8,0:0:0:0:
256,192,97260,1,0,0:0:0:0:
256,192,97363,1,0,0:0:0:0:
256,192,97466,1,0,0:0:0:0:
256,192,97569,1,8,0:0:0:0:
256,192,97671,1,0,0:0:0:0:
256,192,97774,1,0,0:0:0:0:
256,192,97877,1,0,0:0:0:0:
256,192,97980,1,8,0:0:0:0:
256,192,98082,1,8,0:0:0:0:
256,192,98185,1,0,0:0:0:0:
256,192,98288,1,0,0:0:0:0:
256,192,98391,1,8,0:0:0:0:
256,192,98493,1,0,0:0:0:0:
256,192,98596,1,0,0:0:0:0:
256,192,98699,1,0,0:0:0:0:
256,192,98802,1,8,0:0:0:0:
256,192,98904,1,0,0:0:0:0:
256,192,99007,1,0,0:0:0:0:
256,192,99110,1,0,0:0:0:0:
256,192,99213,1,8,0:0:0:0:
256,192,99315,1,0,0:0:0:0:
256,192,99418,1,0,0:0:0:0:
256,192,99521,1,0,0:0:0:0:
256,192,99623,1,8,0:0:0:0:
256,192,99726,1,8,0:0:0:0:
256,192,99829,1,0,0:0:0:0:
256,192,99932,1,0,0:0:0:0:
256,192,100034,1,8,0:0:0:0:
256,192,100137,1,0,0:0:0:0:
256,192,100240,1,0,0:0:0:0:
256,192,100343,1,0,0:0:0:0:
256,192,100445,1,0,0:0:0:0:
256,192,100548,1,0,0:0:0:0:
256,192,100651,1,0,0:0:0:0:
256,192,100754,1,0,0:0:0:0:
256,192,100856,1,8,0:0:0:0:
256,192,100959,1,0,0:0:0:0:
256,192,101062,1,0,0:0:0:0:
256,192,101165,1,0,0:0:0:0:
256,192,101267,1,8,0:0:0:0:
256,192,101370,1,8,0:0:0:0:
256,192,101473,1,0,0:0:0:0:
256,192,101576,1,0,0:0:0:0:
256,192,101678,1,8,0:0:0:0:
256,192,101781,1,0,0:0:0:0:
256,192,101884,1,0,0:0:0:0:
256,192,101987,1,0,0:0:0:0:
256,192,102089,1,8,0:0:0:0:
256,192,102192,1,8,0:0:0:0:
256,192,102295,1,0,0:0:0:0:
256,192,102397,1,0,0:0:0:0:
256,192,102500,1,8,0:0:0:0:
256,192,102603,1,0,0:0:0:0:
256,192,102706,1,8,0:0:0:0:
256,192,102808,1,8,0:0:0:0:
256,192,102911,1,0,0:0:0:0:
256,192,103014,1,0,0:0:0:0:
256,192,103117,1,8,0:0:0:0:
256,192,103219,1,8,0:0:0:0:
256,192,103322,1,8,0:0:0:0:
256,192,103425,1,8,0:0:0:0:
256,192,103528,1,0,0:0:0:0:
256,192,103630,1,0,0:0:0:0:
256,192,103733,1,8,0:0:0:0:
256,192,103836,1,8,0:0:0:0:
256,192,103939,1,0,0:0:0:0:
256,192,104041,1,0,0:0:0:0:
256,192,104144,1,8,0:0:0:0:
256,192,104247,1,0,0:0:0:0:
256,192,104350,1,8,0:0:0:0:
256,192,104452,1,8,0:0:0:0:
256,192,104555,1,8,0:0:0:0:
256,192,104658,1,0,0:0:0:0:
256,192,104760,1,0,0:0:0:0:
256,192,104863,1,0,0:0:0:0:
256,192,104966,1,0,0:0:0:0:
256,192,105069,1,0,0:0:0:0:
256,192,105171,1,0,0:0:0:0:
256,192,105274,1,0,0:0:0:0:
256,192,105377,1,8,0:0:0:0:
256,192,105480,1,8,0:0:0:0:
256,192,105582,1,0,0:0:0:0:
256,192,105685,1,0,0:0:0:0:
256,192,105788,1,8,0:0:0:0:
256,192,105891,1,0,0:0:0:0:
256,192,105993,1,8,0:0:0:0:
256,192,106096,1,8,0:0:0:0:
256,192,106199,1,0,0:0:0:0:
256,192,106302,1,0,0:0:0:0:
256,192,106404,1,0,0:0:0:0:
256,192,106507,1,0,0:0:0:0:
256,192,106610,1,8,0:0:0:0:
256,192,106713,1,0,0:0:0:0:
256,192,106815,1,8,0:0:0:0:
256,192,106918,1,8,0:0:0:0:
256,192,107021,1,0,0:0:0:0:
256,192,107123,1,0,0:0:0:0:
256,192,107226,1,8,0:0:0:0:
256,192,107329,1,8,0:0:0:0:
256,192,107432,1,8,0:0:0:0:
256,192,107534,1,8,0:0:0:0:
256,192,107637,1,8,0:0:0:0:
256,192,107740,1,8,0:0:0:0:
256,192,107843,1,0,0:0:0:0:
256,192,107945,1,0,0:0:0:0:
256,192,108048,1,0,0:0:0:0:
256,192,108151,1,0,0:0:0:0:
256,192,108254,1,0,0:0:0:0:
256,192,108356,1,0,0:0:0:0:
256,192,108459,1,0,0:0:0:0:
256,192,108562,1,0,0:0:0:0:
256,192,108665,1,8,0:0:0:0:
256,192,108767,1,0,0:0:0:0:
256,192,108870,1,0,0:0:0:0:
256,192,108973,1,0,0:0:0:0:
256,192,109076,1,0,0:0:0:0:
256,192,109178,1,0,0:0:0:0:
256,192,109281,1,0,0:0:0:0:
256,192,109384,1,0,0:0:0:0:
256,192,109487,1,8,0:0:0:0:
256,192,109589,1,8,0:0:0:0:
256,192,109692,1,0,0:0:0:0:
256,192,109795,1,0,0:0:0:0:
256,192,109897,1,8,0:0:0:0:
256,192,110000,1,0,0:0:0:0:
256,192,110103,1,8,0:0:0:0:
256,192,110206,1,8,0:0:0:0:
256,192,110308,1,8,0:0:0:0:
256,192,110411,1,8,0:0:0:0:
256,192,110514,1,0,0:0:0:0:
256,192,110617,1,0,0:0:0:0:
256,192,110719,1,8,0:0:0:0:
256,192,110822,1,0,0:0:0:0:
256,192,110925,1,8,0:0:0:0:
256,192,111028,1,0,0:0:0:0:
256,192,111130,1,8,0:0:0:0:
256,192,111233,1,8,0:0:0:0:
256,192,111336,1,0,0:0:0:0:
256,192,111439,1,0,0:0:0:0:
256,192,111541,1,8,0:0:0:0:
256,192,111644,1,0,0:0:0:0:
256,192,111747,1,8,0:0:0:0:
256,192,111850,1,8,0:0:0:0:
256,192,111952,1,8,0:0:0:0:
256,192,112055,1,0,0:0:0:0:
256,192,112158,1,0,0:0:0:0:
256,192,112260,1,0,0:0:0:0:
256,192,112363,1,8,0:0:0:0:
256,192,112466,1,0,0:0:0:0:
256,192,112569,1,8,0:0:0:0:
256,192,112671,1,8,0:0:0:0:
256,192,112774,1,0,0:0:0:0:
256,192,112877,1,0,0:0:0:0:
256,192,112980,1,8,0:0:0:0:
256,192,113082,1,8,0:0:0:0:
256,192,113185,1,0,0:0:0:0:
256,192,113288,1,0,0:0:0:0:
256,192,113391,1,0,0:0:0:0:
256,192,113493,1,0,0:0:0:0:
256,192,113596,1,8,0:0:0:0:
256,192,113699,1,0,0:0:0:0:
256,192,113802,1,8,0:0:0:0:
256,192,113904,1,8,0:0:0:0:
256,192,114007,1,0,0:0:0:0:
256,192,114110,1,0,0:0:0:0:
256,192,114213,1,8,0:0:0:0:
256,192,114315,1,0,0:0:0:0:
256,192,114418,1,8,0:0:0:0:
256,192,114521,1,0,0:0:0:0:
256,192,114623,1,8,0:0:0:0:
256,192,114726,1,8,0:0:0:0:
256,192,114829,1,8,0:0:0:0:
256,192,114932,1,8,0:0:0:0:
256,192,115034,1,8,0:0:0:0:
256,192,115137,1,8,0:0:0:0:
256,192,115240,1,8,0:0:0:0:
256,192,115343,1,0,0:0:0:0:
256,192,115445,1,0,0:0:0:0:
256,192,115548,1,0,0:0:0:0:
256,192,115651,1,8,0:0:0:0:
256,192,115754,1,0,0:0:0:0:
256,192,115856,1,0,0:0:0:0:
256,192,115959,1,0,0:0:0:0:
256,192,116062,1,8,0:0:0:0:
256,192,116165,1,8,0:0:0:0:
256,192,116267,1,0,0:0:0:0:
256,192,116370,1,0,0:0:0:0:
256,192,116473,1,8,0:0:0:0:
256,192,116576,1,0,0:0:0:0:
256,192,116678,1,0,0:0:0:0:
256,192,116781,1,0,0:0:0:0:
256,192,116884,1,8,0:0:0:0:
256,192,116987,1,8,0:0:0:0:
256,192,117089,1,8,0:0:0:0:
256,192,117192,1,0,0:0:0:0:
256,192,117295,1,8,0:0:0:0:
256,192,117397,1,0,0:0:0:0:
256,192,117500,1,0,0:0:0:0:
256,192,117603,1,0,0:0:0:0:
256,192,117706,1,8,0:0:0:0:
256,192,117808,1,0,0:0:0:0:
256,192,117911,1,0,0:0:0:0:
256,192,118014,1,0,0:0:0:0:
256,192,118117,1,8,0:0:0:0:
256,192,118219,1,0,0:0:0:0:
256,192,118322,1,0,0:0:0:0:
256,192,118425,1,0,0:0:0:0:
256,192,118528,1,8,0:0:0:0:
256,192,118630,1,8,0:0:0:0:
256,192,118733,1,0,0:0:0:0:
256,192,118836,1,0,0:0:0:0:
256,192,118939,1,8,0:0:0:0:
256,192,119041,1,0,0:0:0:0:
256,192,119144,1,0,0:0:0:0:
256,192,119247,1,0,0:0:0:0:
256,192,119350,1,8,0:0:0:0:
256,192,119452,1,0,0:0:0:0:
256,192,119555,1,0,0:0:0:0:
256,192,119658,1,0,0:0:0:0:
256,192,119760,1,8,0:0:0:0:
256,192,119863,1,0,0:0:0:0:
256,192,119966,1,0,0:0:0:0:
256,192,120069,1,0,0:0:0:0:
256,192,120171,1,8,0:0:0:0:
256,192,120274,1,8,0:0:0:0:
256,192,120377,1,8,0:0:0:0:
256,192,120480,1,8,0:0:0:0:
256,192,120582,1,0,0:0:0:0:
256,192,120685,1,0,0:0:0:0:
256,192,120788,1,0,0:0:0:0:
256,192,120891,1,0,0:0:0:0:
256,192,120993,1,8,0:0:0:0:
256,192,121096,1,0,0:0:0:0:
256,192,121199,1,0,0:0:0:0:
256,192,121302,1,0,0:0:0:0:
256,192,121404,1,8,0:0:0:0:
256,192,121507,1,8,0:0:0:0:
256,192,121610,1,0,0:0:0:0:
256,192,121713,1,0,0:0:0:0:
256,192,121815,1,12,0:0:0:0:
256,192,122015,1,0,0:0:0:0:
256,192,122115,1,0,0:0:0:0:
256,192,122215,1,0,0:0:0:0:
256,192,122315,1,0,0:0:0:0:
256,192,122415,1,0,0:0:0:0:
256,192,122515,1,0,0:0:0:0:
256,192,122615,1,0,0:0:0:0:
256,192,122715,1,0,0:0:0:0:
256,192,122815,1,0,0:0:0:0:
256,192,122915,1,0,0:0:0:0:
256,192,123015,1,8,0:0:0:0:
256,192,123115,1,0,0:0:0:0:
256,192,123215,1,0,0:0:0:0:
256,192,123315,1,8,0:0:0:0:
256,192,123415,1,8,0:0:0:0:
256,192,123515,1,0,0:0:0:0:
256,192,123615,1,0,0:0:0:0:
256,192,123715,1,0,0:0:0:0:
256,192,123815,1,8,0:0:0:0:
256,192,123915,1,0,0:0:0:0:
256,192,124015,1,0,0:0:0:0:
256,192,124115,1,0,0:0:0:0:
256,192,124215,1,8,0:0:0:0:
256,192,124315,1,8,0:0:0:0:
256,192,124415,1,0,0:0:0:0:
256,192,124515,1,0,0:0:0:0:
256,192,124615,1,0,0:0:0:0:
256,192,124715,1,0,0:0:0:0:
256,192,124815,1,0,0:0:0:0:
256,192,124915,1,0,0:0:0:0:
256,192,125015,1,8,0:0:0:0:
256,192,125115,1,0,0:0:0:0:
256,192,125215,1,8,0:0:0:0:
256,192,125315,1,0,0:0:0:0:
256,192,125415,1,0,0:0:0:0:
256,192,125515,1,0,0:0:0:0:
256,192,125615,1,0,0:0:0:0:
256,192,125715,1,0,0:0:0:0:
256,192,125815,1,0,0:0:0:0:
256,192,125915,1,0,0:0:0:0:
256,192,126015,1,0,0:0:0:0:
256,192,126115,1,0,0:0:0:0:
256,192,126215,1,8,0:0:0:0:
256,192,126315,1,0,0:0:0:0:
256,192,126415,1,0,0:0:0:0:
256,192,126515,1,8,0:0:0:0:
256,192,126615,1,8,0:0:0:0:
256,192,126715,1,0,0:0:0:0:
256,192,126815,1,0,0:0:0:0:
256,192,126915,1,0,0:0:0:0:
256,192,127015,1,8,0:0:0:0:
256,192,127115,1,0,0:0:0:0:
256,192,127215,1,0,0:0:0:0:
256,192,127315,1,0,0:0:0:0:
256,192,127415,1,8,0:0:0:0:
256,192,127515,1,8,0:0:0:0:
256,192,127615,1,0,0:0:0:0:
256,192,127715,1,0,0:0:0:0:
256,192,127815,1,0,0:0:0:0:
256,192,127915,1,0,0:0:0:0:
256,192,128015,1,8,0:0:0:0:
256,192,128115,1,0,0:0:0:0:
256,192,128215,1,8,0:0:0:0:
256,192,128315,1,8,0:0:0:0:
256,192,128415,1,0,0:0:0:0:
256,192,128515,1,0,0:0:0:0:
256,192,128615,1,8,0:0:0:0:
256,192,128715,1,0,0:0:0:0:
256,192,128815,1,0,0:0:0:0:
256,192,128915,1,0,0:0:0:0:
256,192,129015,1,0,0:0:0:0:
256,192,129115,1,0,0:0:0:0:
256,192,129215,1,0,0:0:0:0:
256,192,129315,1,0,0:0:0:0:
256,192,129415,1,8,0:0:0:0:
256,192,129515,1,0,0:0:0:0:
256,192,129615,1,0,0:0:0:0:
256,192,129715,1,0,0:0:0:0:
256,192,129815,1,8,0:0:0:0:
256,192,129915,1,0,0:0:0:0:
256,192,130015,1,8,0:0:0:0:
256,192,130115,1,0,0:0:0:0:
256,192,130215,1,8,0:0:0:0:
256,192,130315,1,8,0:0:0:0:
256,192,130415,1,0,0:0:0:0:
256,192,130515,1,0,0:0:0:0:
256,192,130615,1,8,0:0:0:0:
256,192,130715,1,0,0:0:0:0:
256,192,130815,1,8,0:0:0:0:
256,192,130915,1,0,0:0:0:0:
256,192,131015,1,8,0:0:0:0:
256,192,131115,1,8,0:0:0:0:
256,192,131215,1,0,0:0:0:0:
256,192,131315,1,0,0:0:0:0:
256,192,131415,1,8,0:0:0:0:
256,192,131515,1,0,0:0:0:0:
256,192,131615,1,0,0:0:0:0:
256,192,131715,1,0,0:0:0:0:
256,192,131815,1,0,0:0:0:0:
256,192,131915,1,0,0:0:0:0:
256,192,132015,1,0,0:0:0:0:
256,192,132115,1,0,0:0:0:0:
256,192,132215,1,0,0:0:0:0:
256,192,132315,1,0,0:0:0:0:
256,192,132415,1,8,0:0:0:0:
256,192,132515,1,0,0:0:0:0:
256,192,132615,1,8,0:0:0:0:
256,192,132715,1,8,0:0:0:0:
256,192,132815,1,0,0:0:0:0:
256,192,132915,1,0,0:0:0:0:
256,192,133015,1,8,0:0:0:0:
256,192,133065,1,0,0:0:0:0:
256,192,133115,1,0,0:0:0:0:
256,192,133165,1,0,0:0:0:0:
256,192,133215,1,8,0:0:0:0:
256,192,133315,1,0,0:0:0:0:
256,192,133415,1,8,0:0:0:0:
256,192,133515,1,8,0:0:0:0:
256,192,133615,1,0,0:0:0:0:
256,192,133815,1,8,0:0:0:0:
256,192,133873,1,8,0:0:0:0:
256,192,133932,1,8,0:0:0:0:
256,192,133990,1,0,0:0:0:0:
256,192,134049,1,8,0:0:0:0:
256,192,134107,1,0,0:0:0:0:
256,192,134166,1,8,0:0:0:0:
256,192,134225,1,0,0:0:0:0:
256,192,134283,1,8,0:0:0:0:
256,192,134342,1,8,0:0:0:0:
256,192,134400,1,8,0:0:0:0:
256,192,134459,1,8,0:0:0:0:
256,192,134518,1,0,0:0:0:0:
256,192,134576,1,0,0:0:0:0:
256,192,134635,1,0,0:0:0:0:
256,192,134693,1,0,0:0:0:0:
256,192,134752,1,8,0:0:0:0:
256,192,134811,1,8,0:0:0:0:
256,192,134869,1,0,0:0:0:0:
256,192,134928,1,0,0:0:0:0:
256,192,134986,1,8,0:0:0:0:
256,192,135045,1,0,0:0:0:0:
256,192,135104,1,8,0:0:0:0:
256,192,135162,1,0,0:0:0:0:
256,192,135221,1,8,0:0:0:0:
256,192,135279,1,8,0:0:0:0:
256,192,135338,1,0,0:0:0:0:
256,192,135397,1,0,0:0:0:0:
256,192,135455,1,8,0:0:0:0:
256,192,135514,1,8,0:0:0:0:
256,192,135572,1,0,0:0:0:0:
256,192,135631,1,0,0:0:0:0:
256,192,135690,1,8,0:0:0:0:
256,192,135748,1,8,0:0:0:0:
256,192,135807,1,8,0:0:0:0:
256,192,135865,1,0,0:0:0:0:
256,192,135924,1,8,0:0:0:0:
256,192,135982,1,0,0:0:0:0:
256,192,136041,1,8,0:0:0:0:
256,192,136100,1,0,0:0:0:0:
256,192,136158,1,8,0:0:0:0:
256,192,136217,1,8,0:0:0:0:
256,192,136275,1,8,0:0:0:0:
256,192,136334,1,8,0:0:0:0:
256,192,136393,1,0,0:0:0:0:
256,192,136451,1,0,0:0:0:0:
256,192,136510,1,0,0:0:0:0:
256,192,136568,1,0,0:0:0:0:
256,192,136627,1,8,0:0:0:0:
256,192,136686,1,8,0:0:0:0:
256,192,136744,1,0,0:0:0:0:
256,192,136803,1,0,0:0:0:0:
256,192,136861,1,8,0:0:0:0:
256,192,136920,1,0,0:0:0:0:
256,192,136979,1,8,0:0:0:0:
256,192,137037,1,0,0:0:0:0:
256,192,137096,1,8,0:0:0:0:
256,192,137154,1,0,0:0:0:0:
256,192,137213,1,8,0:0:0:0:
256,192,137272,1,0,0:0:0:0:
256,192,137330,1,8,0:0:0:0:
256,192,137389,1,8,0:0:0:0:
256,192,137447,1,0,0:0:0:0:
256,192,137506,1,0,0:0:0:0:
256,192,137565,1,8,0:0:0:0:
256,192,137623,1,8,0:0:0:0:
256,192,137682,1,8,0:0:0:0:
256,192,137740,1,0,0:0:0:0:
256,192,137799,1,8,0:0:0:0:
256,192,137857,1,0,0:0:0:0:
256,192,137916,1,8,0:0:0:0:
256,192,137975,1,0,0:0:0:0:
256,192,138033,1,8,0:0:0:0:
256,192,138092,1,8,0:0:0:0:
256,192,138150,1,8,0:0:0:0:
256,192,138209,1,8,0:0:0:0:
256,192,138268,1,0,0:0:0:0:
256,192,138326,1,0,0:0:0:0:
256,192,138385,1,0,0:0:0:0:
256,192,138443,1,0,0:0:0:0:
256,192,138502,1,8,0:0:0:0:
256,192,138561,1,8,0:0:0:0:
256,192,138619,1,0,0:0:0:0:
256,192,138678,1,0,0:0:0:0:
256,192,138736,1,8,0:0:0:0:
256,192,138795,1,0,0:0:0:0:
256,192,138854,1,8,0:0:0:0:
256,192,138912,1,0,0:0:0:0:
256,192,138971,1,8,0:0:0:0:
256,192,139029,1,8,0:0:0:0:
256,192,139088,1,0,0:0:0:0:
256,192,139147,1,0,0:0:0:0:
256,192,139205,1,8,0:0:0:0:
256,192,139264,1,8,0:0:0:0:
256,192,139322,1,0,0:0:0:0:
256,192,139381,1,0,0:0:0:0:
256,192,139440,1,8,0:0:0:0:
256,192,139498,1,8,0:0:0:0:
256,192,139557,1,8,0:0:0:0:
256,192,139615,1,0,0:0:0:0:
256,192,139674,1,8,0:0:0:0:
256,192,139732,1,0,0:0:0:0:
256,192,139791,1,8,0:0:0:0:
256,192,139850,1,0,0:0:0:0:
256,192,139908,1,8,0:0:0:0:
256,192,139967,1,8,0:0:0:0:
256,192,140025,1,8,0:0:0:0:
256,192,140084,1,8,0:0:0:0:
256,192,140143,1,0,0:0:0:0:
256,192,140201,1,0,0:0:0:0:
256,192,140260,1,0,0:0:0:0:
256,192,140318,1,0,0:0:0:0:
256,192,140377,1,8,0:0:0:0:
256,192,140436,1,8,0:0:0:0:
256,192,140494,1,0,0:0:0:0:
256,192,140553,1,0,0:0:0:0:
256,192,140611,1,8,0:0:0:0:
256,192,140670,1,8,0:0:0:0:
256,192,140729,1,8,0:0:0:0:
256,192,140787,1,8,0:0:0:0:
256,192,140846,1,0,0:0:0:0:
256,192,140904,1,0,0:0:0:0:
256,192,140963,1,0,0:0:0:0:
256,192,141022,1,0,0:0:0:0:
256,192,141080,1,0,0:0:0:0:
256,192,141139,1,0,0:0:0:0:
256,192,141197,1,0,0:0:0:0:
256,192,141256,1,0,0:0:0:0:
256,192,141315,1,8,0:0:0:0:
256,192,141373,1,8,0:0:0:0:
256,192,141432,1,0,0:0:0:0:
256,192,141490,1,8,0:0:0:0:
256,192,141549,1,0,0:0:0:0:
256,192,141607,1,0,0:0:0:0:
256,192,141666,1,8,0:0:0:0:
256,192,141725,1,0,0:0:0:0:
256,192,141783,1,8,0:0:0:0:
256,192,141842,1,8,0:0:0:0:
256,192,141900,1,0,0:0:0:0:
256,192,141959,1,0,0:0:0:0:
256,192,142018,1,8,0:0:0:0:
256,192,142076,1,0,0:0:0:0:
256,192,142135,1,0,0:0:0:0:
256,192,142193,1,0,0:0:0:0:
256,192,142252,1,8,0:0:0:0:
256,192,142311,1,8,0:0:0:0:
256,192,142369,1,0,0:0:0:0:
256,192,142428,1,8,0:0:0:0:
256,192,142486,1,0,0:0:0:0:
256,192,142545,1,0,0:0:0:0:
256,192,142604,1,8,0:0:0:0:
256,192,142662,1,0,0:0:0:0:
256,192,142721,1,8,0:0:0:0:
256,192,142779,1,8,0:0:0:0:
256,192,142838,1,0,0:0:0:0:
256,192,142897,1,0,0:0:0:0:
256,192,142955,1,8,0:0:0:0:
256,192,143014,1,0,0:0:0:0:
256,192,143072,1,0,0:0:0:0:
256,192,143131,1,0,0:0:0:0:
256,192,143190,1,8,0:0:0:0:
256,192,143248,1,8,0:0:0:0:
256,192,143307,1,8,0:0:0:0:
256,192,143365,1,8,0:0:0:0:
256,192,143424,1,0,0:0:0:0:
256,192,143482,1,0,0:0:0:0:
256,192,143541,1,8,0:0:0:0:
256,192,143600,1,0,0:0:0:0:
256,192,143658,1,8,0:0:0:0:
256,192,143717,1,8,0:0:0:0:
256,192,143775,1,0,0:0:0:0:
256,192,143834,1,0,0:0:0:0:
256,192,143893,1,8,0:0:0:0:
256,192,143951,1,0,0:0:0:0:
256,192,144010,1,0,0:0:0:0:
256,192,144068,1,0,0:0:0:0:
256,192,144127,1,8,0:0:0:0:
256,192,144186,1,8,0:0:0:0:
256,192,144244,1,8,0:0:0:0:
256,192,144303,1,8,0:0:0:0:
256,192,144361,1,0,0:0:0:0:
256,192,144420,1,0,0:0:0:0:
256,192,144479,1,8,0:0:0:0:
256,192,144537,1,8,0:0:0:0:
256,192,144596,1,0,0:0:0:0:
256,192,144654,1,0,0:0:0:0:
256,192,144713,1,0,0:0:0:0:
256,192,144772,1,0,0:0:0:0:
256,192,144830,1,8,0:0:0:0:
256,192,144889,1,0,0:0:0:0:
256,192,144947,1,0,0:0:0:0:
256,192,145006,1,0,0:0:0:0:
256,192,145065,1,8,0:0:0:0:
256,192,145123,1,0,0:0:0:0:
256,192,145182,1,0,0:0:0:0:
256,192,145240,1,8,0:0:0:0:
256,192,145299,1,0,0:0:0:0:
256,192,145357,1,0,0:0:0:0:
256,192,145416,1,8,0:0:0:0:
256,192,145475,1,0,0:0:0:0:
256,192,145533,1,8,0:0:0:0:
256,192,145592,1,0,0:0:0:0:
256,192,145650,1,0,0:0:0:0:
256,192,145709,1,8,0:0:0:0:
256,192,145768,1,0,0:0:0:0:
256,192,145826,1,0,0:0:0:0:
256,192,145885,1,8,0:0:0:0:
256,192,145943,1,0,0:0:0:0:
256,192,146002,1,8,0:0:0:0:
256,192,146061,1,8,0:0:0:0:
256,192,146119,1,0,0:0:0:0:
256,192,146178,1,8,0:0:0:0:
256,192,146236,1,8,0:0:0:0:
256,192,146295,1,0,0:0:0:0:
256,192,146354,1,8,0:0:0:0:
256,192,146412,1,0,0:0:0:0:
256,192,146471,1,8,0:0:0:0:
256,192,146529,1,8,0:0:0:0:
256,192,146588,1,0,0:0:0:0:
256,192,146647,1,8,0:0:0:0:
256,192,146705,1,8,0:0:0:0:
256,192,146764,1,0,0:0:0:0:
256,192,146822,1,8,0:0:0:0:
256,192,146881,1,0,0:0:0:0:
256,192,146940,1,8,0:0:0:0:
256,192,146998,1,8,0:0:0:0:
256,192,147057,1,8,0:0:0:0:
256,192,147115,1,0,0:0:0:0:
256,192,147174,1,0,0:0:0:0:
256,192,147232,1,0,0:0:0:0:
256,192,147291,1,8,0:0:0:0:
256,192,147350,1,8,0:0:0:0:
256,192,147408,1,0,0:0:0:0:
256,192,147467,1,0,0:0:0:0:
256,192,147525,1,0,0:0:0:0:
256,192,147584,1,8,0:0:0:0:
256,192,147643,1,8,0:0:0:0:
256,192,147701,1,8,0:0:0:0:
256,192,147760,1,0,0:0:0:0:
256,192,147818,1,0,0:0:0:0:
256,192,147877,1,8,0:0:0:0:
256,192,147936,1,0,0:0:0:0:
256,192,147994,1,0,0:0:0:0:
256,192,148053,1,0,0:0:0:0:
256,192,148111,1,8,0:0:0:0:
256,192,148170,1,8,0:0:0:0:
256,192,148229,1,0,0:0:0:0:
256,192,148287,1,0,0:0:0:0:
256,192,148346,1,8,0:0:0:0:
256,192,148404,1,8,0:0:0:0:
256,192,148463,1,8,0:0:0:0:
256,192,148522,1,8,0:0:0:0:
256,192,148580,1,0,0:0:0:0:
256,192,148639,1,0,0:0:0:0:
256,192,148697,1,0,0:0:0:0:
256,192,148756,1,0,0:0:0:0:
256,192,148815,1,8,0:0:0:0:
256,192,148873,1,8,0:0:0:0:
256,192,148932,1,8,0:0:0:0:
256,192,148990,1,8,0:0:0:0:
256,192,149049,1,8,0:0:0:0:
256,192,149107,1,8,0:0:0:0:
256,192,149166,1,0,0:0:0:0:
256,192,149225,1,0,0:0:0:0:
256,192,149283,1,8,0:0:0:0:
256,192,149342,1,8,0:0:0:0:
256,192,149400,1,8,0:0:0:0:
256,192,149459,1,8,0:0:0:0:
256,192,149518,1,8,0:0:0:0:
256,192,149576,1,8,0:0:0:0:
256,192,149635,1,8,0:0:0:0:
256,192,149693,1,8,0:0:0:0:
256,192,149752,1,8,0:0:0:0:
256,192,149811,1,8,0:0:0:0:
256,192,149869,1,8,0:0:0:0:
256,192,149928,1,8,0:0:0:0:
256,192,149986,1,8,0:0:0:0:
256,192,150045,1,8,0:0:0:0:
256,192,150104,1,0,0:0:0:0:
256,192,150162,1,0,0:0:0:0:
256,192,150221,1,8,0:0:0:0:
256,192,150279,1,8,0:0:0:0:
256,192,150338,1,8,0:0:0:0:
256,192,150397,1,8,0:0:0:0:
256,192,150455,1,0,0:0:0:0:
256,192,150514,1,0,0:0:0:0:
256,192,150572,1,0,0:0:0:0:
256,192,150631,1,0,0:0:0:0:
256,192,150690,1,8,0:0:0:0:
256,192,150748,1,8,0:0:0:0:
256,192,150807,1,8,0:0:0:0:
256,192,150865,1,8,0:0:0:0:
256,192,150924,1,8,0:0:0:0:
256,192,150982,1,8,0:0:0:0:
256,192,151041,1,0,0:0:0:0:
256,192,151100,1,0,0:0:0:0:
256,192,151158,1,8,0:0:0:0:
256,192,151217,1,8,0:0:0:0:
256,192,151275,1,8,0:0:0:0:
256,192,151334,1,8,0:0:0:0:
256,192,151393,1,8,0:0:0:0:
256,192,151451,1,8,0:0:0:0:
256,192,151510,1,8,0:0:0:0:
256,192,151568,1,8,0:0:0:0:
256,192,151627,1,8,0:0:0:0:
256,192,151686,1,8,0:0:0:0:
256,192,151744,1,8,0:0:0:0:
256,192,151803,1,8,0:0:0:0:
256,192,151861,1,8,0:0:0:0:
256,192,151920,1,8,0:0:0:0:
256,192,151979,1,0,0:0:0:0:
256,192,152037,1,0,0:0:0:0:
256,192,152096,1,8,0:0:0:0:
256,192,152154,1,8,0:0:0:0:
256,192,152213,1,8,0:0:0:0:
256,192,152272,1,8,0:0:0:0:
256,192,152330,1,0,0:0:0:0:
256,192,152389,1,0,0:0:0:0:
256,192,152447,1,0,0:0:0:0:
256,192,152506,1,0,0:0:0:0:
256,192,152565,1,8,0:0:0:0:
256,192,152623,1,8,0:0:0:0:
256,192,152682,1,8,0:0:0:0:
256,192,152740,1,8,0:0:0:0:
256,192,152799,1,8,0:0:0:0:
256,192,152857,1,8,0:0:0:0:
256,192,152916,1,0,0:0:0:0:
256,192,152975,1,0,0:0:0:0:
256,192,153033,1,8,0:0:0:0:
256,192,153092,1,8,0:0:0:0:
256,192,153150,1,8,0:0:0:0:
256,192,153209,1,8,0:0:0:0:
256,192,153268,1,8,0:0:0:0:
256,192,153326,1,8,0:0:0:0:
256,192,153385,1,8,0:0:0:0:
256,192,153443,1,8,0:0:0:0:
256,192,153502,1,8,0:0:0:0:
256,192,153561,1,8,0:0:0:0:
256,192,153619,1,8,0:0:0:0:
256,192,153678,1,8,0:0:0:0:
256,192,153736,1,8,0:0:0:0:
256,192,153795,1,8,0:0:0:0:
256,192,153854,1,0,0:0:0:0:
256,192,153912,1,0,0:0:0:0:
256,192,153971,1,8,0:0:0:0:
256,192,154029,1,8,0:0:0:0:
256,192,154088,1,8,0:0:0:0:
256,192,154147,1,8,0:0:0:0:
256,192,154205,1,8,0:0:0:0:
256,192,154264,1,8,0:0:0:0:
256,192,154322,1,0,0:0:0:0:
256,192,154381,1,0,0:0:0:0:
256,192,154440,1,8,0:0:0:0:
256,192,154498,1,8,0:0:0:0:
256,192,154557,1,8,0:0:0:0:
256,192,154615,1,8,0:0:0:0:
256,192,154674,1,8,0:0:0:0:
256,192,154732,1,8,0:0:0:0:
256,192,154791,1,0,0:0:0:0:
256,192,154850,1,0,0:0:0:0:
256,192,154908,1,8,0:0:0:0:
256,192,154967,1,8,0:0:0:0:
256,192,155025,1,0,0:0:0:0:
256,192,155084,1,0,0:0:0:0:
256,192,155143,1,8,0:0:0:0:
256,192,155201,1,8,0:0:0:0:
256,192,155260,1,8,0:0:0:0:
256,192,155318,1,8,0:0:0:0:
256,192,155377,1,0,0:0:0:0:
256,192,155436,1,0,0:0:0:0:
256,192,155494,1,0,0:0:0:0:
256,192,155553,1,0,0:0:0:0:
256,192,155611,1,8,0:0:0:0:
256,192,155670,1,8,0:0:0:0:
256,192,155729,1,0,0:0:0:0:
256,192,155787,1,0,0:0:0:0:
256,192,155846,1,8,0:0:0:0:
256,192,155904,1,8,0:0:0:0:
256,192,155963,1,8,0:0:0:0:
256,192,156022,1,8,0:0:0:0:
256,192,156080,1,0,0:0:0:0:
256,192,156139,1,0,0:0:0:0:
256,192,156197,1,0,0:0:0:0:
256,192,156256,1,0,0:0:0:0:
256,192,156315,1,8,0:0:0:0:
256,192,156373,1,0,0:0:0:0:
256,192,156432,1,8,0:0:0:0:
256,192,156490,1,8,0:0:0:0:
256,192,156549,1,0,0:0:0:0:
256,192,156607,1,0,0:0:0:0:
256,192,156666,1,8,0:0:0:0:
256,192,156725,1,0,0:0:0:0:
256,192,156783,1,8,0:0:0:0:
256,192,156842,1,8,0:0:0:0:
256,192,156900,1,0,0:0:0:0:
256,192,156959,1,0,0:0:0:0:
256,192,157018,1,8,0:0:0:0:
256,192,157076,1,0,0:0:0:0:
256,192,157135,1,0,0:0:0:0:
256,192,157193,1,0,0:0:0:0:
256,192,157252,1,8,0:0:0:0:
256,192,157311,1,8,0:0:0:0:
256,192,157369,1,0,0:0:0:0:
256,192,157428,1,0,0:0:0:0:
256,192,157486,1,8,0:0:0:0:
256,192,157545,1,8,0:0:0:0:
256,192,157604,1,0,0:0:0:0:
256,192,157662,1,0,0:0:0:0:
256,192,157721,1,8,0:0:0:0:
256,192,157779,1,8,0:0:0:0:
256,192,157838,1,8,0:0:0:0:
256,192,157897,1,0,0:0:0:0:
256,192,157955,1,8,0:0:0:0:
256,192,158014,1,8,0:0:0:0:
256,192,158072,1,8,0:0:0:0:
256,192,158131,1,0,0:0:0:0:
256,192,158190,1,8,0:0:0:0:
256,192,158248,1,0,0:0:0:0:
256,192,158307,1,8,0:0:0:0:
256,192,158365,1,8,0:0:0:0:
256,192,158424,1,0,0:0:0:0:
256,192,158482,1,0,0:0:0:0:
256,192,158541,1,8,0:0:0:0:
256,192,158600,1,0,0:0:0:0:
256,192,158658,1,8,0:0:0:0:
256,192,158717,1,8,0:0:0:0:
256,192,158775,1,0,0:0:0:0:
256,192,158834,1,0,0:0:0:0:
256,192,158893,1,8,0:0:0:0:
256,192,158951,1,0,0:0:0:0:
256,192,159010,1,0,0:0:0:0:
256,192,159068,1,0,0:0:0:0:
256,192,159127,1,8,0:0:0:0:
256,192,159186,1,0,0:0:0:0:
256,192,159244,1,8,0:0:0:0:
256,192,159303,1,0,0:0:0:0:
256,192,159361,1,8,0:0:0:0:
256,192,159420,1,8,0:0:0:0:
256,192,159479,1,0,0:0:0:0:
256,192,159537,1,0,0:0:0:0:
256,192,159596,1,8,0:0:0:0:
256,192,159654,1,0,0:0:0:0:
256,192,159713,1,8,0:0:0:0:
256,192,159772,1,0,0:0:0:0:
256,192,159830,1,8,0:0:0:0:
256,192,159889,1,8,0:0:0:0:
256,192,159947,1,8,0:0:0:0:
256,192,160006,1,0,0:0:0:0:
256,192,160065,1,8,0:0:0:0:
256,192,160123,1,8,0:0:0:0:
256,192,160182,1,0,0:0:0:0:
256,192,160240,1,8,0:0:0:0:
256,192,160299,1,0,0:0:0:0:
256,192,160357,1,0,0:0:0:0:
256,192,160416,1,8,0:0:0:0:
256,192,160475,1,0,0:0:0:0:
256,192,160533,1,8,0:0:0:0:
256,192,160592,1,8,0:0:0:0:
256,192,160650,1,0,0:0:0:0:
256,192,160709,1,0,0:0:0:0:
256,192,160768,1,8,0:0:0:0:
256,192,160826,1,0,0:0:0:0:
256,192,160885,1,0,0:0:0:0:
256,192,160943,1,0,0:0:0:0:
256,192,161002,1,8,0:0:0:0:
256,192,161061,1,8,0:0:0:0:
256,192,161119,1,8,0:0:0:0:
256,192,161178,1,0,0:0:0:0:
256,192,161236,1,8,0:0:0:0:
256,192,161295,1,8,0:0:0:0:
256,192,161354,1,0,0:0:0:0:
256,192,161412,1,8,0:0:0:0:
256,192,161471,1,0,0:0:0:0:
256,192,161529,1,0,0:0:0:0:
256,192,161588,1,8,0:0:0:0:
256,192,161647,1,0,0:0:0:0:
256,192,161705,1,8,0:0:0:0:
256,192,161764,1,8,0:0:0:0:
256,192,161822,1,0,0:0:0:0:
256,192,161881,1,0,0:0:0:0:
256,192,161940,1,8,0:0:0:0:
256,192,161998,1,8,0:0:0:0:
256,192,162057,1,8,0:0:0:0:
256,192,162115,1,8,0:0:0:0:
256,192,162174,1,8,0:0:0:0:
256,192,162232,1,8,0:0:0:0:
256,192,162291,1,8,0:0:0:0:
256,192,162350,1,8,0:0:0:0:
256,192,162408,1,8,0:0:0:0:
256,192,162467,1,8,0:0:0:0:
256,192,162525,1,8,0:0:0:0:
256,192,162584,1,8,0:0:0:0:
256,192,162643,1,0,0:0:0:0:
256,192,162701,1,0,0:0:0:0:
256,192,162760,1,0,0:0:0:0:
256,192,162818,1,0,0:0:0:0:
256,192,162877,1,8,0:0:0:0:
256,192,162936,1,8,0:0:0:0:
256,192,162994,1,0,0:0:0:0:
256,192,163053,1,0,0:0:0:0:
256,192,163111,1,8,0:0:0:0:
256,192,163170,1,0,0:0:0:0:
256,192,163229,1,8,0:0:0:0:
256,192,163287,1,0,0:0:0:0:
256,192,163346,1,8,0:0:0:0:
256,192,163404,1,8,0:0:0:0:
256,192,163463,1,0,0:0:0:0:
256,192,163522,1,0,0:0:0:0:
256,192,163580,1,8,0:0:0:0:
256,192,163639,1,0,0:0:0:0:
256,192,163697,1,8,0:0:0:0:
256,192,163815,1,4,0:0:0:0:
256,192,164636,1,8,0:0:0:0:
256,192,165253,1,0,0:0:0:0:
256,192,165458,1,4,0:0:0:0:
256,192,166280,1,8,0:0:0:0:
256,192,166897,1,0,0:0:0:0:
256,192,167102,1,12,0:0:0:0:
256,192,167924,1,8,0:0:0:0:
256,192,168541,1,0,0:0:0:0:
256,192,168746,1,4,0:0:0:0:
256,192,169568,1,8,0:0:0:0:
256,192,169876,1,8,0:0:0:0:
256,192,170184,1,0,0:0:0:0:
256,192,170390,1,4,0:0:0:0:
256,192,171212,1,8,0:0:0:0:
256,192,171828,1,0,0:0:0:0:
256,192,172034,1,12,0:0:0:0:
256,192,172856,1,8,0:0:0:0:
256,192,173472,1,0,0:0:0:0:
256,192,173678,1,12,0:0:0:0:
256,192,174499,1,8,0:0:0:0:
256,192,175116,1,0,0:0:0:0:
256,192,175321,1,4,0:0:0:0:
256,192,175938,1,0,0:0:0:0:
256,192,176006,1,0,0:0:0:0:
256,192,176075,1,0,0:0:0:0:
256,192,176143,1,8,0:0:0:0:
256,192,176417,1,8,0:0:0:0:
256,192,176691,1,8,0:0:0:0:
256,192,176965,1,4,0:0:0:0:
256,192,177171,1,8,0:0:0:0:
256,192,177376,1,0,0:0:0:0:
256,192,177582,1,0,0:0:0:0:
256,192,177787,1,8,0:0:0:0:
256,192,177993,1,0,0:0:0:0:
256,192,178198,1,0,0:0:0:0:
256,192,178404,1,0,0:0:0:0:
256,192,178609,1,12,0:0:0:0:
256,192,178815,1,0,0:0:0:0:
256,192,179020,1,8,0:0:0:0:
256,192,179225,1,8,0:0:0:0:
256,192,179431,1,0,0:0:0:0:
256,192,179636,1,8,0:0:0:0:
256,192,179842,1,8,0:0:0:0:
256,192,180047,1,8,0:0:0:0:
256,192,180253,1,4,0:0:0:0:
256,192,180458,1,8,0:0:0:0:
256,192,180664,1,0,0:0:0:0:
256,192,180869,1,0,0:0:0:0:
256,192,180938,1,0,0:0:0:0:
256,192,181006,1,0,0:0:0:0:
256,192,181075,1,12,0:0:0:0:
256,192,181349,1,12,0:0:0:0:
256,192,181623,1,12,0:0:0:0:
256,192,181897,1,4,0:0:0:0:
256,192,182308,1,8,0:0:0:0:
256,192,182513,1,0,0:0:0:0:
256,192,182616,1,0,0:0:0:0:
256,192,182719,1,8,0:0:0:0:
256,192,182821,1,8,0:0:0:0:
256,192,182924,1,0,0:0:0:0:
256,192,183130,1,0,0:0:0:0:
256,192,183232,1,0,0:0:0:0:
256,192,183335,1,0,0:0:0:0:
256,192,183541,1,4,0:0:0:0:
256,192,183746,1,8,0:0:0:0:
256,192,183951,1,0,0:0:0:0:
256,192,184157,1,0,0:0:0:0:
256,192,184362,1,8,0:0:0:0:
256,192,184568,1,0,0:0:0:0:
256,192,184773,1,0,0:0:0:0:
256,192,184979,1,0,0:0:0:0:
256,192,185184,1,12,0:0:0:0:
256,192,185390,1,0,0:0:0:0:
256,192,185595,1,8,0:0:0:0:
256,192,185801,1,8,0:0:0:0:
256,192,186006,1,0,0:0:0:0:
256,192,186212,1,8,0:0:0:0:
256,192,186417,1,8,0:0:0:0:
256,192,186623,1,8,0:0:0:0:
256,192,186828,1,4,0:0:0:0:
256,192,187034,1,8,0:0:0:0:
256,192,187239,1,0,0:0:0:0:
256,192,187445,1,0,0:0:0:0:
256,192,187650,1,8,0:0:0:0:
256,192,187856,1,0,0:0:0:0:
256,192,188061,1,0,0:0:0:0:
256,192,188267,1,0,0:0:0:0:
256,192,188472,1,12,0:0:0:0:
256,192,188678,1,0,0:0:0:0:
256,192,188883,1,8,0:0:0:0:
256,192,189088,1,0,0:0:0:0:
256,192,189157,1,0,0:0:0:0:
256,192,189225,1,0,0:0:0:0:
256,192,189294,1,8,0:0:0:0:
256,192,189499,1,0,0:0:0:0:
256,192,189568,1,0,0:0:0:0:
256,192,189636,1,0,0:0:0:0:
256,192,189705,1,8,0:0:0:0:
256,192,189910,1,8,0:0:0:0:
256,192,190013,1,8,0:0:0:0:
256,192,190116,1,0,0:0:0:0:
256,192,190219,1,0,0:0:0:0:
256,192,190321,1,0,0:0:0:0:
256,192,190424,1,0,0:0:0:0:
256,192,190527,1,0,0:0:0:0:
256,192,190630,1,0,0:0:0:0:
256,192,190732,1,0,0:0:0:0:
256,192,190835,1,0,0:0:0:0:
256,192,190938,1,8,0:0:0:0:
256,192,191041,1,8,0:0:0:0:
256,192,191143,1,0,0:0:0:0:
256,192,191246,1,0,0:0:0:0:
256,192,191349,1,8,0:0:0:0:
256,192,191451,1,0,0:0:0:0:
256,192,191554,1,8,0:0:0:0:
256,192,191657,1,8,0:0:0:0:
256,192,191760,1,0,0:0:0:0:
256,192,191862,1,0,0:0:0:0:
256,192,191965,1,0,0:0:0:0:
256,192,192068,1,0,0:0:0:0:
256,192,192171,1,8,0:0:0:0:
256,192,192273,1,0,0:0:0:0:
256,192,192376,1,8,0:0:0:0:
256,192,192479,1,0,0:0:0:0:
256,192,192582,1,8,0:0:0:0:
256,192,192684,1,8,0:0:0:0:
256,192,192787,1,0,0:0:0:0:
256,192,192890,1,0,0:0:0:0:
256,192,192993,1,8,0:0:0:0:
256,192,193095,1,0,0:0:0:0:
256,192,193198,1,8,0:0:0:0:
256,192,193301,1,8,0:0:0:0:
256,192,193404,1,0,0:0:0:0:
256,192,193506,1,0,0:0:0:0:
256,192,193609,1,0,0:0:0:0:
256,192,193712,1,0,0:0:0:0:
256,192,193815,1,8,0:0:0:0:
256,192,193917,1,0,0:0:0:0:
256,192,194020,1,8,0:0:0:0:
256,192,194123,1,8,0:0:0:0:
256,192,194225,1,0,0:0:0:0:
256,192,194328,1,0,0:0:0:0:
256,192,194431,1,8,0:0:0:0:
256,192,194534,1,8,0:0:0:0:
256,192,194636,1,8,0:0:0:0:
256,192,194739,1,8,0:0:0:0:
256,192,194842,1,0,0:0:0:0:
256,192,194945,1,0,0:0:0:0:
256,192,195047,1,8,0:0:0:0:
256,192,195150,1,0,0:0:0:0:
256,192,195253,1,8,0:0:0:0:
256,192,195356,1,8,0:0:0:0:
256,192,195458,1,0,0:0:0:0:
256,192,195561,1,0,0:0:0:0:
256,192,195664,1,8,0:0:0:0:
256,192,195767,1,8,0:0:0:0:
256,192,195869,1,8,0:0:0:0:
256,192,195972,1,0,0:0:0:0:
256,192,196075,1,8,0:0:0:0:
256,192,196178,1,8,0:0:0:0:
256,192,196280,1,8,0:0:0:0:
256,192,196383,1,8,0:0:0:0:
256,192,196486,1,0,0:0:0:0:
256,192,196588,1,0,0:0:0:0:
256,192,196691,1,8,0:0:0:0:
256,192,196794,1,8,0:0:0:0:
256,192,196897,1,8,0:0:0:0:
256,192,196999,1,0,0:0:0:0:
256,192,197102,1,8,0:0:0:0:
256,192,197205,1,0,0:0:0:0:
256,192,197308,1,0,0:0:0:0:
256,192,197410,1,0,0:0:0:0:
256,192,197513,1,8,0:0:0:0:
256,192,197616,1,8,0:0:0:0:
256,192,197719,1,0,0:0:0:0:
256,192,197821,1,0,0:0:0:0:
256,192,197924,1,8,0:0:0:0:
256,192,198027,1,0,0:0:0:0:
256,192,198130,1,0,0:0:0:0:
256,192,198232,1,0,0:0:0:0:
256,192,198335,1,8,0:0:0:0:
256,192,198438,1,8,0:0:0:0:
256,192,198541,1,8,0:0:0:0:
256,192,198643,1,0,0:0:0:0:
256,192,198746,1,8,0:0:0:0:
256,192,198849,1,0,0:0:0:0:
256,192,198951,1,0,0:0:0:0:
256,192,199054,1,0,0:0:0:0:
256,192,199157,1,8,0:0:0:0:
256,192,199260,1,8,0:0:0:0:
256,192,199362,1,0,0:0:0:0:
256,192,199465,1,0,0:0:0:0:
256,192,199568,1,8,0:0:0:0:
256,192,199671,1,0,0:0:0:0:
256,192,199773,1,0,0:0:0:0:
256,192,199876,1,0,0:0:0:0:
256,192,199979,1,8,0:0:0:0:
256,192,200082,1,8,0:0:0:0:
256,192,200184,1,8,0:0:0:0:
256,192,200287,1,0,0:0:0:0:
256,192,200390,1,8,0:0:0:0:
256,192,200493,1,0,0:0:0:0:
256,192,200595,1,0,0:0:0:0:
256,192,200698,1,0,0:0:0:0:
256,192,200801,1,8,0:0:0:0:
256,192,200904,1,8,0:0:0:0:
256,192,201006,1,0,0:0:0:0:
256,192,201109,1,0,0:0:0:0:
256,192,201212,1,8,0:0:0:0:
256,192,201315,1,0,0:0:0:0:
256,192,201417,1,0,0:0:0:0:
256,192,201520,1,0,0:0:0:0:
256,192,201623,1,8,0:0:0:0:
256,192,201725,1,0,0:0:0:0:
256,192,201828,1,8,0:0:0:0:
256,192,201931,1,8,0:0:0:0:
256,192,202034,1,8,0:0:0:0:
256,192,202136,1,8,0:0:0:0:
256,192,202239,1,8,0:0:0:0:
256,192,202342,1,8,0:0:0:0:
256,192,202445,1,0,0:0:0:0:
256,192,202547,1,0,0:0:0:0:
256,192,202650,1,0,0:0:0:0:
256,192,202753,1,0,0:0:0:0:
256,192,202856,1,0,0:0:0:0:
256,192,202958,1,0,0:0:0:0:
256,192,203061,1,0,0:0:0:0:
256,192,203164,1,0,0:0:0:0:
256,192,203267,1,8,0:0:0:0:
256,192,203369,1,0,0:0:0:0:
256,192,203472,1,0,0:0:0:0:
256,192,203575,1,0,0:0:0:0:
256,192,203678,1,0,0:0:0:0:
256,192,203780,1,0,0:0:0:0:
256,192,203883,1,0,0:0:0:0:
256,192,203986,1,0,0:0:0:0:
256,192,204088,1,8,0:0:0:0:
256,192,204191,1,8,0:0:0:0:
256,192,204294,1,0,0:0:0:0:
256,192,204397,1,0,0:0:0:0:
256,192,204499,1,8,0:0:0:0:
256,192,204602,1,0,0:0:0:0:
256,192,204705,1,0,0:0:0:0:
256,192,204808,1,0,0:0:0:0:
256,192,204910,1,8,0:0:0:0:
256,192,205013,1,8,0:0:0:0:
256,192,205116,1,0,0:0:0:0:
256,192,205219,1,0,0:0:0:0:
256,192,205321,1,8,0:0:0:0:
256,192,205424,1,8,0:0:0:0:
256,192,205527,1,8,0:0:0:0:
256,192,205630,1,8,0:0:0:0:
256,192,205732,1,8,0:0:0:0:
256,192,205835,1,8,0:0:0:0:
256,192,205938,1,8,0:0:0:0:
256,192,206041,1,8,0:0:0:0:
256,192,206143,1,0,0:0:0:0:
256,192,206246,1,0,0:0:0:0:
256,192,206349,1,0,0:0:0:0:
256,192,206451,1,0,0:0:0:0:
256,192,206554,1,8,0:0:0:0:
256,192,206657,1,0,0:0:0:0:
256,192,206760,1,0,0:0:0:0:
256,192,206862,1,0,0:0:0:0:
256,192,206965,1,0,0:0:0:0:
256,192,207068,1,0,0:0:0:0:
256,192,207171,1,0,0:0:0:0:
256,192,207273,1,0,0:0:0:0:
256,192,207376,1,8,0:0:0:0:
256,192,207479,1,8,0:0:0:0:
256,192,207582,1,0,0:0:0:0:
256,192,207684,1,0,0:0:0:0:
256,192,207787,1,8,0:0:0:0:
256,192,207890,1,0,0:0:0:0:
256,192,207993,1,0,0:0:0:0:
256,192,208095,1,0,0:0:0:0:
256,192,208198,1,8,0:0:0:0:
256,192,208301,1,8,0:0:0:0:
256,192,208404,1,0,0:0:0:0:
256,192,208506,1,0,0:0:0:0:
256,192,208609,1,8,0:0:0:0:
256,192,208712,1,8,0:0:0:0:
256,192,208815,1,8,0:0:0:0:
256,192,208917,1,0,0:0:0:0:
256,192,209020,1,8,0:0:0:0:
256,192,209123,1,0,0:0:0:0:
256,192,209225,1,8,0:0:0:0:
256,192,209328,1,8,0:0:0:0:
256,192,209431,1,8,0:0:0:0:
256,192,209534,1,8,0:0:0:0:
256,192,209636,1,0,0:0:0:0:
256,192,209739,1,0,0:0:0:0:
256,192,209842,1,8,0:0:0:0:
256,192,209945,1,0,0:0:0:0:
256,192,210047,1,0,0:0:0:0:
256,192,210150,1,0,0:0:0:0:
256,192,210253,1,0,0:0:0:0:
256,192,210356,1,0,0:0:0:0:
256,192,210458,1,0,0:0:0:0:
256,192,210561,1,0,0:0:0:0:
256,192,210664,1,8,0:0:0:0:
256,192,210767,1,8,0:0:0:0:
256,192,210869,1,0,0:0:0:0:
256,192,210972,1,0,0:0:0:0:
256,192,211075,1,8,0:0:0:0:
256,192,211178,1,0,0:0:0:0:
256,192,211280,1,0,0:0:0:0:
256,192,211383,1,0,0:0:0:0:
256,192,211486,1,8,0:0:0:0:
256,192,211588,1,8,0:0:0:0:
256,192,211691,1,0,0:0:0:0:
256,192,211794,1,0,0:0:0:0:
256,192,211897,1,8,0:0:0:0:
256,192,211999,1,8,0:0:0:0:
256,192,212102,1,8,0:0:0:0:
256,192,212205,1,8,0:0:0:0:
256,192,212308,1,8,0:0:0:0:
256,192,212410,1,8,0:0:0:0:
256,192,212513,1,8,0:0:0:0:
256,192,212616,1,8,0:0:0:0:
256,192,212719,1,0,0:0:0:0:
256,192,212821,1,0,0:0:0:0:
256,192,212924,1,0,0:0:0:0:
256,192,213027,1,0,0:0:0:0:
256,192,213130,1,8,0:0:0:0:
256,192,213232,1,0,0:0:0:0:
256,192,213335,1,0,0:0:0:0:
256,192,213438,1,0,0:0:0:0:
256,192,213541,1,8,0:0:0:0:
256,192,213643,1,8,0:0:0:0:
256,192,213746,1,0,0:0:0:0:
256,192,213849,1,0,0:0:0:0:
256,192,213951,1,8,0:0:0:0:
256,192,214054,1,0,0:0:0:0:
256,192,214157,1,0,0:0:0:0:
256,192,214260,1,0,0:0:0:0:
256,192,214362,1,8,0:0:0:0:
256,192,214465,1,0,0:0:0:0:
256,192,214568,1,0,0:0:0:0:
256,192,214671,1,0,0:0:0:0:
256,192,214773,1,8,0:0:0:0:
256,192,214876,1,8,0:0:0:0:
256,192,214979,1,8,0:0:0:0:
256,192,215082,1,8,0:0:0:0:
256,192,215184,1,8,0:0:0:0:
256,192,215287,1,8,0:0:0:0:
256,192,215390,1,8,0:0:0:0:
256,192,215493,1,8,0:0:0:0:
256,192,215595,1,8,0:0:0:0:
256,192,215698,1,8,0:0:0:0:
256,192,215801,1,8,0:0:0:0:
256,192,215904,1,8,0:0:0:0:
256,192,216006,1,0,0:0:0:0:
256,192,216109,1,0,0:0:0:0:
256,192,216212,1,0,0:0:0:0:
256,192,216315,1,0,0:0:0:0:
256,192,216417,1,12,0:0:0:0:
256,192,216623,1,0,0:0:0:0:
256,192,216725,1,0,0:0:0:0:
256,192,216828,1,0,0:0:0:0:
256,192,216931,1,0,0:0:0:0:
256,192,217034,1,0,0:0:0:0:
256,192,217136,1,0,0:0:0:0:
256,192,217239,1,0,0:0:0:0:
256,192,217342,1,0,0:0:0:0:
256,192,217445,1,0,0:0:0:0:
256,192,217547,1,0,0:0:0:0:
256,192,217650,1,8,0:0:0:0:
256,192,217753,1,0,0:0:0:0:
256,192,217856,1,0,0:0:0:0:
256,192,217958,1,8,0:0:0:0:
256,192,218061,1,8,0:0:0:0:
256,192,218164,1,0,0:0:0:0:
256,192,218267,1,0,0:0:0:0:
256,192,218369,1,0,0:0:0:0:
256,192,218472,1,8,0:0:0:0:
256,192,218575,1,0,0:0:0:0:
256,192,218678,1,0,0:0:0:0:
256,192,218780,1,0,0:0:0:0:
256,192,218883,1,8,0:0:0:0:
256,192,218986,1,8,0:0:0:0:
256,192,219088,1,0,0:0:0:0:
256,192,219191,1,0,0:0:0:0:
256,192,219294,1,8,0:0:0:0:
256,192,219362,1,8,0:0:0:0:
256,192,219431,1,8,0:0:0:0:
256,192,219499,1,8,0:0:0:0:
256,192,219568,1,8,0:0:0:0:
256,192,219636,1,8,0:0:0:0:
256,192,219705,1,4,0:0:0:0:
