osu file format v14

[General]
AudioFilename: audio.mp3
AudioLeadIn: 0
PreviewTime: 102502
Countdown: 0
SampleSet: Normal
StackLeniency: 0.2
Mode: 1
LetterboxInBreaks: 0
WidescreenStoryboard: 1

[Editor]
Bookmarks: 19031,52047,93775,102502,112134,124509,148831,162545,170892,180805
DistanceSpacing: 0.8
BeatDivisor: 2
GridSize: 32
TimelineZoom: 2.863041

[Metadata]
Title:The Carbon Stampede
TitleUnicode:The Carbon Stampede
Artist:Cattle Decapitation
ArtistUnicode:Cattle Decapitation
Creator:Genjuro
Version:Kantan
Source:
Tags:english metal deathgrind monolith of inhumanity stamina stream brutal
BeatmapID:2519626
BeatmapSetID:1206721

[Difficulty]
HPDrainRate:7
CircleSize:2
OverallDifficulty:3
ApproachRate:10
SliderMultiplier:1.4
SliderTickRate:1

[Events]
//Background and Video events
0,0,"bg.jpg",0,0
//Break Periods
//Storyboard Layer 0 (Background)
//Storyboard Layer 1 (Fail)
//Storyboard Layer 2 (Pass)
//Storyboard Layer 3 (Foreground)
//Storyboard Layer 4 (Overlay)
//Storyboard Sound Samples

[TimingPoints]
19031,821.917808219178,4,1,0,100,1,0
19031,-50,4,1,0,100,0,0
23962,821.917808219178,4,1,0,100,1,0
23962,-50,4,1,0,100,0,0
32181,821.917808219178,4,1,0,100,1,0
32181,-50,4,1,0,100,0,0
48619,857.142857142857,2,1,0,100,1,0
48619,-47.9453039972,4,1,0,100,0,0
48833,-50,4,1,0,75,0,0
51940,-50,4,1,0,100,0,0
52047,214.285714285714,4,1,0,100,1,1
52047,-200,4,1,0,100,0,1
64904,-200,4,1,0,100,0,0
66618,226.415094339623,6,1,0,100,1,1
66618,-200,6,1,0,100,0,1
76127,227.272727272728,6,1,0,100,1,0
76127,-198.499344952162,6,1,0,100,0,0
77490,214.285714285714,4,1,0,100,1,1
77490,-200,4,1,0,100,0,1
93775,272.727272727273,4,1,0,100,1,0
93775,-157.142866122449,4,1,0,100,0,0
102502,-157.142866122449,4,1,0,100,0,1
110956,-157.142866122449,4,1,0,100,0,0
111229,452.830188679245,4,1,0,100,1,8
112134,375,4,1,0,100,1,0
112134,-114.285714285714,4,1,0,100,0,0
124134,375,4,1,0,100,1,8
124509,229.007633587787,4,1,0,100,1,1
124509,-187.142858907347,4,1,0,100,0,1
126341,240.000000000001,4,1,0,100,1,1
126341,-178.571428571429,4,1,0,100,0,1
127301,248.962655601661,4,1,0,100,1,1
127301,-172.143705565406,4,1,0,100,0,1
129292,241.935483870969,4,1,0,100,1,1
129292,-177.14285715298,4,1,0,100,0,1
130259,244.897959183675,4,1,0,100,1,1
130259,-175.0000004375,4,1,0,100,0,1
131238,279.916025192442,4,1,0,100,1,1
131238,-153.107234776165,4,1,0,100,0,1
132357,237.154150197628,4,1,0,100,1,8
132357,-128.766417718259,4,1,0,100,0,8
132831,250,4,1,0,100,1,1
132831,-171.428669387811,4,1,0,100,0,1
148831,214.285714285714,4,1,0,100,1,0
148831,-200,4,1,0,100,0,0
162545,260.869565217391,4,1,0,100,1,0
162545,-164.285890306311,4,1,0,100,0,0
170892,-164.285890306311,4,1,0,100,0,1
178979,-164.285890306311,4,1,0,100,0,0
179240,260.869565217391,6,1,0,100,1,8
180805,784.313725490196,4,1,0,100,1,0
180805,-50,4,1,0,100,0,0

[HitObjects]
256,192,19031,5,4,0:0:0:0:
256,192,19647,1,8,0:0:0:0:
256,192,20263,1,0,0:0:0:0:
256,192,20880,1,0,0:0:0:0:
256,192,21496,1,8,0:0:0:0:
256,192,23140,1,8,0:0:0:0:
256,192,23962,1,4,0:0:0:0:
256,192,24578,1,8,0:0:0:0:
256,192,25194,1,8,0:0:0:0:
256,192,25811,1,0,0:0:0:0:
256,192,27249,1,4,0:0:0:0:
256,192,27866,1,8,0:0:0:0:
256,192,28482,1,0,0:0:0:0:
256,192,29098,1,0,0:0:0:0:
256,192,29715,1,8,0:0:0:0:
256,192,31359,1,8,0:0:0:0:
256,192,32181,1,4,0:0:0:0:
256,192,32797,1,8,0:0:0:0:
256,192,33413,1,8,0:0:0:0:
256,192,34030,1,0,0:0:0:0:
256,192,35468,1,4,0:0:0:0:
256,192,36290,1,8,0:0:0:0:
256,192,36701,1,0,0:0:0:0:
256,192,37317,1,0,0:0:0:0:
256,192,37934,1,8,0:0:0:0:
256,192,38756,1,4,0:0:0:0:
256,192,39578,1,8,0:0:0:0:
256,192,39989,1,0,0:0:0:0:
256,192,40605,1,8,0:0:0:0:
256,192,42044,1,4,0:0:0:0:
256,192,42865,1,8,0:0:0:0:
256,192,43276,1,0,0:0:0:0:
256,192,43893,1,0,0:0:0:0:
256,192,44509,1,8,0:0:0:0:
256,192,45331,1,4,0:0:0:0:
256,192,45948,1,0,0:0:0:0:
256,192,46564,1,8,0:0:0:0:
256,192,47181,1,8,0:0:0:0:
256,192,48619,1,4,0:0:0:0:
256,192,50333,1,0,0:0:0:0:
256,192,51619,1,8,0:0:0:0:
256,192,52047,1,4,0:0:0:0:
256,192,52904,1,8,0:0:0:0:
256,192,53332,1,8,0:0:0:0:
256,192,53761,1,0,0:0:0:0:
256,192,54618,1,8,0:0:0:0:
256,192,55475,1,0,0:0:0:0:
256,192,55904,1,0,0:0:0:0:
256,192,56332,1,8,0:0:0:0:
256,192,56761,1,8,0:0:0:0:
256,192,57189,1,0,0:0:0:0:
256,192,58904,1,12,0:0:0:0:
256,192,59761,1,0,0:0:0:0:
256,192,60189,1,0,0:0:0:0:
256,192,60618,1,8,0:0:0:0:
256,192,61475,1,0,0:0:0:0:
256,192,62332,1,8,0:0:0:0:
256,192,62761,1,0,0:0:0:0:
256,192,63189,1,8,0:0:0:0:
256,192,63618,1,0,0:0:0:0:
256,192,64046,1,8,0:0:0:0:
256,192,64904,1,0,0:0:0:0:
256,192,66618,1,4,0:0:0:0:
256,192,67297,1,8,0:0:0:0:
256,192,67976,1,0,0:0:0:0:
256,192,69334,1,8,0:0:0:0:
256,192,70014,1,0,0:0:0:0:
256,192,70693,1,8,0:0:0:0:
256,192,72051,1,0,0:0:0:0:
256,192,72504,1,0,0:0:0:0:
256,192,72957,1,8,0:0:0:0:
256,192,73410,1,8,0:0:0:0:
256,192,73863,1,0,0:0:0:0:
256,192,74316,1,0,0:0:0:0:
256,192,74768,1,8,0:0:0:0:
256,192,75448,1,0,0:0:0:0:
256,192,76127,1,8,0:0:0:0:
256,192,77490,1,4,0:0:0:0:
256,192,78347,1,8,0:0:0:0:
256,192,78775,1,0,0:0:0:0:
256,192,79204,1,8,0:0:0:0:
256,192,80061,1,0,0:0:0:0:
256,192,80918,1,8,0:0:0:0:
256,192,81347,1,0,0:0:0:0:
256,192,81775,1,8,0:0:0:0:
256,192,82204,1,8,0:0:0:0:
256,192,82632,1,0,0:0:0:0:
256,192,84347,1,12,0:0:0:0:
256,192,85204,1,0,0:0:0:0:
256,192,85632,1,8,0:0:0:0:
256,192,86061,1,0,0:0:0:0:
256,192,86704,1,8,0:0:0:0:
256,192,87347,1,8,0:0:0:0:
256,192,87775,1,0,0:0:0:0:
256,192,88632,1,8,0:0:0:0:
256,192,89061,1,8,0:0:0:0:
256,192,89489,1,0,0:0:0:0:
256,192,89918,1,0,0:0:0:0:
256,192,90347,1,8,0:0:0:0:
256,192,92061,1,0,0:0:0:0:
256,192,93775,1,4,0:0:0:0:
256,192,94184,1,8,0:0:0:0:
256,192,94593,1,0,0:0:0:0:
256,192,95002,1,8,0:0:0:0:
256,192,97593,1,0,0:0:0:0:
256,192,97865,1,0,0:0:0:0:
256,192,98138,1,12,0:0:0:0:
256,192,98547,1,0,0:0:0:0:
256,192,98956,1,0,0:0:0:0:
256,192,99365,1,0,0:0:0:0:
256,192,100320,1,8,0:0:0:0:
256,192,100729,1,8,0:0:0:0:
256,192,101138,1,8,0:0:0:0:
256,192,101547,1,8,0:0:0:0:
256,192,102502,1,4,0:0:0:0:
256,192,103047,1,8,0:0:0:0:
256,192,103320,1,8,0:0:0:0:
256,192,103593,1,0,0:0:0:0:
256,192,103865,1,0,0:0:0:0:
256,192,104138,1,8,0:0:0:0:
256,192,104684,1,0,0:0:0:0:
256,192,105229,1,8,0:0:0:0:
256,192,105502,1,8,0:0:0:0:
256,192,105775,1,0,0:0:0:0:
256,192,106865,1,8,0:0:0:0:
256,192,107275,1,0,0:0:0:0:
256,192,107684,1,8,0:0:0:0:
256,192,108093,1,0,0:0:0:0:
256,192,109047,1,8,0:0:0:0:
256,192,109320,1,0,0:0:0:0:
256,192,109593,1,0,0:0:0:0:
256,192,109865,1,0,0:0:0:0:
256,192,110138,1,8,0:0:0:0:
256,192,110684,1,0,0:0:0:0:
256,192,110956,1,8,0:0:0:0:
256,192,112134,1,4,0:0:0:0:
256,192,112884,1,8,0:0:0:0:
256,192,113259,1,8,0:0:0:0:
256,192,113634,1,0,0:0:0:0:
256,192,114009,1,0,0:0:0:0:
256,192,114384,1,8,0:0:0:0:
256,192,115134,1,0,0:0:0:0:
256,192,115884,1,8,0:0:0:0:
256,192,117384,1,8,0:0:0:0:
256,192,117759,1,8,0:0:0:0:
256,192,118134,1,0,0:0:0:0:
256,192,118696,1,8,0:0:0:0:
256,192,119259,1,0,0:0:0:0:
256,192,119821,1,8,0:0:0:0:
256,192,121134,1,0,0:0:0:0:
256,192,121696,1,8,0:0:0:0:
256,192,122259,1,0,0:0:0:0:
256,192,122821,1,8,0:0:0:0:
256,192,123384,1,0,0:0:0:0:
256,192,124509,1,8,0:0:0:0:
256,192,125425,1,0,0:0:0:0:
256,192,125883,1,0,0:0:0:0:
256,192,126341,1,8,0:0:0:0:
256,192,127301,1,8,0:0:0:0:
256,192,127798,1,8,0:0:0:0:
256,192,128296,1,0,0:0:0:0:
256,192,129292,1,8,0:0:0:0:
256,192,129775,1,0,0:0:0:0:
256,192,130259,1,8,0:0:0:0:
256,192,131238,1,0,0:0:0:0:
256,192,132831,1,8,0:0:0:0:
256,192,133331,1,0,0:0:0:0:
256,192,133581,1,0,0:0:0:0:
256,192,133831,1,8,0:0:0:0:
256,192,134831,1,0,0:0:0:0:
256,192,135331,1,8,0:0:0:0:
256,192,135581,1,0,0:0:0:0:
256,192,135831,1,8,0:0:0:0:
256,192,136081,1,8,0:0:0:0:
256,192,136331,1,0,0:0:0:0:
256,192,136831,1,8,0:0:0:0:
256,192,137331,1,0,0:0:0:0:
256,192,137581,1,0,0:0:0:0:
256,192,137831,1,8,0:0:0:0:
256,192,138331,1,0,0:0:0:0:
256,192,138831,1,8,0:0:0:0:
256,192,139081,1,8,0:0:0:0:
256,192,139331,1,0,0:0:0:0:
256,192,139581,1,0,0:0:0:0:
256,192,139831,1,8,0:0:0:0:
256,192,140831,1,0,0:0:0:0:
256,192,141331,1,8,0:0:0:0:
256,192,141581,1,8,0:0:0:0:
256,192,141831,1,0,0:0:0:0:
256,192,142831,1,0,0:0:0:0:
256,192,143081,1,8,0:0:0:0:
256,192,143331,1,0,0:0:0:0:
256,192,143831,1,8,0:0:0:0:
256,192,144581,1,8,0:0:0:0:
256,192,144831,1,0,0:0:0:0:
256,192,145331,1,8,0:0:0:0:
256,192,145581,1,8,0:0:0:0:
256,192,145831,1,0,0:0:0:0:
256,192,146331,1,8,0:0:0:0:
256,192,146831,1,0,0:0:0:0:
256,192,147081,1,0,0:0:0:0:
256,192,147331,1,8,0:0:0:0:
256,192,147581,1,8,0:0:0:0:
256,192,147831,1,0,0:0:0:0:
256,192,148831,1,8,0:0:0:0:
256,192,149259,1,0,0:0:0:0:
256,192,149688,1,8,0:0:0:0:
256,192,150545,1,0,0:0:0:0:
256,192,150973,1,8,0:0:0:0:
256,192,151402,1,0,0:0:0:0:
256,192,152259,1,8,0:0:0:0:
256,192,152688,1,8,0:0:0:0:
256,192,153116,1,0,0:0:0:0:
256,192,153545,1,0,0:0:0:0:
256,192,153973,1,8,0:0:0:0:
256,192,155688,1,0,0:0:0:0:
256,192,156116,1,8,0:0:0:0:
256,192,156545,1,0,0:0:0:0:
256,192,157402,1,8,0:0:0:0:
256,192,157831,1,0,0:0:0:0:
256,192,158259,1,8,0:0:0:0:
256,192,159116,1,0,0:0:0:0:
256,192,159545,1,0,0:0:0:0:
256,192,159973,1,8,0:0:0:0:
256,192,160402,1,8,0:0:0:0:
256,192,160830,1,0,0:0:0:0:
256,192,162545,1,0,0:0:0:0:
256,192,162936,1,8,0:0:0:0:
256,192,163327,1,0,0:0:0:0:
256,192,163718,1,8,0:0:0:0:
256,192,164631,1,0,0:0:0:0:
256,192,165023,1,8,0:0:0:0:
256,192,165545,1,8,0:0:0:0:
256,192,165805,1,0,0:0:0:0:
256,192,166197,1,8,0:0:0:0:
256,192,166458,1,8,0:0:0:0:
256,192,166718,1,0,0:0:0:0:
256,192,167110,1,8,0:0:0:0:
256,192,167501,1,0,0:0:0:0:
256,192,167892,1,8,0:0:0:0:
256,192,168805,1,0,0:0:0:0:
256,192,169197,1,8,0:0:0:0:
256,192,169718,1,8,0:0:0:0:
256,192,169979,1,0,0:0:0:0:
256,192,170892,1,4,0:0:0:0:
256,192,171414,1,8,0:0:0:0:
256,192,171675,1,8,0:0:0:0:
256,192,171936,1,0,0:0:0:0:
256,192,172197,1,0,0:0:0:0:
256,192,172458,1,8,0:0:0:0:
256,192,172979,1,0,0:0:0:0:
256,192,173501,1,8,0:0:0:0:
256,192,173762,1,8,0:0:0:0:
256,192,174023,1,0,0:0:0:0:
256,192,175066,1,8,0:0:0:0:
256,192,175458,1,0,0:0:0:0:
256,192,175849,1,8,0:0:0:0:
256,192,176240,1,0,0:0:0:0:
256,192,176631,1,8,0:0:0:0:
256,192,177153,1,0,0:0:0:0:
256,192,177544,1,8,0:0:0:0:
256,192,177936,1,8,0:0:0:0:
256,192,178327,1,8,0:0:0:0:
256,192,178718,1,0,0:0:0:0:
256,192,178979,1,8,0:0:0:0:
256,192,180805,1,4,0:0:0:0:
256,192,182373,1,8,0:0:0:0:
256,192,183157,1,0,0:0:0:0:
256,192,183942,1,0,0:0:0:0:
256,192,184726,1,0,0:0:0:0:
256,192,185510,1,8,0:0:0:0:
256,192,187079,1,4,0:0:0:0:
256,192,188648,1,8,0:0:0:0:
256,192,189432,1,0,0:0:0:0:
256,192,190216,1,8,0:0:0:0:
256,192,192569,1,0,0:0:0:0:
256,192,192961,1,0,0:0:0:0:
256,192,193354,1,12,0:0:0:0:
256,192,194138,1,0,0:0:0:0:
256,192,194922,1,12,0:0:0:0:
256,192,195706,1,0,0:0:0:0:
256,192,196491,1,12,0:0:0:0:
256,192,198059,1,0,0:0:0:0:
256,192,198452,1,8,0:0:0:0:
256,192,198844,1,0,0:0:0:0:
256,192,199628,1,12,0:0:0:0:
256,192,200412,1,0,0:0:0:0:
256,192,201197,1,12,0:0:0:0:
256,192,201981,1,0,0:0:0:0:
256,192,202765,1,12,0:0:0:0:
256,192,204334,1,0,0:0:0:0:
256,192,204726,1,8,0:0:0:0:
256,192,205118,1,0,0:0:0:0:
256,192,205903,1,12,0:0:0:0:
256,192,206687,1,0,0:0:0:0:
256,192,207471,1,12,0:0:0:0:
256,192,208255,1,0,0:0:0:0:
256,192,209040,1,12,0:0:0:0:
256,192,210608,1,0,0:0:0:0:
256,192,211001,1,8,0:0:0:0:
256,192,211393,1,0,0:0:0:0:
256,192,212177,1,12,0:0:0:0:
256,192,212961,1,0,0:0:0:0:
256,192,213746,1,12,0:0:0:0:
256,192,214530,1,0,0:0:0:0:
256,192,215314,1,12,0:0:0:0:
256,192,216883,1,0,0:0:0:0:
256,192,217275,1,8,0:0:0:0:
256,192,217667,1,0,0:0:0:0:
256,192,218255,1,8,0:0:0:0:
