osu file format v14

[General]
AudioFilename: audio.mp3
AudioLeadIn: 0
PreviewTime: 102502
Countdown: 0
SampleSet: Normal
StackLeniency: 0.2
Mode: 1
LetterboxInBreaks: 0
WidescreenStoryboard: 1

[Editor]
Bookmarks: 19031,52047,93775,102502,112134,124509,148831,162545,170892,180805
DistanceSpacing: 0.8
BeatDivisor: 2
GridSize: 32
TimelineZoom: 3.76304

[Metadata]
Title:The Carbon Stampede
TitleUnicode:The Carbon Stampede
Artist:Cattle Decapitation
ArtistUnicode:Cattle Decapitation
Creator:Genjuro
Version:Hell Oni
Source:
Tags:english metal deathgrind monolith of inhumanity stamina stream brutal
BeatmapID:2513185
BeatmapSetID:1206721

[Difficulty]
HPDrainRate:5.5
CircleSize:2
OverallDifficulty:7
ApproachRate:10
SliderMultiplier:1.4
SliderTickRate:1

[Events]
//Background and Video events
0,0,"bg.jpg",0,0
//Break Periods
//Storyboard Layer 0 (Background)
//Storyboard Layer 1 (Fail)
//Storyboard Layer 2 (Pass)
//Storyboard Layer 3 (Foreground)
//Storyboard Layer 4 (Overlay)
//Storyboard Sound Samples

[TimingPoints]
19031,821.917808219178,4,1,0,100,1,0
19031,-50,4,1,0,100,0,0
23962,821.917808219178,4,1,0,100,1,0
23962,-50,4,1,0,100,0,0
32181,821.917808219178,4,1,0,100,1,0
32181,-50,4,1,0,100,0,0
48619,857.142857142857,2,1,0,100,1,0
48619,-47.9453039972,4,1,0,100,0,0
48833,-50,4,1,0,75,0,0
51940,-50,4,1,0,100,0,0
52047,214.285714285714,4,1,0,100,1,1
66189,-100,4,1,0,100,0,0
66404,-102.752323743801,4,1,0,100,0,0
66618,226.415094339623,6,1,0,100,1,1
76127,227.272727272728,6,1,0,100,1,1
76127,-99.6234234593237,6,1,0,100,0,1
77263,-100,6,1,0,100,0,0
77490,214.285714285714,4,1,0,100,1,1
93775,272.727272727273,4,1,0,100,1,0
93775,-78.5714454081669,4,1,0,100,0,0
94184,-81.8604590243379,4,1,0,100,0,0
94593,-85.4369330191532,4,1,0,100,0,0
94865,-87.999971840009,4,1,0,100,0,0
95002,-89.3401160349427,4,1,0,100,0,0
95956,-100,4,1,0,100,0,0
102502,-100,4,1,0,100,0,1
110956,-100,4,1,0,100,0,0
111229,452.830188679245,4,1,0,100,1,8
112134,375,4,1,0,100,1,0
124134,375,4,1,0,100,1,8
124509,229.007633587787,4,1,0,100,1,1
126341,240.000000000001,4,1,0,100,1,1
126341,-95.4198473282443,4,1,0,100,0,1
127301,248.962655601661,4,1,0,100,1,1
127301,-91.9853191430648,4,1,0,100,0,1
129292,241.935483870969,4,1,0,100,1,1
129292,-94.6566330635619,4,1,0,100,0,1
130259,244.897959183675,4,1,0,100,1,1
130259,-93.5121285230694,4,1,0,100,0,1
131238,279.916025192442,4,1,0,100,1,1
131238,-81.8129822312838,4,1,0,100,0,1
132357,237.154150197628,4,1,0,100,1,8
132357,-96.5648969218008,4,1,0,100,0,0
132831,250,4,1,0,100,1,1
148831,214.285714285714,4,1,0,100,1,0
160938,-101.125731644668,4,1,0,100,0,0
161045,-102.277097294157,4,1,0,100,0,0
161152,-103.454875569648,4,1,0,100,0,0
161366,-105.893951443388,4,1,0,100,0,0
161420,-106.780565936999,4,1,0,100,0,0
161473,-107.157132003656,4,1,0,100,0,0
161580,-108.450695060505,4,1,0,100,0,0
161688,-109.775991112536,4,1,0,100,0,0
161902,-112.526190470832,4,1,0,100,0,0
161973,-113.473760894899,4,1,0,100,0,0
162045,-114.437425615673,4,1,0,100,0,0
162116,-115.417598182865,4,1,0,100,0,0
162330,-118.461656923195,4,1,0,100,0,0
162545,260.869565217391,4,1,0,100,1,0
170892,-100,4,1,0,100,0,1
178979,-100,4,1,0,100,0,0
179240,260.869565217391,6,1,0,100,1,8
180805,784.313725490196,4,1,0,100,1,0
180805,-50,4,1,0,100,0,0

[HitObjects]
256,192,19031,1,4,0:0:0:0:
256,192,19647,1,12,0:0:0:0:
256,192,20263,1,4,0:0:0:0:
256,192,20880,1,4,0:0:0:0:
256,192,21496,1,8,0:0:0:0:
256,192,23140,1,8,0:0:0:0:
256,192,23962,1,4,0:0:0:0:
256,192,24578,1,12,0:0:0:0:
256,192,25194,1,4,0:0:0:0:
256,192,25400,1,12,0:0:0:0:
256,192,25811,1,4,0:0:0:0:
256,192,26427,1,0,0:0:0:0:
256,192,26633,1,0,0:0:0:0:
256,192,26838,1,8,0:0:0:0:
256,192,27044,1,0,0:0:0:0:
256,192,27249,1,4,0:0:0:0:
256,192,27866,1,12,0:0:0:0:
256,192,28482,1,4,0:0:0:0:
256,192,29098,1,4,0:0:0:0:
256,192,29715,1,8,0:0:0:0:
256,192,31359,1,8,0:0:0:0:
256,192,32181,1,4,0:0:0:0:
256,192,32797,1,12,0:0:0:0:
256,192,33413,1,4,0:0:0:0:
256,192,33619,1,12,0:0:0:0:
256,192,34030,1,4,0:0:0:0:
256,192,34646,1,0,0:0:0:0:
256,192,34852,1,0,0:0:0:0:
256,192,35057,1,8,0:0:0:0:
256,192,35263,1,0,0:0:0:0:
256,192,35468,1,4,0:0:0:0:
256,192,36085,1,0,0:0:0:0:
256,192,36290,1,8,0:0:0:0:
256,192,36701,1,4,0:0:0:0:
256,192,37317,1,4,0:0:0:0:
256,192,37934,1,8,0:0:0:0:
256,192,38756,1,4,0:0:0:0:
256,192,39372,1,0,0:0:0:0:
256,192,39578,1,8,0:0:0:0:
256,192,39989,1,0,0:0:0:0:
256,192,40194,1,0,0:0:0:0:
256,192,40605,1,8,0:0:0:0:
256,192,41222,1,0,0:0:0:0:
256,192,41427,1,0,0:0:0:0:
256,192,41633,1,8,0:0:0:0:
256,192,41838,1,0,0:0:0:0:
256,192,42044,1,4,0:0:0:0:
256,192,42660,1,0,0:0:0:0:
256,192,42865,1,8,0:0:0:0:
256,192,43276,1,4,0:0:0:0:
256,192,43893,1,4,0:0:0:0:
256,192,44509,1,8,0:0:0:0:
256,192,45331,1,4,0:0:0:0:
256,192,45948,1,12,0:0:0:0:
256,192,46359,1,0,0:0:0:0:
256,192,46564,1,8,0:0:0:0:
256,192,46770,1,8,0:0:0:0:
256,192,47181,1,8,0:0:0:0:
256,192,47591,1,0,0:0:0:0:
256,192,47797,1,0,0:0:0:0:
256,192,48002,1,0,0:0:0:0:
256,192,48208,1,8,0:0:0:0:
256,192,48413,1,0,0:0:0:0:
256,192,48619,1,4,0:0:0:0:
256,192,50119,1,8,0:0:0:0:
256,192,50226,1,8,0:0:0:0:
256,192,50333,1,0,0:0:0:0:
256,192,51458,1,0,0:0:0:0:
256,192,51511,1,0,0:0:0:0:
256,192,51565,1,0,0:0:0:0:
256,192,51619,1,8,0:0:0:0:
256,192,51833,1,0,0:0:0:0:
256,192,52047,1,8,0:0:0:0:
256,192,52154,1,8,0:0:0:0:
256,192,52261,1,0,0:0:0:0:
256,192,52368,1,0,0:0:0:0:
256,192,52475,1,8,0:0:0:0:
256,192,52582,1,8,0:0:0:0:
256,192,52689,1,0,0:0:0:0:
256,192,52797,1,0,0:0:0:0:
256,192,52904,1,8,0:0:0:0:
256,192,53011,1,0,0:0:0:0:
256,192,53064,1,0,0:0:0:0:
256,192,53118,1,0,0:0:0:0:
256,192,53225,1,8,0:0:0:0:
256,192,53332,1,0,0:0:0:0:
256,192,53386,1,0,0:0:0:0:
256,192,53439,1,0,0:0:0:0:
256,192,53547,1,8,0:0:0:0:
256,192,53654,1,0,0:0:0:0:
256,192,53761,1,8,0:0:0:0:
256,192,53868,1,8,0:0:0:0:
256,192,53975,1,8,0:0:0:0:
256,192,54082,1,8,0:0:0:0:
256,192,54189,1,0,0:0:0:0:
256,192,54297,1,0,0:0:0:0:
256,192,54404,1,0,0:0:0:0:
256,192,54511,1,0,0:0:0:0:
256,192,54618,1,8,0:0:0:0:
256,192,54832,1,0,0:0:0:0:
256,192,54939,1,0,0:0:0:0:
256,192,55046,1,8,0:0:0:0:
256,192,55154,1,8,0:0:0:0:
256,192,55261,1,0,0:0:0:0:
256,192,55475,1,8,0:0:0:0:
256,192,55582,1,0,0:0:0:0:
256,192,55689,1,0,0:0:0:0:
256,192,55796,1,0,0:0:0:0:
256,192,55904,1,8,0:0:0:0:
256,192,56011,1,8,0:0:0:0:
256,192,56118,1,0,0:0:0:0:
256,192,56225,1,0,0:0:0:0:
256,192,56332,1,8,0:0:0:0:
256,192,56439,1,0,0:0:0:0:
256,192,56493,1,0,0:0:0:0:
256,192,56546,1,0,0:0:0:0:
256,192,56654,1,8,0:0:0:0:
256,192,56761,1,0,0:0:0:0:
256,192,56814,1,0,0:0:0:0:
256,192,56868,1,0,0:0:0:0:
256,192,56975,1,8,0:0:0:0:
256,192,57082,1,0,0:0:0:0:
256,192,57189,1,8,0:0:0:0:
256,192,57243,1,8,0:0:0:0:
256,192,57296,1,0,0:0:0:0:
256,192,57404,1,0,0:0:0:0:
256,192,57511,1,8,0:0:0:0:
256,192,57564,1,8,0:0:0:0:
256,192,57618,1,0,0:0:0:0:
256,192,57725,1,0,0:0:0:0:
256,192,57832,1,8,0:0:0:0:
256,192,57939,1,0,0:0:0:0:
256,192,58046,1,8,0:0:0:0:
256,192,58154,1,8,0:0:0:0:
256,192,58261,1,0,0:0:0:0:
256,192,58314,1,0,0:0:0:0:
256,192,58368,1,0,0:0:0:0:
256,192,58421,1,0,0:0:0:0:
256,192,58475,1,8,0:0:0:0:
256,192,58689,1,0,0:0:0:0:
256,192,58796,1,0,0:0:0:0:
256,192,58904,1,12,0:0:0:0:
256,192,59118,1,0,0:0:0:0:
256,192,59225,1,0,0:0:0:0:
256,192,59332,1,8,0:0:0:0:
256,192,59439,1,8,0:0:0:0:
256,192,59546,1,0,0:0:0:0:
256,192,59654,1,0,0:0:0:0:
256,192,59761,1,8,0:0:0:0:
256,192,59868,1,0,0:0:0:0:
256,192,59921,1,0,0:0:0:0:
256,192,59975,1,8,0:0:0:0:
256,192,60082,1,0,0:0:0:0:
256,192,60189,1,8,0:0:0:0:
256,192,60243,1,8,0:0:0:0:
256,192,60296,1,0,0:0:0:0:
256,192,60404,1,8,0:0:0:0:
256,192,60511,1,0,0:0:0:0:
256,192,60618,1,8,0:0:0:0:
256,192,60725,1,8,0:0:0:0:
256,192,60832,1,0,0:0:0:0:
256,192,60939,1,8,0:0:0:0:
256,192,61046,1,8,0:0:0:0:
256,192,61154,1,8,0:0:0:0:
256,192,61261,1,8,0:0:0:0:
256,192,61368,1,8,0:0:0:0:
256,192,61475,1,0,0:0:0:0:
256,192,61689,1,0,0:0:0:0:
256,192,61796,1,0,0:0:0:0:
256,192,61904,1,8,0:0:0:0:
256,192,62011,1,8,0:0:0:0:
256,192,62118,1,0,0:0:0:0:
256,192,62332,1,8,0:0:0:0:
256,192,62439,1,0,0:0:0:0:
256,192,62546,1,8,0:0:0:0:
256,192,62654,1,8,0:0:0:0:
256,192,62761,1,0,0:0:0:0:
256,192,62868,1,8,0:0:0:0:
256,192,62975,1,0,0:0:0:0:
256,192,63082,1,0,0:0:0:0:
256,192,63189,1,8,0:0:0:0:
256,192,63296,1,0,0:0:0:0:
256,192,63350,1,0,0:0:0:0:
256,192,63404,1,0,0:0:0:0:
256,192,63511,1,0,0:0:0:0:
256,192,63618,1,8,0:0:0:0:
256,192,63725,1,0,0:0:0:0:
256,192,63779,1,0,0:0:0:0:
256,192,63832,1,8,0:0:0:0:
256,192,63939,1,0,0:0:0:0:
256,192,64046,1,8,0:0:0:0:
256,192,64154,1,0,0:0:0:0:
256,192,64261,1,8,0:0:0:0:
256,192,64368,1,8,0:0:0:0:
256,192,64475,1,0,0:0:0:0:
256,192,64689,1,0,0:0:0:0:
256,192,64796,1,8,0:0:0:0:
256,192,64850,1,8,0:0:0:0:
256,192,64904,1,0,0:0:0:0:
256,192,65011,1,8,0:0:0:0:
256,192,65118,1,0,0:0:0:0:
256,192,65171,1,0,0:0:0:0:
256,192,65225,1,0,0:0:0:0:
256,192,65279,1,0,0:0:0:0:
256,192,65332,1,8,0:0:0:0:
256,192,65546,1,8,0:0:0:0:
256,192,65654,1,0,0:0:0:0:
256,192,65707,1,0,0:0:0:0:
256,192,65761,1,8,0:0:0:0:
256,192,65868,1,0,0:0:0:0:
256,192,65975,1,8,0:0:0:0:
256,192,66029,1,8,0:0:0:0:
256,192,66082,1,8,0:0:0:0:
256,192,66136,1,8,0:0:0:0:
256,192,66189,1,0,0:0:0:0:
256,192,66404,1,0,0:0:0:0:
256,192,66618,1,8,0:0:0:0:
256,192,66674,1,8,0:0:0:0:
256,192,66731,1,8,0:0:0:0:
256,192,66787,1,8,0:0:0:0:
256,192,66844,1,0,0:0:0:0:
256,192,66901,1,0,0:0:0:0:
256,192,66957,1,0,0:0:0:0:
256,192,67014,1,0,0:0:0:0:
256,192,67070,1,8,0:0:0:0:
256,192,67184,1,0,0:0:0:0:
256,192,67297,1,8,0:0:0:0:
256,192,67410,1,0,0:0:0:0:
256,192,67467,1,0,0:0:0:0:
256,192,67523,1,8,0:0:0:0:
256,192,67580,1,8,0:0:0:0:
256,192,67636,1,0,0:0:0:0:
256,192,67750,1,8,0:0:0:0:
256,192,67863,1,8,0:0:0:0:
256,192,67919,1,8,0:0:0:0:
256,192,67976,1,0,0:0:0:0:
256,192,68089,1,8,0:0:0:0:
256,192,68202,1,0,0:0:0:0:
256,192,68259,1,0,0:0:0:0:
256,192,68316,1,0,0:0:0:0:
256,192,68372,1,0,0:0:0:0:
256,192,68429,1,8,0:0:0:0:
256,192,68542,1,0,0:0:0:0:
256,192,68655,1,8,0:0:0:0:
256,192,68768,1,0,0:0:0:0:
256,192,68825,1,0,0:0:0:0:
256,192,68882,1,8,0:0:0:0:
256,192,68995,1,8,0:0:0:0:
256,192,69051,1,8,0:0:0:0:
256,192,69108,1,0,0:0:0:0:
256,192,69221,1,0,0:0:0:0:
256,192,69334,1,8,0:0:0:0:
256,192,69391,1,8,0:0:0:0:
256,192,69448,1,0,0:0:0:0:
256,192,69504,1,0,0:0:0:0:
256,192,69561,1,8,0:0:0:0:
256,192,69618,1,0,0:0:0:0:
256,192,69674,1,0,0:0:0:0:
256,192,69731,1,0,0:0:0:0:
256,192,69787,1,8,0:0:0:0:
256,192,69844,1,8,0:0:0:0:
256,192,69901,1,0,0:0:0:0:
256,192,69957,1,0,0:0:0:0:
256,192,70014,1,8,0:0:0:0:
256,192,70127,1,0,0:0:0:0:
256,192,70240,1,8,0:0:0:0:
256,192,70297,1,0,0:0:0:0:
256,192,70353,1,8,0:0:0:0:
256,192,70410,1,0,0:0:0:0:
256,192,70467,1,8,0:0:0:0:
256,192,70580,1,0,0:0:0:0:
256,192,70693,1,8,0:0:0:0:
256,192,70750,1,8,0:0:0:0:
256,192,70806,1,8,0:0:0:0:
256,192,70919,1,0,0:0:0:0:
256,192,71033,1,8,0:0:0:0:
256,192,71089,1,8,0:0:0:0:
256,192,71146,1,8,0:0:0:0:
256,192,71202,1,8,0:0:0:0:
256,192,71259,1,0,0:0:0:0:
256,192,71372,1,8,0:0:0:0:
256,192,71485,1,0,0:0:0:0:
256,192,71542,1,0,0:0:0:0:
256,192,71599,1,0,0:0:0:0:
256,192,71655,1,0,0:0:0:0:
256,192,71712,1,0,0:0:0:0:
256,192,71825,1,8,0:0:0:0:
256,192,71938,1,0,0:0:0:0:
256,192,72051,1,8,0:0:0:0:
256,192,72108,1,8,0:0:0:0:
256,192,72165,1,8,0:0:0:0:
256,192,72221,1,8,0:0:0:0:
256,192,72278,1,8,0:0:0:0:
256,192,72334,1,8,0:0:0:0:
256,192,72391,1,0,0:0:0:0:
256,192,72504,1,8,0:0:0:0:
256,192,72618,1,0,0:0:0:0:
256,192,72674,1,0,0:0:0:0:
256,192,72731,1,8,0:0:0:0:
256,192,72844,1,0,0:0:0:0:
256,192,72957,1,8,0:0:0:0:
256,192,73014,1,8,0:0:0:0:
256,192,73070,1,8,0:0:0:0:
256,192,73127,1,8,0:0:0:0:
256,192,73184,1,8,0:0:0:0:
256,192,73240,1,8,0:0:0:0:
256,192,73297,1,0,0:0:0:0:
256,192,73410,1,8,0:0:0:0:
256,192,73523,1,8,0:0:0:0:
256,192,73580,1,8,0:0:0:0:
256,192,73636,1,8,0:0:0:0:
256,192,73750,1,0,0:0:0:0:
256,192,73863,1,8,0:0:0:0:
256,192,73919,1,8,0:0:0:0:
256,192,73976,1,8,0:0:0:0:
256,192,74033,1,8,0:0:0:0:
256,192,74089,1,8,0:0:0:0:
256,192,74146,1,8,0:0:0:0:
256,192,74202,1,0,0:0:0:0:
256,192,74316,1,8,0:0:0:0:
256,192,74429,1,0,0:0:0:0:
256,192,74485,1,0,0:0:0:0:
256,192,74542,1,8,0:0:0:0:
256,192,74655,1,0,0:0:0:0:
256,192,74768,1,8,0:0:0:0:
256,192,74825,1,8,0:0:0:0:
256,192,74882,1,8,0:0:0:0:
256,192,74938,1,8,0:0:0:0:
256,192,74995,1,0,0:0:0:0:
256,192,75051,1,0,0:0:0:0:
256,192,75108,1,0,0:0:0:0:
256,192,75165,1,0,0:0:0:0:
256,192,75221,1,8,0:0:0:0:
256,192,75334,1,0,0:0:0:0:
256,192,75448,1,8,0:0:0:0:
256,192,75504,1,0,0:0:0:0:
256,192,75561,1,0,0:0:0:0:
256,192,75618,1,0,0:0:0:0:
256,192,75674,1,0,0:0:0:0:
256,192,75731,1,0,0:0:0:0:
256,192,75787,1,0,0:0:0:0:
256,192,75844,1,0,0:0:0:0:
256,192,75901,1,8,0:0:0:0:
256,192,76014,1,0,0:0:0:0:
256,192,76127,1,8,0:0:0:0:
256,192,76183,1,8,0:0:0:0:
256,192,76240,1,8,0:0:0:0:
256,192,76297,1,8,0:0:0:0:
256,192,76354,1,8,0:0:0:0:
256,192,76411,1,8,0:0:0:0:
256,192,76467,1,8,0:0:0:0:
256,192,76524,1,8,0:0:0:0:
256,192,76581,1,8,0:0:0:0:
256,192,76638,1,8,0:0:0:0:
256,192,76695,1,0,0:0:0:0:
256,192,76808,1,8,0:0:0:0:
256,192,76922,1,0,0:0:0:0:
256,192,76979,1,0,0:0:0:0:
256,192,77036,1,0,0:0:0:0:
256,192,77092,1,0,0:0:0:0:
256,192,77149,1,8,0:0:0:0:
256,192,77263,1,0,0:0:0:0:
256,192,77490,1,8,0:0:0:0:
256,192,77597,1,8,0:0:0:0:
256,192,77704,1,0,0:0:0:0:
256,192,77811,1,8,0:0:0:0:
256,192,77918,1,0,0:0:0:0:
256,192,78025,1,0,0:0:0:0:
256,192,78132,1,8,0:0:0:0:
256,192,78240,1,8,0:0:0:0:
256,192,78347,1,0,0:0:0:0:
256,192,78454,1,8,0:0:0:0:
256,192,78561,1,0,0:0:0:0:
256,192,78668,1,0,0:0:0:0:
256,192,78775,1,8,0:0:0:0:
256,192,78882,1,0,0:0:0:0:
256,192,78936,1,0,0:0:0:0:
256,192,78990,1,8,0:0:0:0:
256,192,79097,1,0,0:0:0:0:
256,192,79204,1,8,0:0:0:0:
256,192,79257,1,8,0:0:0:0:
256,192,79311,1,0,0:0:0:0:
256,192,79418,1,0,0:0:0:0:
256,192,79525,1,8,0:0:0:0:
256,192,79632,1,8,0:0:0:0:
256,192,79740,1,8,0:0:0:0:
256,192,79847,1,8,0:0:0:0:
256,192,79954,1,8,0:0:0:0:
256,192,80061,1,0,0:0:0:0:
256,192,80275,1,0,0:0:0:0:
256,192,80382,1,0,0:0:0:0:
256,192,80490,1,8,0:0:0:0:
256,192,80597,1,8,0:0:0:0:
256,192,80704,1,0,0:0:0:0:
256,192,80918,1,8,0:0:0:0:
256,192,81025,1,0,0:0:0:0:
256,192,81132,1,8,0:0:0:0:
256,192,81240,1,0,0:0:0:0:
256,192,81347,1,8,0:0:0:0:
256,192,81454,1,8,0:0:0:0:
256,192,81561,1,0,0:0:0:0:
256,192,81668,1,0,0:0:0:0:
256,192,81775,1,8,0:0:0:0:
256,192,81882,1,0,0:0:0:0:
256,192,81936,1,0,0:0:0:0:
256,192,81990,1,0,0:0:0:0:
256,192,82097,1,8,0:0:0:0:
256,192,82204,1,0,0:0:0:0:
256,192,82257,1,0,0:0:0:0:
256,192,82311,1,0,0:0:0:0:
256,192,82418,1,8,0:0:0:0:
256,192,82525,1,0,0:0:0:0:
256,192,82632,1,8,0:0:0:0:
256,192,82686,1,8,0:0:0:0:
256,192,82740,1,8,0:0:0:0:
256,192,82847,1,0,0:0:0:0:
256,192,82954,1,8,0:0:0:0:
256,192,83007,1,8,0:0:0:0:
256,192,83061,1,8,0:0:0:0:
256,192,83168,1,0,0:0:0:0:
256,192,83275,1,8,0:0:0:0:
256,192,83382,1,0,0:0:0:0:
256,192,83489,1,8,0:0:0:0:
256,192,83597,1,8,0:0:0:0:
256,192,83704,1,0,0:0:0:0:
256,192,83757,1,0,0:0:0:0:
256,192,83811,1,0,0:0:0:0:
256,192,83864,1,0,0:0:0:0:
256,192,83918,1,8,0:0:0:0:
256,192,84132,1,0,0:0:0:0:
256,192,84239,1,0,0:0:0:0:
256,192,84347,1,12,0:0:0:0:
256,192,84561,1,0,0:0:0:0:
256,192,84668,1,8,0:0:0:0:
256,192,84775,1,0,0:0:0:0:
256,192,84882,1,0,0:0:0:0:
256,192,84989,1,8,0:0:0:0:
256,192,85097,1,0,0:0:0:0:
256,192,85204,1,8,0:0:0:0:
256,192,85311,1,0,0:0:0:0:
256,192,85364,1,0,0:0:0:0:
256,192,85418,1,0,0:0:0:0:
256,192,85525,1,8,0:0:0:0:
256,192,85632,1,0,0:0:0:0:
256,192,85686,1,0,0:0:0:0:
256,192,85739,1,0,0:0:0:0:
256,192,85847,1,8,0:0:0:0:
256,192,85954,1,0,0:0:0:0:
256,192,86061,1,8,0:0:0:0:
256,192,86168,1,8,0:0:0:0:
256,192,86275,1,0,0:0:0:0:
256,192,86382,1,8,0:0:0:0:
256,192,86489,1,0,0:0:0:0:
256,192,86597,1,0,0:0:0:0:
256,192,86704,1,8,0:0:0:0:
256,192,86811,1,0,0:0:0:0:
256,192,86918,1,8,0:0:0:0:
256,192,87132,1,0,0:0:0:0:
256,192,87239,1,0,0:0:0:0:
256,192,87347,1,8,0:0:0:0:
256,192,87454,1,8,0:0:0:0:
256,192,87561,1,0,0:0:0:0:
256,192,87775,1,8,0:0:0:0:
256,192,87882,1,0,0:0:0:0:
256,192,87989,1,8,0:0:0:0:
256,192,88097,1,8,0:0:0:0:
256,192,88204,1,0,0:0:0:0:
256,192,88311,1,8,0:0:0:0:
256,192,88418,1,0,0:0:0:0:
256,192,88525,1,0,0:0:0:0:
256,192,88632,1,8,0:0:0:0:
256,192,88739,1,0,0:0:0:0:
256,192,88793,1,0,0:0:0:0:
256,192,88847,1,8,0:0:0:0:
256,192,88954,1,0,0:0:0:0:
256,192,89061,1,8,0:0:0:0:
256,192,89114,1,8,0:0:0:0:
256,192,89168,1,0,0:0:0:0:
256,192,89275,1,8,0:0:0:0:
256,192,89382,1,0,0:0:0:0:
256,192,89489,1,8,0:0:0:0:
256,192,89597,1,8,0:0:0:0:
256,192,89704,1,8,0:0:0:0:
256,192,89811,1,8,0:0:0:0:
256,192,89918,1,0,0:0:0:0:
256,192,90132,1,0,0:0:0:0:
256,192,90239,1,8,0:0:0:0:
256,192,90293,1,8,0:0:0:0:
256,192,90347,1,0,0:0:0:0:
256,192,90454,1,8,0:0:0:0:
256,192,90561,1,0,0:0:0:0:
256,192,90614,1,0,0:0:0:0:
256,192,90668,1,0,0:0:0:0:
256,192,90722,1,0,0:0:0:0:
256,192,90775,1,8,0:0:0:0:
256,192,90989,1,8,0:0:0:0:
256,192,91097,1,0,0:0:0:0:
256,192,91150,1,0,0:0:0:0:
256,192,91204,1,8,0:0:0:0:
256,192,91311,1,0,0:0:0:0:
256,192,91418,1,8,0:0:0:0:
256,192,91472,1,8,0:0:0:0:
256,192,91525,1,8,0:0:0:0:
256,192,91579,1,8,0:0:0:0:
256,192,91632,1,0,0:0:0:0:
256,192,91847,1,0,0:0:0:0:
256,192,91954,1,8,0:0:0:0:
256,192,92007,1,8,0:0:0:0:
256,192,92061,1,0,0:0:0:0:
256,192,92168,1,8,0:0:0:0:
256,192,92275,1,0,0:0:0:0:
256,192,92329,1,0,0:0:0:0:
256,192,92382,1,0,0:0:0:0:
256,192,92436,1,0,0:0:0:0:
256,192,92489,1,8,0:0:0:0:
256,192,92704,1,8,0:0:0:0:
256,192,92811,1,0,0:0:0:0:
256,192,92864,1,0,0:0:0:0:
256,192,92918,1,8,0:0:0:0:
256,192,93025,1,0,0:0:0:0:
256,192,93132,1,8,0:0:0:0:
256,192,93186,1,8,0:0:0:0:
256,192,93239,1,8,0:0:0:0:
256,192,93293,1,8,0:0:0:0:
256,192,93347,1,0,0:0:0:0:
256,192,93775,1,4,0:0:0:0:
256,192,94184,1,12,0:0:0:0:
256,192,94593,1,4,0:0:0:0:
256,192,95002,1,12,0:0:0:0:
256,192,95956,1,0,0:0:0:0:
256,192,96365,1,0,0:0:0:0:
256,192,96775,1,0,0:0:0:0:
256,192,96911,1,0,0:0:0:0:
256,192,97184,1,0,0:0:0:0:
256,192,97593,1,4,0:0:0:0:
256,192,97729,1,12,0:0:0:0:
256,192,97865,1,4,0:0:0:0:
256,192,98138,1,12,0:0:0:0:
256,192,98547,1,0,0:0:0:0:
256,192,98956,1,0,0:0:0:0:
256,192,99365,1,0,0:0:0:0:
256,192,100184,1,0,0:0:0:0:
256,192,100252,1,0,0:0:0:0:
256,192,100320,1,8,0:0:0:0:
256,192,100388,1,8,0:0:0:0:
256,192,100456,1,0,0:0:0:0:
256,192,100525,1,0,0:0:0:0:
256,192,100593,1,0,0:0:0:0:
256,192,100661,1,0,0:0:0:0:
256,192,100729,1,8,0:0:0:0:
256,192,100797,1,8,0:0:0:0:
256,192,100865,1,0,0:0:0:0:
256,192,100934,1,0,0:0:0:0:
256,192,101002,1,0,0:0:0:0:
256,192,101070,1,0,0:0:0:0:
256,192,101138,1,8,0:0:0:0:
256,192,101206,1,0,0:0:0:0:
256,192,101275,1,8,0:0:0:0:
256,192,101343,1,8,0:0:0:0:
256,192,101411,1,0,0:0:0:0:
256,192,101479,1,0,0:0:0:0:
256,192,101547,1,8,0:0:0:0:
256,192,101684,1,0,0:0:0:0:
256,192,101752,1,0,0:0:0:0:
256,192,101820,1,0,0:0:0:0:
256,192,101888,1,0,0:0:0:0:
256,192,101956,1,0,0:0:0:0:
256,192,102093,1,12,0:0:0:0:
256,192,102229,1,4,0:0:0:0:
256,192,102502,1,8,0:0:0:0:
256,192,102570,1,8,0:0:0:0:
256,192,102638,1,0,0:0:0:0:
256,192,102706,1,0,0:0:0:0:
256,192,102775,1,0,0:0:0:0:
256,192,102843,1,0,0:0:0:0:
256,192,102911,1,8,0:0:0:0:
256,192,102979,1,8,0:0:0:0:
256,192,103047,1,0,0:0:0:0:
256,192,103115,1,0,0:0:0:0:
256,192,103184,1,0,0:0:0:0:
256,192,103252,1,0,0:0:0:0:
256,192,103320,1,8,0:0:0:0:
256,192,103388,1,8,0:0:0:0:
256,192,103456,1,0,0:0:0:0:
256,192,103525,1,0,0:0:0:0:
256,192,103593,1,0,0:0:0:0:
256,192,103661,1,0,0:0:0:0:
256,192,103729,1,8,0:0:0:0:
256,192,103797,1,8,0:0:0:0:
256,192,103865,1,8,0:0:0:0:
256,192,103934,1,8,0:0:0:0:
256,192,104002,1,8,0:0:0:0:
256,192,104070,1,8,0:0:0:0:
256,192,104138,1,0,0:0:0:0:
256,192,104275,1,8,0:0:0:0:
256,192,104411,1,0,0:0:0:0:
256,192,104547,1,0,0:0:0:0:
256,192,104684,1,8,0:0:0:0:
256,192,104752,1,8,0:0:0:0:
256,192,104820,1,0,0:0:0:0:
256,192,104888,1,0,0:0:0:0:
256,192,104956,1,0,0:0:0:0:
256,192,105025,1,0,0:0:0:0:
256,192,105093,1,8,0:0:0:0:
256,192,105161,1,8,0:0:0:0:
256,192,105229,1,0,0:0:0:0:
256,192,105297,1,0,0:0:0:0:
256,192,105365,1,0,0:0:0:0:
256,192,105434,1,0,0:0:0:0:
256,192,105502,1,8,0:0:0:0:
256,192,105570,1,0,0:0:0:0:
256,192,105638,1,8,0:0:0:0:
256,192,105706,1,8,0:0:0:0:
256,192,105775,1,0,0:0:0:0:
256,192,105843,1,0,0:0:0:0:
256,192,105911,1,8,0:0:0:0:
256,192,105979,1,8,0:0:0:0:
256,192,106047,1,8,0:0:0:0:
256,192,106115,1,0,0:0:0:0:
256,192,106184,1,0,0:0:0:0:
256,192,106252,1,0,0:0:0:0:
256,192,106320,1,8,0:0:0:0:
256,192,106456,1,0,0:0:0:0:
256,192,106593,1,8,0:0:0:0:
256,192,106729,1,0,0:0:0:0:
256,192,106865,1,8,0:0:0:0:
256,192,106934,1,8,0:0:0:0:
256,192,107002,1,8,0:0:0:0:
256,192,107070,1,8,0:0:0:0:
256,192,107138,1,0,0:0:0:0:
256,192,107206,1,0,0:0:0:0:
256,192,107275,1,8,0:0:0:0:
256,192,107343,1,8,0:0:0:0:
256,192,107411,1,8,0:0:0:0:
256,192,107479,1,8,0:0:0:0:
256,192,107547,1,0,0:0:0:0:
256,192,107615,1,0,0:0:0:0:
256,192,107684,1,8,0:0:0:0:
256,192,107752,1,8,0:0:0:0:
256,192,107820,1,8,0:0:0:0:
256,192,107888,1,8,0:0:0:0:
256,192,107956,1,0,0:0:0:0:
256,192,108025,1,0,0:0:0:0:
256,192,108093,1,8,0:0:0:0:
256,192,108161,1,8,0:0:0:0:
256,192,108229,1,8,0:0:0:0:
256,192,108297,1,8,0:0:0:0:
256,192,108365,1,8,0:0:0:0:
256,192,108434,1,8,0:0:0:0:
256,192,108502,1,0,0:0:0:0:
256,192,108638,1,8,0:0:0:0:
256,192,108706,1,8,0:0:0:0:
256,192,108775,1,0,0:0:0:0:
256,192,108911,1,0,0:0:0:0:
256,192,109047,1,8,0:0:0:0:
256,192,109115,1,8,0:0:0:0:
256,192,109184,1,8,0:0:0:0:
256,192,109252,1,8,0:0:0:0:
256,192,109320,1,0,0:0:0:0:
256,192,109388,1,0,0:0:0:0:
256,192,109456,1,8,0:0:0:0:
256,192,109525,1,0,0:0:0:0:
256,192,109593,1,8,0:0:0:0:
256,192,109729,1,0,0:0:0:0:
256,192,109797,1,0,0:0:0:0:
256,192,109865,1,8,0:0:0:0:
256,192,109934,1,0,0:0:0:0:
256,192,110002,1,8,0:0:0:0:
256,192,110138,1,0,0:0:0:0:
256,192,110206,1,0,0:0:0:0:
256,192,110275,1,8,0:0:0:0:
256,192,110343,1,8,0:0:0:0:
256,192,110411,1,0,0:0:0:0:
256,192,110547,1,0,0:0:0:0:
256,192,110615,1,0,0:0:0:0:
256,192,110684,1,8,0:0:0:0:
256,192,110820,1,8,0:0:0:0:
256,192,110956,1,0,0:0:0:0:
256,192,112134,1,8,0:0:0:0:
256,192,112227,1,8,0:0:0:0:
256,192,112321,1,8,0:0:0:0:
256,192,112415,1,8,0:0:0:0:
256,192,112509,1,0,0:0:0:0:
256,192,112602,1,0,0:0:0:0:
256,192,112696,1,8,0:0:0:0:
256,192,112790,1,8,0:0:0:0:
256,192,112884,1,0,0:0:0:0:
256,192,112977,1,0,0:0:0:0:
256,192,113071,1,0,0:0:0:0:
256,192,113165,1,0,0:0:0:0:
256,192,113259,1,8,0:0:0:0:
256,192,113352,1,8,0:0:0:0:
256,192,113446,1,8,0:0:0:0:
256,192,113540,1,8,0:0:0:0:
256,192,113634,1,0,0:0:0:0:
256,192,113727,1,0,0:0:0:0:
256,192,113821,1,8,0:0:0:0:
256,192,113915,1,8,0:0:0:0:
256,192,114009,1,0,0:0:0:0:
256,192,114102,1,0,0:0:0:0:
256,192,114196,1,0,0:0:0:0:
256,192,114290,1,0,0:0:0:0:
256,192,114384,1,8,0:0:0:0:
256,192,114571,1,0,0:0:0:0:
256,192,114759,1,0,0:0:0:0:
256,192,114946,1,0,0:0:0:0:
256,192,115134,1,8,0:0:0:0:
256,192,115227,1,8,0:0:0:0:
256,192,115321,1,8,0:0:0:0:
256,192,115415,1,8,0:0:0:0:
256,192,115509,1,0,0:0:0:0:
256,192,115602,1,0,0:0:0:0:
256,192,115696,1,8,0:0:0:0:
256,192,115790,1,8,0:0:0:0:
256,192,115884,1,0,0:0:0:0:
256,192,115977,1,0,0:0:0:0:
256,192,116071,1,0,0:0:0:0:
256,192,116165,1,0,0:0:0:0:
256,192,116259,1,8,0:0:0:0:
256,192,116352,1,0,0:0:0:0:
256,192,116446,1,8,0:0:0:0:
256,192,116540,1,8,0:0:0:0:
256,192,116634,1,0,0:0:0:0:
256,192,116727,1,0,0:0:0:0:
256,192,116821,1,8,0:0:0:0:
256,192,116915,1,8,0:0:0:0:
256,192,117009,1,8,0:0:0:0:
256,192,117102,1,0,0:0:0:0:
256,192,117196,1,0,0:0:0:0:
256,192,117290,1,0,0:0:0:0:
256,192,117384,1,8,0:0:0:0:
256,192,117571,1,0,0:0:0:0:
256,192,117759,1,8,0:0:0:0:
256,192,117946,1,0,0:0:0:0:
256,192,118134,1,8,0:0:0:0:
256,192,118227,1,8,0:0:0:0:
256,192,118321,1,8,0:0:0:0:
256,192,118415,1,8,0:0:0:0:
256,192,118509,1,0,0:0:0:0:
256,192,118602,1,0,0:0:0:0:
256,192,118696,1,8,0:0:0:0:
256,192,118790,1,8,0:0:0:0:
256,192,118884,1,0,0:0:0:0:
256,192,118977,1,0,0:0:0:0:
256,192,119071,1,0,0:0:0:0:
256,192,119165,1,0,0:0:0:0:
256,192,119259,1,8,0:0:0:0:
256,192,119352,1,8,0:0:0:0:
256,192,119446,1,8,0:0:0:0:
256,192,119540,1,8,0:0:0:0:
256,192,119634,1,0,0:0:0:0:
256,192,119727,1,0,0:0:0:0:
256,192,119821,1,8,0:0:0:0:
256,192,119915,1,8,0:0:0:0:
256,192,120009,1,0,0:0:0:0:
256,192,120102,1,0,0:0:0:0:
256,192,120196,1,0,0:0:0:0:
256,192,120290,1,0,0:0:0:0:
256,192,120384,1,8,0:0:0:0:
256,192,120571,1,0,0:0:0:0:
256,192,120759,1,0,0:0:0:0:
256,192,120946,1,0,0:0:0:0:
256,192,121134,1,12,0:0:0:0:
256,192,121696,1,4,0:0:0:0:
256,192,122259,1,12,0:0:0:0:
256,192,122446,1,4,0:0:0:0:
256,192,122821,1,12,0:0:0:0:
256,192,123384,1,0,0:0:0:0:
256,192,123571,1,0,0:0:0:0:
256,192,123759,1,8,0:0:0:0:
256,192,123946,1,0,0:0:0:0:
256,192,124009,1,0,0:0:0:0:
256,192,124071,1,0,0:0:0:0:
256,192,124134,1,8,0:0:0:0:
256,192,124509,1,8,0:0:0:0:
256,192,124566,1,8,0:0:0:0:
256,192,124623,1,8,0:0:0:0:
256,192,124680,1,8,0:0:0:0:
256,192,124738,1,0,0:0:0:0:
256,192,124795,1,0,0:0:0:0:
256,192,124852,1,0,0:0:0:0:
256,192,124909,1,0,0:0:0:0:
256,192,124967,1,8,0:0:0:0:
256,192,125081,1,0,0:0:0:0:
256,192,125138,1,0,0:0:0:0:
256,192,125196,1,8,0:0:0:0:
256,192,125310,1,0,0:0:0:0:
256,192,125425,1,8,0:0:0:0:
256,192,125482,1,8,0:0:0:0:
256,192,125539,1,0,0:0:0:0:
256,192,125596,1,0,0:0:0:0:
256,192,125654,1,8,0:0:0:0:
256,192,125711,1,8,0:0:0:0:
256,192,125768,1,0,0:0:0:0:
256,192,125825,1,0,0:0:0:0:
256,192,125883,1,8,0:0:0:0:
256,192,125940,1,0,0:0:0:0:
256,192,125997,1,8,0:0:0:0:
256,192,126054,1,0,0:0:0:0:
256,192,126112,1,8,0:0:0:0:
256,192,126226,1,0,0:0:0:0:
256,192,126341,1,8,0:0:0:0:
256,192,126401,1,8,0:0:0:0:
256,192,126461,1,8,0:0:0:0:
256,192,126521,1,8,0:0:0:0:
256,192,126581,1,0,0:0:0:0:
256,192,126641,1,0,0:0:0:0:
256,192,126701,1,0,0:0:0:0:
256,192,126761,1,0,0:0:0:0:
256,192,126821,1,8,0:0:0:0:
256,192,126941,1,0,0:0:0:0:
256,192,127001,1,0,0:0:0:0:
256,192,127061,1,8,0:0:0:0:
256,192,127121,1,8,0:0:0:0:
256,192,127181,1,0,0:0:0:0:
256,192,127301,1,8,0:0:0:0:
256,192,127363,1,8,0:0:0:0:
256,192,127425,1,0,0:0:0:0:
256,192,127487,1,0,0:0:0:0:
256,192,127549,1,8,0:0:0:0:
256,192,127612,1,8,0:0:0:0:
256,192,127674,1,0,0:0:0:0:
256,192,127736,1,0,0:0:0:0:
256,192,127798,1,8,0:0:0:0:
256,192,127861,1,8,0:0:0:0:
256,192,127923,1,8,0:0:0:0:
256,192,127985,1,8,0:0:0:0:
256,192,128047,1,8,0:0:0:0:
256,192,128172,1,0,0:0:0:0:
256,192,128296,1,8,0:0:0:0:
256,192,128359,1,8,0:0:0:0:
256,192,128421,1,8,0:0:0:0:
256,192,128483,1,8,0:0:0:0:
256,192,128545,1,0,0:0:0:0:
256,192,128608,1,0,0:0:0:0:
256,192,128670,1,0,0:0:0:0:
256,192,128732,1,0,0:0:0:0:
256,192,128794,1,8,0:0:0:0:
256,192,128919,1,0,0:0:0:0:
256,192,128981,1,0,0:0:0:0:
256,192,129043,1,8,0:0:0:0:
256,192,129168,1,0,0:0:0:0:
256,192,129292,1,8,0:0:0:0:
256,192,129352,1,8,0:0:0:0:
256,192,129412,1,0,0:0:0:0:
256,192,129473,1,0,0:0:0:0:
256,192,129533,1,8,0:0:0:0:
256,192,129594,1,8,0:0:0:0:
256,192,129654,1,0,0:0:0:0:
256,192,129715,1,0,0:0:0:0:
256,192,129775,1,8,0:0:0:0:
256,192,129836,1,0,0:0:0:0:
256,192,129896,1,8,0:0:0:0:
256,192,129957,1,0,0:0:0:0:
256,192,130017,1,8,0:0:0:0:
256,192,130138,1,0,0:0:0:0:
256,192,130259,1,8,0:0:0:0:
256,192,130320,1,8,0:0:0:0:
256,192,130381,1,8,0:0:0:0:
256,192,130442,1,8,0:0:0:0:
256,192,130503,1,0,0:0:0:0:
256,192,130565,1,0,0:0:0:0:
256,192,130626,1,0,0:0:0:0:
256,192,130687,1,0,0:0:0:0:
256,192,130748,1,8,0:0:0:0:
256,192,130871,1,0,0:0:0:0:
256,192,130932,1,0,0:0:0:0:
256,192,130993,1,8,0:0:0:0:
256,192,131054,1,8,0:0:0:0:
256,192,131116,1,0,0:0:0:0:
256,192,131238,1,8,0:0:0:0:
256,192,131307,1,8,0:0:0:0:
256,192,131377,1,0,0:0:0:0:
256,192,131447,1,0,0:0:0:0:
256,192,131517,1,8,0:0:0:0:
256,192,131587,1,8,0:0:0:0:
256,192,131657,1,0,0:0:0:0:
256,192,131727,1,0,0:0:0:0:
256,192,131797,1,8,0:0:0:0:
256,192,131867,1,8,0:0:0:0:
256,192,131937,1,8,0:0:0:0:
256,192,132007,1,8,0:0:0:0:
256,192,132077,1,0,0:0:0:0:
256,192,132217,1,8,0:0:0:0:
256,192,132357,1,0,0:0:0:0:
256,192,132831,1,8,0:0:0:0:
256,192,132893,1,0,0:0:0:0:
256,192,132956,1,0,0:0:0:0:
256,192,133018,1,0,0:0:0:0:
256,192,133081,1,0,0:0:0:0:
256,192,133143,1,0,0:0:0:0:
256,192,133206,1,0,0:0:0:0:
256,192,133268,1,0,0:0:0:0:
256,192,133331,1,8,0:0:0:0:
256,192,133393,1,8,0:0:0:0:
256,192,133456,1,0,0:0:0:0:
256,192,133518,1,0,0:0:0:0:
256,192,133581,1,8,0:0:0:0:
256,192,133643,1,0,0:0:0:0:
256,192,133706,1,0,0:0:0:0:
256,192,133768,1,0,0:0:0:0:
256,192,133831,1,8,0:0:0:0:
256,192,133956,1,0,0:0:0:0:
256,192,134081,1,8,0:0:0:0:
256,192,134143,1,8,0:0:0:0:
256,192,134206,1,8,0:0:0:0:
256,192,134268,1,8,0:0:0:0:
256,192,134331,1,0,0:0:0:0:
256,192,134456,1,0,0:0:0:0:
256,192,134518,1,0,0:0:0:0:
256,192,134581,1,8,0:0:0:0:
256,192,134706,1,0,0:0:0:0:
256,192,134831,1,8,0:0:0:0:
256,192,134893,1,8,0:0:0:0:
256,192,134956,1,8,0:0:0:0:
256,192,135018,1,8,0:0:0:0:
256,192,135081,1,0,0:0:0:0:
256,192,135143,1,0,0:0:0:0:
256,192,135206,1,0,0:0:0:0:
256,192,135268,1,0,0:0:0:0:
256,192,135331,1,8,0:0:0:0:
256,192,135393,1,8,0:0:0:0:
256,192,135456,1,0,0:0:0:0:
256,192,135518,1,0,0:0:0:0:
256,192,135581,1,8,0:0:0:0:
256,192,135643,1,0,0:0:0:0:
256,192,135706,1,0,0:0:0:0:
256,192,135768,1,0,0:0:0:0:
256,192,135831,1,8,0:0:0:0:
256,192,135956,1,0,0:0:0:0:
256,192,136081,1,8,0:0:0:0:
256,192,136143,1,0,0:0:0:0:
256,192,136206,1,0,0:0:0:0:
256,192,136268,1,0,0:0:0:0:
256,192,136331,1,8,0:0:0:0:
256,192,136393,1,8,0:0:0:0:
256,192,136456,1,0,0:0:0:0:
256,192,136518,1,0,0:0:0:0:
256,192,136581,1,8,0:0:0:0:
256,192,136706,1,0,0:0:0:0:
256,192,136831,1,8,0:0:0:0:
256,192,136893,1,8,0:0:0:0:
256,192,136956,1,0,0:0:0:0:
256,192,137018,1,0,0:0:0:0:
256,192,137081,1,8,0:0:0:0:
256,192,137143,1,0,0:0:0:0:
256,192,137206,1,0,0:0:0:0:
256,192,137268,1,0,0:0:0:0:
256,192,137331,1,8,0:0:0:0:
256,192,137393,1,8,0:0:0:0:
256,192,137456,1,0,0:0:0:0:
256,192,137518,1,0,0:0:0:0:
256,192,137581,1,8,0:0:0:0:
256,192,137706,1,0,0:0:0:0:
256,192,137831,1,8,0:0:0:0:
256,192,137893,1,8,0:0:0:0:
256,192,137956,1,0,0:0:0:0:
256,192,138018,1,0,0:0:0:0:
256,192,138081,1,8,0:0:0:0:
256,192,138143,1,8,0:0:0:0:
256,192,138206,1,8,0:0:0:0:
256,192,138268,1,8,0:0:0:0:
256,192,138331,1,8,0:0:0:0:
256,192,138393,1,8,0:0:0:0:
256,192,138456,1,8,0:0:0:0:
256,192,138518,1,8,0:0:0:0:
256,192,138581,1,0,0:0:0:0:
256,192,138643,1,0,0:0:0:0:
256,192,138706,1,0,0:0:0:0:
256,192,138768,1,0,0:0:0:0:
256,192,138831,1,8,0:0:0:0:
256,192,138956,1,0,0:0:0:0:
256,192,139081,1,8,0:0:0:0:
256,192,139143,1,8,0:0:0:0:
256,192,139206,1,0,0:0:0:0:
256,192,139331,1,8,0:0:0:0:
256,192,139456,1,0,0:0:0:0:
256,192,139581,1,8,0:0:0:0:
256,192,139643,1,0,0:0:0:0:
256,192,139706,1,0,0:0:0:0:
256,192,139831,1,8,0:0:0:0:
256,192,139956,1,0,0:0:0:0:
256,192,140081,1,8,0:0:0:0:
256,192,140143,1,8,0:0:0:0:
256,192,140206,1,8,0:0:0:0:
256,192,140268,1,8,0:0:0:0:
256,192,140331,1,0,0:0:0:0:
256,192,140456,1,0,0:0:0:0:
256,192,140518,1,0,0:0:0:0:
256,192,140581,1,8,0:0:0:0:
256,192,140706,1,0,0:0:0:0:
256,192,140831,1,8,0:0:0:0:
256,192,140893,1,8,0:0:0:0:
256,192,140956,1,0,0:0:0:0:
256,192,141018,1,0,0:0:0:0:
256,192,141081,1,8,0:0:0:0:
256,192,141143,1,0,0:0:0:0:
256,192,141206,1,0,0:0:0:0:
256,192,141268,1,0,0:0:0:0:
256,192,141331,1,8,0:0:0:0:
256,192,141393,1,8,0:0:0:0:
256,192,141456,1,0,0:0:0:0:
256,192,141518,1,0,0:0:0:0:
256,192,141581,1,8,0:0:0:0:
256,192,141643,1,0,0:0:0:0:
256,192,141706,1,0,0:0:0:0:
256,192,141768,1,0,0:0:0:0:
256,192,141831,1,8,0:0:0:0:
256,192,141956,1,0,0:0:0:0:
256,192,142081,1,8,0:0:0:0:
256,192,142143,1,8,0:0:0:0:
256,192,142206,1,8,0:0:0:0:
256,192,142268,1,8,0:0:0:0:
256,192,142331,1,0,0:0:0:0:
256,192,142456,1,0,0:0:0:0:
256,192,142518,1,0,0:0:0:0:
256,192,142581,1,8,0:0:0:0:
256,192,142706,1,0,0:0:0:0:
256,192,142831,1,8,0:0:0:0:
256,192,142893,1,0,0:0:0:0:
256,192,142956,1,0,0:0:0:0:
256,192,143018,1,0,0:0:0:0:
256,192,143081,1,8,0:0:0:0:
256,192,143143,1,0,0:0:0:0:
256,192,143206,1,0,0:0:0:0:
256,192,143268,1,8,0:0:0:0:
256,192,143331,1,0,0:0:0:0:
256,192,143393,1,0,0:0:0:0:
256,192,143456,1,8,0:0:0:0:
256,192,143518,1,8,0:0:0:0:
256,192,143581,1,8,0:0:0:0:
256,192,143643,1,8,0:0:0:0:
256,192,143706,1,0,0:0:0:0:
256,192,143768,1,0,0:0:0:0:
256,192,143831,1,8,0:0:0:0:
256,192,143956,1,0,0:0:0:0:
256,192,144081,1,8,0:0:0:0:
256,192,144143,1,0,0:0:0:0:
256,192,144206,1,8,0:0:0:0:
256,192,144268,1,8,0:0:0:0:
256,192,144331,1,0,0:0:0:0:
256,192,144393,1,0,0:0:0:0:
256,192,144456,1,0,0:0:0:0:
256,192,144518,1,0,0:0:0:0:
256,192,144581,1,8,0:0:0:0:
256,192,144706,1,0,0:0:0:0:
256,192,144831,1,8,0:0:0:0:
256,192,144893,1,8,0:0:0:0:
256,192,144956,1,0,0:0:0:0:
256,192,145018,1,0,0:0:0:0:
256,192,145081,1,8,0:0:0:0:
256,192,145143,1,0,0:0:0:0:
256,192,145206,1,0,0:0:0:0:
256,192,145268,1,0,0:0:0:0:
256,192,145331,1,8,0:0:0:0:
256,192,145393,1,8,0:0:0:0:
256,192,145456,1,0,0:0:0:0:
256,192,145518,1,0,0:0:0:0:
256,192,145581,1,8,0:0:0:0:
256,192,145706,1,0,0:0:0:0:
256,192,145831,1,8,0:0:0:0:
256,192,145893,1,8,0:0:0:0:
256,192,145956,1,0,0:0:0:0:
256,192,146018,1,0,0:0:0:0:
256,192,146081,1,8,0:0:0:0:
256,192,146143,1,0,0:0:0:0:
256,192,146206,1,8,0:0:0:0:
256,192,146268,1,8,0:0:0:0:
256,192,146331,1,0,0:0:0:0:
256,192,146393,1,0,0:0:0:0:
256,192,146456,1,8,0:0:0:0:
256,192,146518,1,8,0:0:0:0:
256,192,146581,1,8,0:0:0:0:
256,192,146643,1,8,0:0:0:0:
256,192,146706,1,0,0:0:0:0:
256,192,146768,1,0,0:0:0:0:
256,192,146831,1,8,0:0:0:0:
256,192,146956,1,0,0:0:0:0:
256,192,147018,1,0,0:0:0:0:
256,192,147081,1,8,0:0:0:0:
256,192,147143,1,8,0:0:0:0:
256,192,147206,1,0,0:0:0:0:
256,192,147331,1,8,0:0:0:0:
256,192,147393,1,0,0:0:0:0:
256,192,147456,1,0,0:0:0:0:
256,192,147518,1,0,0:0:0:0:
256,192,147581,1,8,0:0:0:0:
256,192,147706,1,0,0:0:0:0:
256,192,147768,1,0,0:0:0:0:
256,192,147831,1,8,0:0:0:0:
256,192,147956,1,0,0:0:0:0:
256,192,148018,1,0,0:0:0:0:
256,192,148081,1,8,0:0:0:0:
256,192,148143,1,0,0:0:0:0:
256,192,148206,1,8,0:0:0:0:
256,192,148268,1,8,0:0:0:0:
256,192,148331,1,0,0:0:0:0:
256,192,148456,1,8,0:0:0:0:
256,192,148581,1,0,0:0:0:0:
256,192,148643,1,0,0:0:0:0:
256,192,148706,1,0,0:0:0:0:
256,192,148831,1,12,0:0:0:0:
256,192,149045,1,0,0:0:0:0:
256,192,149259,1,8,0:0:0:0:
256,192,149366,1,8,0:0:0:0:
256,192,149473,1,8,0:0:0:0:
256,192,149581,1,8,0:0:0:0:
256,192,149688,1,0,0:0:0:0:
256,192,149795,1,0,0:0:0:0:
256,192,149902,1,0,0:0:0:0:
256,192,150009,1,0,0:0:0:0:
256,192,150116,1,8,0:0:0:0:
256,192,150223,1,0,0:0:0:0:
256,192,150331,1,0,0:0:0:0:
256,192,150438,1,0,0:0:0:0:
256,192,150545,1,8,0:0:0:0:
256,192,150652,1,8,0:0:0:0:
256,192,150759,1,0,0:0:0:0:
256,192,150866,1,0,0:0:0:0:
256,192,150973,1,8,0:0:0:0:
256,192,151081,1,8,0:0:0:0:
256,192,151188,1,8,0:0:0:0:
256,192,151295,1,8,0:0:0:0:
256,192,151402,1,0,0:0:0:0:
256,192,151509,1,0,0:0:0:0:
256,192,151616,1,0,0:0:0:0:
256,192,151723,1,0,0:0:0:0:
256,192,151831,1,8,0:0:0:0:
256,192,151938,1,0,0:0:0:0:
256,192,152045,1,0,0:0:0:0:
256,192,152152,1,0,0:0:0:0:
256,192,152259,1,8,0:0:0:0:
256,192,152366,1,8,0:0:0:0:
256,192,152473,1,0,0:0:0:0:
256,192,152581,1,0,0:0:0:0:
256,192,152688,1,8,0:0:0:0:
256,192,152795,1,8,0:0:0:0:
256,192,152902,1,8,0:0:0:0:
256,192,153009,1,8,0:0:0:0:
256,192,153116,1,0,0:0:0:0:
256,192,153223,1,0,0:0:0:0:
256,192,153331,1,0,0:0:0:0:
256,192,153438,1,0,0:0:0:0:
256,192,153545,1,8,0:0:0:0:
256,192,153652,1,0,0:0:0:0:
256,192,153759,1,0,0:0:0:0:
256,192,153866,1,0,0:0:0:0:
256,192,153973,1,8,0:0:0:0:
256,192,154188,1,0,0:0:0:0:
256,192,154259,1,0,0:0:0:0:
256,192,154331,1,0,0:0:0:0:
256,192,154402,1,8,0:0:0:0:
256,192,154473,1,8,0:0:0:0:
256,192,154545,1,8,0:0:0:0:
256,192,154616,1,0,0:0:0:0:
256,192,154723,1,0,0:0:0:0:
256,192,154831,1,8,0:0:0:0:
256,192,155045,1,0,0:0:0:0:
256,192,155098,1,0,0:0:0:0:
256,192,155152,1,0,0:0:0:0:
256,192,155206,1,0,0:0:0:0:
256,192,155259,1,8,0:0:0:0:
256,192,155366,1,0,0:0:0:0:
256,192,155473,1,8,0:0:0:0:
256,192,155581,1,8,0:0:0:0:
256,192,155688,1,0,0:0:0:0:
256,192,155902,1,0,0:0:0:0:
256,192,156116,1,8,0:0:0:0:
256,192,156223,1,8,0:0:0:0:
256,192,156331,1,8,0:0:0:0:
256,192,156438,1,8,0:0:0:0:
256,192,156545,1,0,0:0:0:0:
256,192,156652,1,0,0:0:0:0:
256,192,156759,1,0,0:0:0:0:
256,192,156866,1,0,0:0:0:0:
256,192,156973,1,8,0:0:0:0:
256,192,157081,1,0,0:0:0:0:
256,192,157188,1,0,0:0:0:0:
256,192,157295,1,0,0:0:0:0:
256,192,157402,1,8,0:0:0:0:
256,192,157509,1,8,0:0:0:0:
256,192,157616,1,0,0:0:0:0:
256,192,157723,1,0,0:0:0:0:
256,192,157831,1,8,0:0:0:0:
256,192,157938,1,8,0:0:0:0:
256,192,158045,1,8,0:0:0:0:
256,192,158152,1,8,0:0:0:0:
256,192,158259,1,0,0:0:0:0:
256,192,158366,1,0,0:0:0:0:
256,192,158473,1,0,0:0:0:0:
256,192,158581,1,0,0:0:0:0:
256,192,158688,1,8,0:0:0:0:
256,192,158795,1,0,0:0:0:0:
256,192,158902,1,0,0:0:0:0:
256,192,159009,1,0,0:0:0:0:
256,192,159116,1,8,0:0:0:0:
256,192,159223,1,8,0:0:0:0:
256,192,159331,1,0,0:0:0:0:
256,192,159438,1,0,0:0:0:0:
256,192,159545,1,8,0:0:0:0:
256,192,159652,1,8,0:0:0:0:
256,192,159759,1,8,0:0:0:0:
256,192,159866,1,8,0:0:0:0:
256,192,159973,1,0,0:0:0:0:
256,192,160081,1,0,0:0:0:0:
256,192,160188,1,0,0:0:0:0:
256,192,160295,1,0,0:0:0:0:
256,192,160402,1,8,0:0:0:0:
256,192,160509,1,0,0:0:0:0:
256,192,160616,1,0,0:0:0:0:
256,192,160723,1,0,0:0:0:0:
256,192,160830,1,8,0:0:0:0:
256,192,160938,1,8,0:0:0:0:
256,192,161045,1,8,0:0:0:0:
256,192,161152,1,0,0:0:0:0:
256,192,161366,1,0,0:0:0:0:
256,192,161420,1,0,0:0:0:0:
256,192,161473,1,0,0:0:0:0:
256,192,161580,1,0,0:0:0:0:
256,192,161688,1,8,0:0:0:0:
256,192,161902,1,0,0:0:0:0:
256,192,161973,1,0,0:0:0:0:
256,192,162045,1,0,0:0:0:0:
256,192,162116,1,8,0:0:0:0:
256,192,162330,1,0,0:0:0:0:
256,192,162545,1,8,0:0:0:0:
256,192,162610,1,8,0:0:0:0:
256,192,162675,1,0,0:0:0:0:
256,192,162740,1,0,0:0:0:0:
256,192,162805,1,0,0:0:0:0:
256,192,162871,1,0,0:0:0:0:
256,192,162936,1,8,0:0:0:0:
256,192,163001,1,8,0:0:0:0:
256,192,163066,1,8,0:0:0:0:
256,192,163131,1,8,0:0:0:0:
256,192,163197,1,0,0:0:0:0:
256,192,163262,1,0,0:0:0:0:
256,192,163327,1,8,0:0:0:0:
256,192,163392,1,8,0:0:0:0:
256,192,163458,1,0,0:0:0:0:
256,192,163523,1,0,0:0:0:0:
256,192,163588,1,8,0:0:0:0:
256,192,163653,1,8,0:0:0:0:
256,192,163718,1,8,0:0:0:0:
256,192,163784,1,8,0:0:0:0:
256,192,163849,1,0,0:0:0:0:
256,192,163914,1,0,0:0:0:0:
256,192,163979,1,0,0:0:0:0:
256,192,164045,1,0,0:0:0:0:
256,192,164110,1,8,0:0:0:0:
256,192,164175,1,8,0:0:0:0:
256,192,164240,1,8,0:0:0:0:
256,192,164305,1,8,0:0:0:0:
256,192,164371,1,0,0:0:0:0:
256,192,164501,1,0,0:0:0:0:
256,192,164631,1,8,0:0:0:0:
256,192,164697,1,8,0:0:0:0:
256,192,164762,1,0,0:0:0:0:
256,192,164827,1,0,0:0:0:0:
256,192,164892,1,0,0:0:0:0:
256,192,164958,1,0,0:0:0:0:
256,192,165023,1,8,0:0:0:0:
256,192,165088,1,8,0:0:0:0:
256,192,165153,1,8,0:0:0:0:
256,192,165218,1,8,0:0:0:0:
256,192,165284,1,0,0:0:0:0:
256,192,165349,1,0,0:0:0:0:
256,192,165414,1,8,0:0:0:0:
256,192,165479,1,8,0:0:0:0:
256,192,165545,1,0,0:0:0:0:
256,192,165610,1,8,0:0:0:0:
256,192,165675,1,0,0:0:0:0:
256,192,165740,1,8,0:0:0:0:
256,192,165805,1,8,0:0:0:0:
256,192,165871,1,8,0:0:0:0:
256,192,165936,1,0,0:0:0:0:
256,192,166001,1,0,0:0:0:0:
256,192,166066,1,0,0:0:0:0:
256,192,166131,1,0,0:0:0:0:
256,192,166197,1,8,0:0:0:0:
256,192,166262,1,8,0:0:0:0:
256,192,166327,1,8,0:0:0:0:
256,192,166392,1,8,0:0:0:0:
256,192,166458,1,0,0:0:0:0:
256,192,166588,1,0,0:0:0:0:
256,192,166718,1,8,0:0:0:0:
256,192,166784,1,8,0:0:0:0:
256,192,166849,1,0,0:0:0:0:
256,192,166914,1,0,0:0:0:0:
256,192,166979,1,0,0:0:0:0:
256,192,167045,1,0,0:0:0:0:
256,192,167110,1,8,0:0:0:0:
256,192,167175,1,8,0:0:0:0:
256,192,167240,1,8,0:0:0:0:
256,192,167305,1,8,0:0:0:0:
256,192,167371,1,0,0:0:0:0:
256,192,167436,1,0,0:0:0:0:
256,192,167501,1,8,0:0:0:0:
256,192,167566,1,8,0:0:0:0:
256,192,167631,1,0,0:0:0:0:
256,192,167697,1,8,0:0:0:0:
256,192,167762,1,8,0:0:0:0:
256,192,167827,1,8,0:0:0:0:
256,192,167892,1,0,0:0:0:0:
256,192,167958,1,8,0:0:0:0:
256,192,168023,1,0,0:0:0:0:
256,192,168088,1,0,0:0:0:0:
256,192,168153,1,0,0:0:0:0:
256,192,168218,1,0,0:0:0:0:
256,192,168284,1,8,0:0:0:0:
256,192,168349,1,8,0:0:0:0:
256,192,168414,1,8,0:0:0:0:
256,192,168479,1,8,0:0:0:0:
256,192,168545,1,0,0:0:0:0:
256,192,168675,1,0,0:0:0:0:
256,192,168805,1,8,0:0:0:0:
256,192,168871,1,0,0:0:0:0:
256,192,168936,1,8,0:0:0:0:
256,192,169001,1,8,0:0:0:0:
256,192,169066,1,0,0:0:0:0:
256,192,169131,1,0,0:0:0:0:
256,192,169197,1,8,0:0:0:0:
256,192,169262,1,0,0:0:0:0:
256,192,169327,1,8,0:0:0:0:
256,192,169392,1,8,0:0:0:0:
256,192,169458,1,0,0:0:0:0:
256,192,169523,1,8,0:0:0:0:
256,192,169588,1,8,0:0:0:0:
256,192,169653,1,8,0:0:0:0:
256,192,169718,1,0,0:0:0:0:
256,192,169784,1,8,0:0:0:0:
256,192,169849,1,8,0:0:0:0:
256,192,169914,1,0,0:0:0:0:
256,192,169979,1,8,0:0:0:0:
256,192,170110,1,0,0:0:0:0:
256,192,170175,1,0,0:0:0:0:
256,192,170240,1,8,0:0:0:0:
256,192,170305,1,8,0:0:0:0:
256,192,170371,1,0,0:0:0:0:
256,192,170501,1,12,0:0:0:0:
256,192,170631,1,4,0:0:0:0:
256,192,170892,1,8,0:0:0:0:
256,192,170958,1,8,0:0:0:0:
256,192,171023,1,0,0:0:0:0:
256,192,171088,1,0,0:0:0:0:
256,192,171153,1,0,0:0:0:0:
256,192,171218,1,0,0:0:0:0:
256,192,171284,1,8,0:0:0:0:
256,192,171349,1,8,0:0:0:0:
256,192,171414,1,0,0:0:0:0:
256,192,171479,1,0,0:0:0:0:
256,192,171545,1,0,0:0:0:0:
256,192,171610,1,0,0:0:0:0:
256,192,171675,1,8,0:0:0:0:
256,192,171740,1,8,0:0:0:0:
256,192,171805,1,0,0:0:0:0:
256,192,171871,1,0,0:0:0:0:
256,192,171936,1,0,0:0:0:0:
256,192,172001,1,0,0:0:0:0:
256,192,172066,1,8,0:0:0:0:
256,192,172131,1,8,0:0:0:0:
256,192,172197,1,8,0:0:0:0:
256,192,172262,1,8,0:0:0:0:
256,192,172327,1,8,0:0:0:0:
256,192,172392,1,8,0:0:0:0:
256,192,172458,1,0,0:0:0:0:
256,192,172588,1,8,0:0:0:0:
256,192,172653,1,8,0:0:0:0:
256,192,172718,1,0,0:0:0:0:
256,192,172849,1,0,0:0:0:0:
256,192,172979,1,8,0:0:0:0:
256,192,173045,1,8,0:0:0:0:
256,192,173110,1,0,0:0:0:0:
256,192,173175,1,0,0:0:0:0:
256,192,173240,1,0,0:0:0:0:
256,192,173305,1,0,0:0:0:0:
256,192,173371,1,8,0:0:0:0:
256,192,173436,1,8,0:0:0:0:
256,192,173501,1,0,0:0:0:0:
256,192,173566,1,0,0:0:0:0:
256,192,173631,1,0,0:0:0:0:
256,192,173697,1,0,0:0:0:0:
256,192,173762,1,8,0:0:0:0:
256,192,173827,1,0,0:0:0:0:
256,192,173892,1,8,0:0:0:0:
256,192,173958,1,8,0:0:0:0:
256,192,174023,1,0,0:0:0:0:
256,192,174088,1,0,0:0:0:0:
256,192,174153,1,8,0:0:0:0:
256,192,174218,1,8,0:0:0:0:
256,192,174284,1,8,0:0:0:0:
256,192,174349,1,0,0:0:0:0:
256,192,174414,1,0,0:0:0:0:
256,192,174479,1,0,0:0:0:0:
256,192,174545,1,8,0:0:0:0:
256,192,174675,1,0,0:0:0:0:
256,192,174805,1,8,0:0:0:0:
256,192,174936,1,0,0:0:0:0:
256,192,175066,1,8,0:0:0:0:
256,192,175131,1,8,0:0:0:0:
256,192,175197,1,8,0:0:0:0:
256,192,175262,1,8,0:0:0:0:
256,192,175327,1,0,0:0:0:0:
256,192,175392,1,0,0:0:0:0:
256,192,175458,1,8,0:0:0:0:
256,192,175523,1,8,0:0:0:0:
256,192,175588,1,8,0:0:0:0:
256,192,175653,1,8,0:0:0:0:
256,192,175718,1,0,0:0:0:0:
256,192,175784,1,0,0:0:0:0:
256,192,175849,1,8,0:0:0:0:
256,192,175914,1,8,0:0:0:0:
256,192,175979,1,8,0:0:0:0:
256,192,176045,1,8,0:0:0:0:
256,192,176110,1,0,0:0:0:0:
256,192,176175,1,0,0:0:0:0:
256,192,176240,1,8,0:0:0:0:
256,192,176305,1,8,0:0:0:0:
256,192,176371,1,8,0:0:0:0:
256,192,176436,1,8,0:0:0:0:
256,192,176501,1,8,0:0:0:0:
256,192,176566,1,8,0:0:0:0:
256,192,176631,1,0,0:0:0:0:
256,192,176762,1,8,0:0:0:0:
256,192,176827,1,8,0:0:0:0:
256,192,176892,1,0,0:0:0:0:
256,192,177023,1,0,0:0:0:0:
256,192,177153,1,8,0:0:0:0:
256,192,177218,1,8,0:0:0:0:
256,192,177284,1,8,0:0:0:0:
256,192,177349,1,8,0:0:0:0:
256,192,177414,1,0,0:0:0:0:
256,192,177479,1,0,0:0:0:0:
256,192,177544,1,8,0:0:0:0:
256,192,177610,1,8,0:0:0:0:
256,192,177675,1,8,0:0:0:0:
256,192,177740,1,8,0:0:0:0:
256,192,177805,1,0,0:0:0:0:
256,192,177871,1,0,0:0:0:0:
256,192,177936,1,8,0:0:0:0:
256,192,178001,1,0,0:0:0:0:
256,192,178066,1,8,0:0:0:0:
256,192,178131,1,8,0:0:0:0:
256,192,178197,1,0,0:0:0:0:
256,192,178262,1,0,0:0:0:0:
256,192,178327,1,8,0:0:0:0:
256,192,178392,1,8,0:0:0:0:
256,192,178458,1,8,0:0:0:0:
256,192,178523,1,0,0:0:0:0:
256,192,178588,1,0,0:0:0:0:
256,192,178653,1,0,0:0:0:0:
256,192,178718,1,8,0:0:0:0:
256,192,178849,1,8,0:0:0:0:
256,192,178979,1,0,0:0:0:0:
256,192,180805,1,12,0:0:0:0:
256,192,181001,1,0,0:0:0:0:
256,192,181197,1,0,0:0:0:0:
256,192,181393,1,0,0:0:0:0:
256,192,181589,1,8,0:0:0:0:
256,192,181785,1,8,0:0:0:0:
256,192,181981,1,0,0:0:0:0:
256,192,182177,1,0,0:0:0:0:
256,192,182373,1,8,0:0:0:0:
256,192,182569,1,0,0:0:0:0:
256,192,182765,1,8,0:0:0:0:
256,192,182961,1,8,0:0:0:0:
256,192,183157,1,0,0:0:0:0:
256,192,183354,1,8,0:0:0:0:
256,192,183550,1,0,0:0:0:0:
256,192,183746,1,0,0:0:0:0:
256,192,183942,1,8,0:0:0:0:
256,192,184138,1,0,0:0:0:0:
256,192,184334,1,0,0:0:0:0:
256,192,184530,1,0,0:0:0:0:
256,192,184726,1,8,0:0:0:0:
256,192,184922,1,8,0:0:0:0:
256,192,185118,1,0,0:0:0:0:
256,192,185314,1,0,0:0:0:0:
256,192,185510,1,8,0:0:0:0:
256,192,185706,1,0,0:0:0:0:
256,192,185903,1,8,0:0:0:0:
256,192,186099,1,8,0:0:0:0:
256,192,186295,1,0,0:0:0:0:
256,192,186491,1,8,0:0:0:0:
256,192,186687,1,0,0:0:0:0:
256,192,186883,1,0,0:0:0:0:
256,192,187079,1,12,0:0:0:0:
256,192,187275,1,0,0:0:0:0:
256,192,187471,1,0,0:0:0:0:
256,192,187667,1,0,0:0:0:0:
256,192,187863,1,8,0:0:0:0:
256,192,188059,1,8,0:0:0:0:
256,192,188255,1,0,0:0:0:0:
256,192,188452,1,0,0:0:0:0:
256,192,188648,1,8,0:0:0:0:
256,192,188844,1,0,0:0:0:0:
256,192,189040,1,8,0:0:0:0:
256,192,189236,1,8,0:0:0:0:
256,192,189432,1,0,0:0:0:0:
256,192,189628,1,8,0:0:0:0:
256,192,189824,1,0,0:0:0:0:
256,192,190020,1,0,0:0:0:0:
256,192,190216,1,8,0:0:0:0:
256,192,190265,1,8,0:0:0:0:
256,192,190412,1,0,0:0:0:0:
256,192,190608,1,0,0:0:0:0:
256,192,190805,1,8,0:0:0:0:
256,192,190854,1,8,0:0:0:0:
256,192,191001,1,0,0:0:0:0:
256,192,191197,1,0,0:0:0:0:
256,192,191393,1,0,0:0:0:0:
256,192,191589,1,8,0:0:0:0:
256,192,191638,1,8,0:0:0:0:
256,192,191785,1,0,0:0:0:0:
256,192,191981,1,0,0:0:0:0:
256,192,192177,1,0,0:0:0:0:
256,192,192373,1,8,0:0:0:0:
256,192,192569,1,8,0:0:0:0:
256,192,192765,1,0,0:0:0:0:
256,192,192961,1,8,0:0:0:0:
256,192,193157,1,0,0:0:0:0:
256,192,193354,1,12,0:0:0:0:
256,192,193550,1,0,0:0:0:0:
256,192,193746,1,0,0:0:0:0:
256,192,193942,1,0,0:0:0:0:
256,192,194138,1,8,0:0:0:0:
256,192,194334,1,8,0:0:0:0:
256,192,194530,1,0,0:0:0:0:
256,192,194726,1,4,0:0:0:0:
256,192,194922,1,12,0:0:0:0:
256,192,195118,1,0,0:0:0:0:
256,192,195314,1,8,0:0:0:0:
256,192,195510,1,8,0:0:0:0:
256,192,195706,1,0,0:0:0:0:
256,192,195903,1,8,0:0:0:0:
256,192,196099,1,0,0:0:0:0:
256,192,196295,1,4,0:0:0:0:
256,192,196491,1,12,0:0:0:0:
256,192,196687,1,0,0:0:0:0:
256,192,196883,1,0,0:0:0:0:
256,192,197079,1,0,0:0:0:0:
256,192,197275,1,8,0:0:0:0:
256,192,197471,1,8,0:0:0:0:
256,192,197667,1,0,0:0:0:0:
256,192,197863,1,8,0:0:0:0:
256,192,198059,1,0,0:0:0:0:
256,192,198255,1,0,0:0:0:0:
256,192,198452,1,8,0:0:0:0:
256,192,198648,1,0,0:0:0:0:
256,192,198844,1,8,0:0:0:0:
256,192,199040,1,8,0:0:0:0:
256,192,199236,1,0,0:0:0:0:
256,192,199432,1,0,0:0:0:0:
256,192,199628,1,12,0:0:0:0:
256,192,199824,1,0,0:0:0:0:
256,192,200020,1,0,0:0:0:0:
256,192,200216,1,0,0:0:0:0:
256,192,200412,1,8,0:0:0:0:
256,192,200608,1,8,0:0:0:0:
256,192,200805,1,0,0:0:0:0:
256,192,201001,1,4,0:0:0:0:
256,192,201197,1,12,0:0:0:0:
256,192,201393,1,0,0:0:0:0:
256,192,201589,1,8,0:0:0:0:
256,192,201785,1,8,0:0:0:0:
256,192,201981,1,0,0:0:0:0:
256,192,202177,1,8,0:0:0:0:
256,192,202373,1,0,0:0:0:0:
256,192,202569,1,4,0:0:0:0:
256,192,202765,1,12,0:0:0:0:
256,192,202961,1,0,0:0:0:0:
256,192,203157,1,0,0:0:0:0:
256,192,203354,1,0,0:0:0:0:
256,192,203550,1,8,0:0:0:0:
256,192,203746,1,8,0:0:0:0:
256,192,203942,1,0,0:0:0:0:
256,192,204138,1,8,0:0:0:0:
256,192,204334,1,0,0:0:0:0:
256,192,204530,1,0,0:0:0:0:
256,192,204726,1,8,0:0:0:0:
256,192,204922,1,0,0:0:0:0:
256,192,205118,1,8,0:0:0:0:
256,192,205314,1,8,0:0:0:0:
256,192,205510,1,0,0:0:0:0:
256,192,205706,1,0,0:0:0:0:
256,192,205903,1,12,0:0:0:0:
256,192,206099,1,0,0:0:0:0:
256,192,206295,1,0,0:0:0:0:
256,192,206491,1,0,0:0:0:0:
256,192,206687,1,8,0:0:0:0:
256,192,206883,1,8,0:0:0:0:
256,192,207079,1,0,0:0:0:0:
256,192,207275,1,4,0:0:0:0:
256,192,207471,1,12,0:0:0:0:
256,192,207667,1,0,0:0:0:0:
256,192,207863,1,8,0:0:0:0:
256,192,208059,1,8,0:0:0:0:
256,192,208255,1,0,0:0:0:0:
256,192,208452,1,8,0:0:0:0:
256,192,208648,1,0,0:0:0:0:
256,192,208844,1,4,0:0:0:0:
256,192,209040,1,12,0:0:0:0:
256,192,209236,1,0,0:0:0:0:
256,192,209432,1,0,0:0:0:0:
256,192,209628,1,0,0:0:0:0:
256,192,209824,1,8,0:0:0:0:
256,192,210020,1,8,0:0:0:0:
256,192,210216,1,0,0:0:0:0:
256,192,210412,1,8,0:0:0:0:
256,192,210608,1,0,0:0:0:0:
256,192,210805,1,0,0:0:0:0:
256,192,211001,1,8,0:0:0:0:
256,192,211197,1,0,0:0:0:0:
256,192,211393,1,8,0:0:0:0:
256,192,211589,1,8,0:0:0:0:
256,192,211785,1,0,0:0:0:0:
256,192,211981,1,0,0:0:0:0:
256,192,212177,1,12,0:0:0:0:
256,192,212373,1,0,0:0:0:0:
256,192,212569,1,0,0:0:0:0:
256,192,212765,1,0,0:0:0:0:
256,192,212961,1,8,0:0:0:0:
256,192,213157,1,8,0:0:0:0:
256,192,213354,1,0,0:0:0:0:
256,192,213550,1,4,0:0:0:0:
256,192,213746,1,12,0:0:0:0:
256,192,213942,1,0,0:0:0:0:
256,192,214138,1,8,0:0:0:0:
256,192,214334,1,8,0:0:0:0:
256,192,214530,1,0,0:0:0:0:
256,192,214726,1,8,0:0:0:0:
256,192,214922,1,0,0:0:0:0:
256,192,215118,1,4,0:0:0:0:
256,192,215314,1,12,0:0:0:0:
256,192,215510,1,0,0:0:0:0:
256,192,215706,1,0,0:0:0:0:
256,192,215903,1,0,0:0:0:0:
256,192,216099,1,8,0:0:0:0:
256,192,216295,1,8,0:0:0:0:
256,192,216491,1,0,0:0:0:0:
256,192,216687,1,8,0:0:0:0:
256,192,216883,1,0,0:0:0:0:
256,192,217079,1,0,0:0:0:0:
256,192,217275,1,8,0:0:0:0:
256,192,217471,1,0,0:0:0:0:
256,192,217667,1,8,0:0:0:0:
256,192,217863,1,8,0:0:0:0:
256,192,218059,1,0,0:0:0:0:
256,192,218255,1,8,0:0:0:0:
