osu file format v14

[General]
AudioFilename: audio.ogg
AudioLeadIn: 0
PreviewTime: 244275
Countdown: 0
SampleSet: Normal
StackLeniency: 0.7
Mode: 1
LetterboxInBreaks: 0
WidescreenStoryboard: 1

[Editor]
Bookmarks: 47290,70288,76865,84573,89716,111998,124871,140871,156871,182471,190471,214471,227953,244875,272303
DistanceSpacing: 0.8
BeatDivisor: 3
GridSize: 32
TimelineZoom: 2.05

[Metadata]
Title:Manufactured Extinct
TitleUnicode:Manufactured Extinct
Artist:Cattle Decapitation
ArtistUnicode:Cattle Decapitation
Creator:Heaxys
Version:Lite Oni
Source:
Tags:technical death grindcore deathcore deathgrind metal english the anthropocene extinction mini pack mini-pack haexy haexys
BeatmapID:3267666
BeatmapSetID:1454753

[Difficulty]
HPDrainRate:5
CircleSize:2
OverallDifficulty:5.5
ApproachRate:10
SliderMultiplier:1.4
SliderTickRate:1

[Events]
//Background and Video events
0,0,"connor-lee-small.jpg",0,0
//Break Periods
//Storyboard Layer 0 (Background)
//Storyboard Layer 1 (Fail)
//Storyboard Layer 2 (Pass)
//Storyboard Layer 3 (Foreground)
//Storyboard Layer 4 (Overlay)
//Storyboard Sound Samples

[TimingPoints]
21007,410.677618069815,4,1,0,100,1,0
76859,410.677618069815,4,1,0,100,1,8
76865,214.285714285714,3,1,0,100,1,0
76865,-117.647058823529,3,1,0,100,0,0
84579,-111.111111111111,3,1,0,100,0,1
89722,-117.647058823529,3,1,0,100,0,0
94864,214.285714285714,4,1,0,100,1,0
94864,-117.647058823529,4,1,0,100,0,0
98292,214.285714285714,3,1,0,100,1,1
98292,-111.111111111111,3,1,0,100,0,1
103434,214.285714285714,4,1,0,100,1,0
103434,-111.111111111111,4,1,0,100,0,0
103594,-117.647058823529,4,1,0,100,0,0
106862,214.285714285714,3,1,0,100,1,1
106862,-111.111111111111,3,1,0,100,0,1
112004,434.782608695652,3,1,0,100,1,0
112004,-54.9450549450549,3,1,0,100,0,0
112871,400,4,1,0,100,1,0
124871,250,4,1,0,100,1,0
124871,-105.263157894737,4,1,0,100,0,0
132618,-104.166666666667,4,1,0,100,0,0
132680,-103.092783505155,4,1,0,100,0,0
132743,-102.040816326531,4,1,0,100,0,0
132805,-101.010101010101,4,1,0,100,0,0
132868,-100,4,1,0,100,0,0
132871,-100,4,1,0,100,0,1
140871,400,4,1,0,100,1,0
140871,-62.5,4,1,0,100,0,0
141271,-76.9230769230769,4,1,0,100,0,0
143671,-100,4,1,0,100,0,0
156871,-100,4,1,0,100,0,1
179271,-99.009900990099,4,1,0,100,0,1
179371,-98.0392156862745,4,1,0,100,0,1
179471,-97.0873786407767,4,1,0,100,0,1
179571,-96.1538461538461,4,1,0,100,0,1
179671,-95.2380952380952,4,1,0,100,0,1
179771,-94.3396226415094,4,1,0,100,0,1
179871,-93.4579439252336,4,1,0,100,0,1
179971,-92.5925925925926,4,1,0,100,0,1
180071,-91.743119266055,4,1,0,100,0,1
180171,-90.9090909090909,4,1,0,100,0,1
180271,-90.0900900900901,4,1,0,100,0,1
180371,-89.2857142857143,4,1,0,100,0,1
180471,-88.4955752212389,4,1,0,100,0,1
180571,-87.719298245614,4,1,0,100,0,1
180671,-86.2068965517241,4,1,0,100,0,1
180771,-84.7457627118644,4,1,0,100,0,1
180871,-83.3333333333333,4,1,0,100,0,1
180970,-81.9672131147541,4,1,0,100,0,1
180971,-82.6446280991736,4,1,0,100,0,1
181020,-81.3008130081301,4,1,0,100,0,1
181070,-80.6451612903226,4,1,0,100,0,1
181120,-80,4,1,0,100,0,1
181170,-79.3650793650794,4,1,0,100,0,1
181220,-78.7401574803149,4,1,0,100,0,1
181270,-78.125,4,1,0,100,0,1
181320,-77.5193798449612,4,1,0,100,0,1
181370,-76.9230769230769,4,1,0,100,0,1
181420,-76.3358778625954,4,1,0,100,0,1
181470,-75.7575757575758,4,1,0,100,0,1
181520,-75.187969924812,4,1,0,100,0,1
181570,-74.6268656716418,4,1,0,100,0,1
181620,-74.0740740740741,4,1,0,100,0,1
181670,-73.5294117647059,4,1,0,100,0,1
181720,-72.992700729927,4,1,0,100,0,1
181770,-72.463768115942,4,1,0,100,0,1
181820,-71.9424460431655,4,1,0,100,0,1
181870,-71.4285714285714,4,1,0,100,0,1
181920,-70.9219858156028,4,1,0,100,0,1
181970,-70.4225352112676,4,1,0,100,0,1
182020,-69.9300699300699,4,1,0,100,0,1
182070,-69.2520775623269,4,1,0,100,0,1
182170,-67.5675675675676,4,1,0,100,0,1
182270,-64.9350649350649,4,1,0,100,0,1
182376,-61.7283950617284,4,1,0,100,0,1
182471,250,4,1,0,100,1,0
182471,-105.263157894736,4,1,0,100,0,0
190221,-104.166666666667,4,1,0,100,0,0
190283,-103.092783505155,4,1,0,100,0,0
190346,-102.040816326531,4,1,0,100,0,0
190408,-101.010101010101,4,1,0,100,0,0
190471,-100,4,1,0,100,0,1
214471,387.096774193548,3,1,0,100,1,0
214471,-64.5994832041344,3,1,0,100,0,0
217954,387.096774193548,3,1,0,100,1,8
218341,400,3,1,0,100,1,0
227941,521.739130434783,4,1,0,100,1,0
227941,-76.9230769230769,4,1,0,100,0,0
228201,447.761194029851,4,1,0,100,1,8
228201,-93.4579439252336,4,1,0,100,0,8
228499,-97.0873786407767,4,1,0,100,0,8
228798,-101.010101010101,4,1,0,100,0,8
229096,517.241379310345,4,1,0,100,1,8
229096,-91.743119266055,4,1,0,100,0,8
229440,-97.0873786407767,4,1,0,100,0,8
229785,-102.040816326531,4,1,0,100,0,8
230130,-108.695652173913,4,1,0,100,0,8
230475,600,3,1,0,100,1,0
243975,-90.9090909090909,3,1,0,100,0,0
244275,-83.3333333333333,3,1,0,100,0,0
244575,-76.9230769230769,3,1,0,100,0,0
244875,600,3,1,0,100,1,8
244887,214.285714285714,4,1,0,100,1,0
244887,-133.333333333333,4,1,0,100,0,0
245744,-127.119721353571,4,1,0,100,0,0
246601,-121.457539051635,4,1,0,100,0,0
247458,-117.647058823529,4,1,0,100,0,0
248315,-117.647058823529,4,1,0,100,0,1
258172,-111.111111111111,4,1,0,100,0,0
258601,-111.111111111111,4,1,0,100,0,1
272315,461.538461538462,4,1,0,100,1,0
272315,-51.5995872033024,4,1,0,100,0,0
272533,-98.0392156862745,4,1,0,100,0,0
274841,-117.647058823529,4,1,0,100,0,0
275995,480,4,1,0,100,1,0
275995,-120.192307692308,4,1,0,100,0,0
276475,444.444444444444,4,1,0,100,1,8
276475,-138.888888888889,4,1,0,100,0,8
276623,-142.857142857143,4,1,0,100,0,8
276771,480,4,1,0,100,1,8
276771,-135.135135135135,4,1,0,100,0,8
276931,-138.888888888889,4,1,0,100,0,8
277288,566.037735849057,4,1,0,100,1,8
277288,-128.205128205128,4,1,0,100,0,8
277665,588.235294117647,4,1,0,100,1,8
277665,-129.87012987013,4,1,0,100,0,8
278057,666.666666666667,4,1,0,100,1,0
278057,-117.647058823529,4,1,0,100,0,0
278914,-129.87012987013,4,1,0,100,0,0

[HitObjects]
256,192,21007,5,4,0:0:0:0:
256,192,21828,1,8,0:0:0:0:
256,192,22649,1,12,0:0:0:0:
256,192,23471,1,12,0:0:0:0:
256,192,24292,1,4,0:0:0:0:
256,192,25113,1,8,0:0:0:0:
256,192,25935,1,8,0:0:0:0:
256,192,26756,1,8,0:0:0:0:
256,192,27577,5,4,0:0:0:0:
256,192,28399,1,8,0:0:0:0:
256,192,29220,1,12,0:0:0:0:
256,192,30041,1,12,0:0:0:0:
256,192,30863,1,12,0:0:0:0:
256,192,31684,1,8,0:0:0:0:
256,192,32095,1,0,0:0:0:0:
256,192,32505,1,8,0:0:0:0:
256,192,32916,1,0,0:0:0:0:
256,192,33121,1,0,0:0:0:0:
256,192,33327,1,8,0:0:0:0:
256,192,33738,1,8,0:0:0:0:
256,192,33943,1,8,0:0:0:0:
256,192,34148,5,4,0:0:0:0:
256,192,34970,1,8,0:0:0:0:
256,192,35791,1,12,0:0:0:0:
256,192,36612,1,12,0:0:0:0:
256,192,37434,1,4,0:0:0:0:
256,192,38255,1,8,0:0:0:0:
256,192,39076,1,8,0:0:0:0:
256,192,39898,1,8,0:0:0:0:
256,192,40719,5,4,0:0:0:0:
256,192,41540,1,8,0:0:0:0:
256,192,42362,1,12,0:0:0:0:
256,192,43183,1,12,0:0:0:0:
256,192,44004,1,12,0:0:0:0:
256,192,44826,1,8,0:0:0:0:
256,192,45236,1,0,0:0:0:0:
256,192,45647,1,8,0:0:0:0:
256,192,46058,1,0,0:0:0:0:
256,192,46263,1,0,0:0:0:0:
256,192,46469,1,8,0:0:0:0:
256,192,46879,1,8,0:0:0:0:
256,192,47085,1,8,0:0:0:0:
256,192,47290,1,4,0:0:0:0:
256,192,47701,5,0,0:0:0:0:
256,192,47906,1,0,0:0:0:0:
256,192,48111,1,8,0:0:0:0:
256,192,48522,1,8,0:0:0:0:
256,192,48727,1,8,0:0:0:0:
256,192,48933,1,8,0:0:0:0:
256,192,49138,1,0,0:0:0:0:
256,192,49343,1,8,0:0:0:0:
256,192,49549,1,0,0:0:0:0:
256,192,49754,1,8,0:0:0:0:
256,192,49959,1,0,0:0:0:0:
256,192,50165,1,8,0:0:0:0:
256,192,50370,1,0,0:0:0:0:
256,192,50575,1,12,0:0:0:0:
256,192,50986,5,0,0:0:0:0:
256,192,51191,1,0,0:0:0:0:
256,192,51397,1,8,0:0:0:0:
256,192,51602,1,0,0:0:0:0:
256,192,51807,1,0,0:0:0:0:
256,192,52013,1,0,0:0:0:0:
256,192,52218,1,8,0:0:0:0:
256,192,52629,1,0,0:0:0:0:
256,192,52834,1,0,0:0:0:0:
256,192,53039,1,8,0:0:0:0:
256,192,53245,1,0,0:0:0:0:
256,192,53450,1,0,0:0:0:0:
256,192,53655,1,0,0:0:0:0:
256,192,53861,1,12,0:0:0:0:
256,192,54271,5,0,0:0:0:0:
256,192,54477,1,0,0:0:0:0:
256,192,54682,1,8,0:0:0:0:
256,192,55093,1,8,0:0:0:0:
256,192,55298,1,0,0:0:0:0:
256,192,55503,1,8,0:0:0:0:
256,192,55709,1,8,0:0:0:0:
256,192,55914,1,8,0:0:0:0:
256,192,56119,1,0,0:0:0:0:
256,192,56325,1,8,0:0:0:0:
256,192,56530,1,0,0:0:0:0:
256,192,56735,1,8,0:0:0:0:
256,192,56941,1,0,0:0:0:0:
256,192,57146,1,12,0:0:0:0:
256,192,57557,5,0,0:0:0:0:
256,192,57762,1,0,0:0:0:0:
256,192,57967,1,8,0:0:0:0:
256,192,58173,1,0,0:0:0:0:
256,192,58378,1,8,0:0:0:0:
256,192,58584,1,0,0:0:0:0:
256,192,58789,1,8,0:0:0:0:
256,192,58840,1,8,0:0:0:0:
256,192,59200,1,8,0:0:0:0:
256,192,59405,1,0,0:0:0:0:
256,192,59610,1,8,0:0:0:0:
256,192,59662,1,8,0:0:0:0:
256,192,60021,1,0,0:0:0:0:
256,192,60226,1,8,0:0:0:0:
256,192,60432,5,12,0:0:0:0:
256,192,60842,1,0,0:0:0:0:
256,192,61048,1,0,0:0:0:0:
256,192,61253,1,8,0:0:0:0:
256,192,61664,1,8,0:0:0:0:
256,192,61869,1,8,0:0:0:0:
256,192,62074,1,8,0:0:0:0:
256,192,62280,1,0,0:0:0:0:
256,192,62485,1,8,0:0:0:0:
256,192,62690,1,0,0:0:0:0:
256,192,62896,1,8,0:0:0:0:
256,192,63101,1,0,0:0:0:0:
256,192,63306,1,8,0:0:0:0:
256,192,63512,1,0,0:0:0:0:
256,192,63717,5,12,0:0:0:0:
256,192,64128,1,0,0:0:0:0:
256,192,64333,1,0,0:0:0:0:
256,192,64538,1,8,0:0:0:0:
256,192,64744,1,0,0:0:0:0:
256,192,64949,1,0,0:0:0:0:
256,192,65154,1,0,0:0:0:0:
256,192,65360,1,8,0:0:0:0:
256,192,65770,1,0,0:0:0:0:
256,192,65976,1,0,0:0:0:0:
256,192,66181,1,8,0:0:0:0:
256,192,66386,1,0,0:0:0:0:
256,192,66592,1,0,0:0:0:0:
256,192,66797,1,0,0:0:0:0:
256,192,67002,1,12,0:0:0:0:
256,192,67413,5,0,0:0:0:0:
256,192,67618,1,0,0:0:0:0:
256,192,67824,1,8,0:0:0:0:
256,192,68234,1,8,0:0:0:0:
256,192,68440,1,0,0:0:0:0:
256,192,68645,1,8,0:0:0:0:
256,192,68850,1,8,0:0:0:0:
256,192,69056,1,8,0:0:0:0:
256,192,69261,1,0,0:0:0:0:
256,192,69466,1,8,0:0:0:0:
256,192,69672,1,0,0:0:0:0:
256,192,69877,1,8,0:0:0:0:
256,192,70082,1,0,0:0:0:0:
256,192,70288,5,12,0:0:0:0:
256,192,71109,1,8,0:0:0:0:
256,192,71931,1,12,0:0:0:0:
256,192,72752,1,8,0:0:0:0:
256,192,73573,1,12,0:0:0:0:
256,192,74395,1,12,0:0:0:0:
256,192,75216,1,12,0:0:0:0:
256,192,76037,1,12,0:0:0:0:
256,192,76865,5,8,0:0:0:0:
256,192,77293,1,0,0:0:0:0:
256,192,77507,1,8,0:0:0:0:
256,192,77722,1,0,0:0:0:0:
256,192,77936,1,0,0:0:0:0:
256,192,78150,1,8,0:0:0:0:
256,192,78579,1,0,0:0:0:0:
256,192,78793,1,8,0:0:0:0:
256,192,79007,1,8,0:0:0:0:
256,192,79222,1,0,0:0:0:0:
256,192,79436,1,12,0:0:0:0:
256,192,79650,5,0,0:0:0:0:
256,192,79757,1,0,0:0:0:0:
256,192,79865,1,8,0:0:0:0:
256,192,79972,1,0,0:0:0:0:
256,192,80079,1,8,0:0:0:0:
256,192,80186,1,8,0:0:0:0:
256,192,80293,1,0,0:0:0:0:
256,192,80347,1,0,0:0:0:0:
256,192,80400,1,0,0:0:0:0:
256,192,80507,1,8,0:0:0:0:
256,192,80615,1,0,0:0:0:0:
256,192,80722,1,8,0:0:0:0:
256,192,80936,1,0,0:0:0:0:
256,192,81043,1,0,0:0:0:0:
256,192,81150,1,8,0:0:0:0:
256,192,81257,1,0,0:0:0:0:
256,192,81365,1,8,0:0:0:0:
256,192,81472,1,0,0:0:0:0:
256,192,81579,1,8,0:0:0:0:
256,192,81632,1,8,0:0:0:0:
256,192,81686,1,8,0:0:0:0:
256,192,81793,1,0,0:0:0:0:
256,192,82007,1,8,0:0:0:0:
256,192,82222,5,0,0:0:0:0:
256,192,82436,1,8,0:0:0:0:
256,192,82543,1,0,0:0:0:0:
256,192,82650,1,8,0:0:0:0:
256,192,82757,1,0,0:0:0:0:
256,192,82864,1,8,0:0:0:0:
256,192,82972,1,8,0:0:0:0:
256,192,83079,1,0,0:0:0:0:
256,192,83132,1,0,0:0:0:0:
256,192,83186,1,0,0:0:0:0:
256,192,83293,1,8,0:0:0:0:
256,192,83507,1,8,0:0:0:0:
256,192,83722,1,0,0:0:0:0:
256,192,83829,1,0,0:0:0:0:
256,192,83936,1,8,0:0:0:0:
256,192,84043,1,0,0:0:0:0:
256,192,84150,1,8,0:0:0:0:
256,192,84364,1,8,0:0:0:0:
256,192,84579,5,12,0:0:0:0:
256,192,84793,1,8,0:0:0:0:
256,192,84900,1,0,0:0:0:0:
256,192,85007,1,8,0:0:0:0:
256,192,85114,1,0,0:0:0:0:
256,192,85222,1,8,0:0:0:0:
256,192,85329,1,8,0:0:0:0:
256,192,85436,1,0,0:0:0:0:
256,192,85489,1,0,0:0:0:0:
256,192,85543,1,0,0:0:0:0:
256,192,85650,1,8,0:0:0:0:
256,192,85757,1,0,0:0:0:0:
256,192,85864,1,8,0:0:0:0:
256,192,86079,1,0,0:0:0:0:
256,192,86186,1,0,0:0:0:0:
256,192,86293,1,8,0:0:0:0:
256,192,86400,1,0,0:0:0:0:
256,192,86507,1,8,0:0:0:0:
256,192,86561,1,8,0:0:0:0:
256,192,86614,1,8,0:0:0:0:
256,192,86722,1,0,0:0:0:0:
256,192,86829,1,0,0:0:0:0:
256,192,86936,1,8,0:0:0:0:
256,192,87043,1,0,0:0:0:0:
256,192,87150,1,8,0:0:0:0:
256,192,87364,1,0,0:0:0:0:
256,192,87579,5,0,0:0:0:0:
256,192,87686,1,0,0:0:0:0:
256,192,87793,1,8,0:0:0:0:
256,192,87900,1,0,0:0:0:0:
256,192,88007,1,8,0:0:0:0:
256,192,88061,1,8,0:0:0:0:
256,192,88114,1,8,0:0:0:0:
256,192,88222,1,0,0:0:0:0:
256,192,88329,1,0,0:0:0:0:
256,192,88436,1,8,0:0:0:0:
256,192,88650,1,8,0:0:0:0:
256,192,88757,1,8,0:0:0:0:
256,192,88864,1,0,0:0:0:0:
256,192,88918,1,0,0:0:0:0:
256,192,88972,1,0,0:0:0:0:
256,192,89079,1,8,0:0:0:0:
256,192,89293,1,8,0:0:0:0:
256,192,89507,1,0,0:0:0:0:
256,192,89722,1,12,0:0:0:0:
256,192,89936,5,0,0:0:0:0:
256,192,90150,1,8,0:0:0:0:
256,192,90257,1,0,0:0:0:0:
256,192,90364,1,8,0:0:0:0:
256,192,90472,1,8,0:0:0:0:
256,192,90579,1,0,0:0:0:0:
256,192,90632,1,0,0:0:0:0:
256,192,90686,1,0,0:0:0:0:
256,192,90793,1,8,0:0:0:0:
256,192,90900,1,0,0:0:0:0:
256,192,91007,1,8,0:0:0:0:
256,192,91222,1,0,0:0:0:0:
256,192,91329,1,0,0:0:0:0:
256,192,91436,1,8,0:0:0:0:
256,192,91543,1,0,0:0:0:0:
256,192,91650,1,8,0:0:0:0:
256,192,91704,1,8,0:0:0:0:
256,192,91757,1,8,0:0:0:0:
256,192,91864,1,0,0:0:0:0:
256,192,91972,1,0,0:0:0:0:
256,192,92079,1,8,0:0:0:0:
256,192,92186,1,0,0:0:0:0:
256,192,92293,1,8,0:0:0:0:
256,192,92507,5,0,0:0:0:0:
256,192,92722,1,8,0:0:0:0:
256,192,92829,1,0,0:0:0:0:
256,192,92936,1,8,0:0:0:0:
256,192,93043,1,8,0:0:0:0:
256,192,93150,1,0,0:0:0:0:
256,192,93204,1,0,0:0:0:0:
256,192,93257,1,0,0:0:0:0:
256,192,93364,1,8,0:0:0:0:
256,192,93579,1,8,0:0:0:0:
256,192,93686,1,0,0:0:0:0:
256,192,93793,1,8,0:0:0:0:
256,192,93900,1,0,0:0:0:0:
256,192,94007,1,8,0:0:0:0:
256,192,94222,1,0,0:0:0:0:
256,192,94436,1,8,0:0:0:0:
256,192,94864,5,4,0:0:0:0:
256,192,95078,1,0,0:0:0:0:
256,192,95185,1,0,0:0:0:0:
256,192,95292,1,8,0:0:0:0:
256,192,95506,1,8,0:0:0:0:
256,192,95721,1,0,0:0:0:0:
256,192,95828,1,0,0:0:0:0:
256,192,95935,1,8,0:0:0:0:
256,192,96042,1,0,0:0:0:0:
256,192,96149,1,8,0:0:0:0:
256,192,96256,1,8,0:0:0:0:
256,192,96364,1,0,0:0:0:0:
256,192,96578,1,0,0:0:0:0:
256,192,96792,1,0,0:0:0:0:
256,192,96899,1,0,0:0:0:0:
256,192,97006,1,8,0:0:0:0:
256,192,97114,1,0,0:0:0:0:
256,192,97221,1,0,0:0:0:0:
256,192,97328,1,8,0:0:0:0:
256,192,97542,1,8,0:0:0:0:
256,192,97649,1,8,0:0:0:0:
256,192,97756,1,0,0:0:0:0:
256,192,97864,1,8,0:0:0:0:
256,192,97971,1,8,0:0:0:0:
256,192,98078,1,0,0:0:0:0:
256,192,98292,1,12,0:0:0:0:
256,192,98506,5,0,0:0:0:0:
256,192,98613,1,0,0:0:0:0:
256,192,98720,1,8,0:0:0:0:
256,192,98934,1,8,0:0:0:0:
256,192,99149,1,0,0:0:0:0:
256,192,99202,1,0,0:0:0:0:
256,192,99256,1,0,0:0:0:0:
256,192,99363,1,8,0:0:0:0:
256,192,99470,1,0,0:0:0:0:
256,192,99577,1,8,0:0:0:0:
256,192,99792,1,8,0:0:0:0:
256,192,99899,1,8,0:0:0:0:
256,192,100006,1,0,0:0:0:0:
256,192,100220,1,8,0:0:0:0:
256,192,100434,1,8,0:0:0:0:
256,192,100488,1,8,0:0:0:0:
256,192,100542,1,8,0:0:0:0:
256,192,100649,1,0,0:0:0:0:
256,192,100756,1,0,0:0:0:0:
256,192,100863,1,8,0:0:0:0:
256,192,101077,5,0,0:0:0:0:
256,192,101184,1,0,0:0:0:0:
256,192,101292,1,8,0:0:0:0:
256,192,101506,1,8,0:0:0:0:
256,192,101720,1,0,0:0:0:0:
256,192,101774,1,0,0:0:0:0:
256,192,101827,1,0,0:0:0:0:
256,192,101934,1,8,0:0:0:0:
256,192,102042,1,0,0:0:0:0:
256,192,102149,1,8,0:0:0:0:
256,192,102363,1,8,0:0:0:0:
256,192,102470,1,8,0:0:0:0:
256,192,102577,1,0,0:0:0:0:
256,192,102792,1,8,0:0:0:0:
256,192,103006,1,8,0:0:0:0:
256,192,103220,1,8,0:0:0:0:
256,192,103434,5,4,0:0:0:0:
256,192,103648,1,0,0:0:0:0:
256,192,103755,1,0,0:0:0:0:
256,192,103862,1,8,0:0:0:0:
256,192,104076,1,0,0:0:0:0:
256,192,104291,1,0,0:0:0:0:
256,192,104398,1,8,0:0:0:0:
256,192,104505,1,0,0:0:0:0:
256,192,104612,1,0,0:0:0:0:
256,192,104719,1,8,0:0:0:0:
256,192,104826,1,8,0:0:0:0:
256,192,104934,1,0,0:0:0:0:
256,192,105148,1,0,0:0:0:0:
256,192,105362,1,0,0:0:0:0:
256,192,105469,1,0,0:0:0:0:
256,192,105576,1,8,0:0:0:0:
256,192,105684,1,8,0:0:0:0:
256,192,105791,1,0,0:0:0:0:
256,192,105898,1,8,0:0:0:0:
256,192,106112,1,8,0:0:0:0:
256,192,106219,1,8,0:0:0:0:
256,192,106326,1,0,0:0:0:0:
256,192,106434,1,8,0:0:0:0:
256,192,106541,1,0,0:0:0:0:
256,192,106648,1,8,0:0:0:0:
256,192,106862,1,12,0:0:0:0:
256,192,107076,5,0,0:0:0:0:
256,192,107183,1,0,0:0:0:0:
256,192,107290,1,8,0:0:0:0:
256,192,107504,1,8,0:0:0:0:
256,192,107719,1,8,0:0:0:0:
256,192,107772,1,8,0:0:0:0:
256,192,107826,1,8,0:0:0:0:
256,192,107933,1,0,0:0:0:0:
256,192,108040,1,0,0:0:0:0:
256,192,108147,1,8,0:0:0:0:
256,192,108362,1,8,0:0:0:0:
256,192,108469,1,8,0:0:0:0:
256,192,108576,1,0,0:0:0:0:
256,192,108790,1,8,0:0:0:0:
256,192,109004,1,0,0:0:0:0:
256,192,109058,1,0,0:0:0:0:
256,192,109112,1,0,0:0:0:0:
256,192,109219,1,8,0:0:0:0:
256,192,109326,1,0,0:0:0:0:
256,192,109433,1,8,0:0:0:0:
256,192,109647,5,0,0:0:0:0:
256,192,109754,1,0,0:0:0:0:
256,192,109862,1,8,0:0:0:0:
256,192,110076,1,8,0:0:0:0:
256,192,110290,1,8,0:0:0:0:
256,192,110344,1,8,0:0:0:0:
256,192,110397,1,8,0:0:0:0:
256,192,110504,1,0,0:0:0:0:
256,192,110612,1,0,0:0:0:0:
256,192,110719,1,8,0:0:0:0:
256,192,110933,1,8,0:0:0:0:
256,192,111040,1,8,0:0:0:0:
256,192,111147,1,0,0:0:0:0:
256,192,111254,1,0,0:0:0:0:
256,192,111362,1,8,0:0:0:0:
256,192,111576,1,8,0:0:0:0:
256,192,111790,1,0,0:0:0:0:
256,192,112004,5,12,0:0:0:0:
256,192,112871,1,8,0:0:0:0:
256,192,113071,1,0,0:0:0:0:
256,192,113271,1,0,0:0:0:0:
256,192,113471,1,0,0:0:0:0:
256,192,113671,1,8,0:0:0:0:
256,192,113871,1,0,0:0:0:0:
256,192,114071,1,0,0:0:0:0:
256,192,114271,1,0,0:0:0:0:
256,192,114471,1,8,0:0:0:0:
256,192,114671,1,8,0:0:0:0:
256,192,114871,1,0,0:0:0:0:
256,192,115071,1,8,0:0:0:0:
256,192,115271,1,12,0:0:0:0:
256,192,116071,5,8,0:0:0:0:
256,192,116271,1,0,0:0:0:0:
256,192,116471,1,0,0:0:0:0:
256,192,116671,1,0,0:0:0:0:
256,192,116871,1,8,0:0:0:0:
256,192,117071,1,0,0:0:0:0:
256,192,117271,1,0,0:0:0:0:
256,192,117471,1,0,0:0:0:0:
256,192,117671,1,8,0:0:0:0:
256,192,117871,1,8,0:0:0:0:
256,192,118071,1,0,0:0:0:0:
256,192,118271,1,8,0:0:0:0:
256,192,118471,1,12,0:0:0:0:
256,192,118871,1,4,0:0:0:0:
256,192,119271,5,8,0:0:0:0:
256,192,119471,1,0,0:0:0:0:
256,192,119671,1,8,0:0:0:0:
256,192,119871,1,0,0:0:0:0:
256,192,119971,1,0,0:0:0:0:
256,192,120071,1,8,0:0:0:0:
256,192,120271,1,0,0:0:0:0:
256,192,120471,1,8,0:0:0:0:
256,192,120671,1,8,0:0:0:0:
256,192,120871,1,8,0:0:0:0:
256,192,120971,1,0,0:0:0:0:
256,192,121071,1,8,0:0:0:0:
256,192,121271,1,0,0:0:0:0:
256,192,121471,1,0,0:0:0:0:
256,192,121671,1,12,0:0:0:0:
256,192,122471,5,8,0:0:0:0:
256,192,122671,1,0,0:0:0:0:
256,192,122871,1,8,0:0:0:0:
256,192,123071,1,0,0:0:0:0:
256,192,123171,1,0,0:0:0:0:
256,192,123271,1,8,0:0:0:0:
256,192,123471,1,8,0:0:0:0:
256,192,123671,1,8,0:0:0:0:
256,192,123871,1,0,0:0:0:0:
256,192,124071,1,8,0:0:0:0:
256,192,124471,1,8,0:0:0:0:
256,192,124871,5,0,0:0:0:0:
256,192,124996,1,0,0:0:0:0:
256,192,125121,1,8,0:0:0:0:
256,192,125246,1,0,0:0:0:0:
256,192,125308,1,0,0:0:0:0:
256,192,125371,1,0,0:0:0:0:
256,192,125496,1,8,0:0:0:0:
256,192,125621,1,0,0:0:0:0:
256,192,125746,1,8,0:0:0:0:
256,192,125996,1,0,0:0:0:0:
256,192,126121,1,8,0:0:0:0:
256,192,126246,1,0,0:0:0:0:
256,192,126371,1,8,0:0:0:0:
256,192,126433,1,8,0:0:0:0:
256,192,126496,1,8,0:0:0:0:
256,192,126558,1,8,0:0:0:0:
256,192,126621,1,0,0:0:0:0:
256,192,126746,1,0,0:0:0:0:
256,192,126871,1,8,0:0:0:0:
256,192,127121,5,8,0:0:0:0:
256,192,127246,1,0,0:0:0:0:
256,192,127308,1,0,0:0:0:0:
256,192,127371,1,0,0:0:0:0:
256,192,127496,1,8,0:0:0:0:
256,192,127621,1,0,0:0:0:0:
256,192,127746,1,8,0:0:0:0:
256,192,127996,1,8,0:0:0:0:
256,192,128121,1,8,0:0:0:0:
256,192,128246,1,0,0:0:0:0:
256,192,128371,1,8,0:0:0:0:
256,192,128433,1,8,0:0:0:0:
256,192,128496,1,8,0:0:0:0:
256,192,128558,1,8,0:0:0:0:
256,192,128621,1,0,0:0:0:0:
256,192,128746,1,0,0:0:0:0:
256,192,128871,5,8,0:0:0:0:
256,192,128996,1,0,0:0:0:0:
256,192,129121,1,8,0:0:0:0:
256,192,129246,1,0,0:0:0:0:
256,192,129308,1,0,0:0:0:0:
256,192,129371,1,0,0:0:0:0:
256,192,129496,1,8,0:0:0:0:
256,192,129621,1,0,0:0:0:0:
256,192,129746,1,8,0:0:0:0:
256,192,129996,1,0,0:0:0:0:
256,192,130121,1,8,0:0:0:0:
256,192,130246,1,0,0:0:0:0:
256,192,130371,1,8,0:0:0:0:
256,192,130433,1,8,0:0:0:0:
256,192,130496,1,8,0:0:0:0:
256,192,130558,1,8,0:0:0:0:
256,192,130621,1,0,0:0:0:0:
256,192,130746,1,0,0:0:0:0:
256,192,130871,1,8,0:0:0:0:
256,192,131121,5,8,0:0:0:0:
256,192,131246,1,0,0:0:0:0:
256,192,131308,1,0,0:0:0:0:
256,192,131371,1,0,0:0:0:0:
256,192,131496,1,8,0:0:0:0:
256,192,131621,1,0,0:0:0:0:
256,192,131746,1,8,0:0:0:0:
256,192,131996,1,8,0:0:0:0:
256,192,132121,1,8,0:0:0:0:
256,192,132246,1,0,0:0:0:0:
256,192,132371,1,8,0:0:0:0:
256,192,132496,1,0,0:0:0:0:
256,192,132621,1,8,0:0:0:0:
256,192,132683,1,8,0:0:0:0:
256,192,132746,1,8,0:0:0:0:
256,192,132808,1,8,0:0:0:0:
256,192,132871,1,8,0:0:0:0:
256,192,133121,5,8,0:0:0:0:
256,192,133246,1,0,0:0:0:0:
256,192,133371,1,8,0:0:0:0:
256,192,133433,1,8,0:0:0:0:
256,192,133496,1,8,0:0:0:0:
256,192,133621,1,0,0:0:0:0:
256,192,133746,1,8,0:0:0:0:
256,192,133996,1,0,0:0:0:0:
256,192,134121,1,8,0:0:0:0:
256,192,134246,1,8,0:0:0:0:
256,192,134371,1,0,0:0:0:0:
256,192,134433,1,0,0:0:0:0:
256,192,134496,1,0,0:0:0:0:
256,192,134621,1,8,0:0:0:0:
256,192,134746,1,0,0:0:0:0:
256,192,134871,1,8,0:0:0:0:
256,192,135121,5,8,0:0:0:0:
256,192,135246,1,0,0:0:0:0:
256,192,135371,1,8,0:0:0:0:
256,192,135496,1,0,0:0:0:0:
256,192,135558,1,0,0:0:0:0:
256,192,135621,1,0,0:0:0:0:
256,192,135746,1,8,0:0:0:0:
256,192,135871,1,8,0:0:0:0:
256,192,135996,1,0,0:0:0:0:
256,192,136121,1,8,0:0:0:0:
256,192,136246,1,8,0:0:0:0:
256,192,136371,1,0,0:0:0:0:
256,192,136433,1,0,0:0:0:0:
256,192,136496,1,0,0:0:0:0:
256,192,136558,1,0,0:0:0:0:
256,192,136621,1,0,0:0:0:0:
256,192,136746,1,0,0:0:0:0:
256,192,136871,1,8,0:0:0:0:
256,192,137121,5,8,0:0:0:0:
256,192,137246,1,0,0:0:0:0:
256,192,137371,1,8,0:0:0:0:
256,192,137496,1,8,0:0:0:0:
256,192,137558,1,8,0:0:0:0:
256,192,137621,1,8,0:0:0:0:
256,192,137746,1,0,0:0:0:0:
256,192,137871,1,8,0:0:0:0:
256,192,138121,1,8,0:0:0:0:
256,192,138246,1,8,0:0:0:0:
256,192,138371,1,0,0:0:0:0:
256,192,138433,1,0,0:0:0:0:
256,192,138496,1,0,0:0:0:0:
256,192,138621,1,8,0:0:0:0:
256,192,138746,1,0,0:0:0:0:
256,192,138871,1,8,0:0:0:0:
256,192,139121,5,8,0:0:0:0:
256,192,139246,1,0,0:0:0:0:
256,192,139371,1,8,0:0:0:0:
256,192,139433,1,8,0:0:0:0:
256,192,139496,1,8,0:0:0:0:
256,192,139621,1,8,0:0:0:0:
256,192,139746,1,0,0:0:0:0:
256,192,139871,1,8,0:0:0:0:
256,192,140121,1,8,0:0:0:0:
256,192,140246,1,8,0:0:0:0:
256,192,140371,1,0,0:0:0:0:
256,192,140433,1,0,0:0:0:0:
256,192,140496,1,0,0:0:0:0:
256,192,140558,1,0,0:0:0:0:
256,192,140621,1,8,0:0:0:0:
256,192,140746,1,8,0:0:0:0:
256,192,140871,5,4,0:0:0:0:
256,192,143871,5,0,0:0:0:0:
256,192,144071,1,12,0:0:0:0:
256,192,144871,1,8,0:0:0:0:
256,192,145671,1,0,0:0:0:0:
256,192,146471,1,8,0:0:0:0:
256,192,147271,1,4,0:0:0:0:
256,192,148071,1,8,0:0:0:0:
256,192,149671,1,8,0:0:0:0:
256,192,150271,1,0,0:0:0:0:
256,192,150471,5,4,0:0:0:0:
256,192,151271,1,8,0:0:0:0:
256,192,152071,1,0,0:0:0:0:
256,192,152871,1,8,0:0:0:0:
256,192,153671,1,12,0:0:0:0:
256,192,154471,1,8,0:0:0:0:
256,192,155271,1,12,0:0:0:0:
256,192,155871,1,0,0:0:0:0:
256,192,155971,1,0,0:0:0:0:
256,192,156071,1,8,0:0:0:0:
256,192,156271,1,0,0:0:0:0:
256,192,156471,1,8,0:0:0:0:
256,192,156671,1,8,0:0:0:0:
256,192,156771,1,8,0:0:0:0:
256,192,156871,5,0,0:0:0:0:
256,192,157071,1,0,0:0:0:0:
256,192,157271,1,8,0:0:0:0:
256,192,157471,1,0,0:0:0:0:
256,192,157671,1,8,0:0:0:0:
256,192,157771,1,8,0:0:0:0:
256,192,157871,1,0,0:0:0:0:
256,192,157971,1,0,0:0:0:0:
256,192,158071,1,8,0:0:0:0:
256,192,158271,1,8,0:0:0:0:
256,192,158471,1,0,0:0:0:0:
256,192,158571,1,0,0:0:0:0:
256,192,158671,1,0,0:0:0:0:
256,192,158871,1,8,0:0:0:0:
256,192,159071,1,0,0:0:0:0:
256,192,159271,1,8,0:0:0:0:
256,192,159471,1,0,0:0:0:0:
256,192,159571,1,0,0:0:0:0:
256,192,159671,1,8,0:0:0:0:
256,192,159871,1,8,0:0:0:0:
256,192,160071,5,4,0:0:0:0:
256,192,160471,1,8,0:0:0:0:
256,192,160671,1,8,0:0:0:0:
256,192,160871,1,8,0:0:0:0:
256,192,161071,1,0,0:0:0:0:
256,192,161171,1,0,0:0:0:0:
256,192,161271,1,8,0:0:0:0:
256,192,161471,1,0,0:0:0:0:
256,192,161671,1,8,0:0:0:0:
256,192,161871,1,0,0:0:0:0:
256,192,162071,1,8,0:0:0:0:
256,192,162171,1,0,0:0:0:0:
256,192,162271,1,8,0:0:0:0:
256,192,162471,1,8,0:0:0:0:
256,192,162671,1,0,0:0:0:0:
256,192,162771,1,0,0:0:0:0:
256,192,162871,1,8,0:0:0:0:
256,192,162971,1,0,0:0:0:0:
256,192,163071,1,8,0:0:0:0:
256,192,163271,5,4,0:0:0:0:
256,192,163671,1,8,0:0:0:0:
256,192,163871,1,0,0:0:0:0:
256,192,164071,1,8,0:0:0:0:
256,192,164171,1,8,0:0:0:0:
256,192,164271,1,0,0:0:0:0:
256,192,164371,1,0,0:0:0:0:
256,192,164471,1,8,0:0:0:0:
256,192,164671,1,8,0:0:0:0:
256,192,164871,1,0,0:0:0:0:
256,192,165071,1,0,0:0:0:0:
256,192,165171,1,0,0:0:0:0:
256,192,165271,1,8,0:0:0:0:
256,192,165471,1,8,0:0:0:0:
256,192,165671,1,8,0:0:0:0:
256,192,165871,1,8,0:0:0:0:
256,192,165971,1,8,0:0:0:0:
256,192,166071,1,0,0:0:0:0:
256,192,166271,1,0,0:0:0:0:
256,192,166471,5,4,0:0:0:0:
256,192,166871,1,0,0:0:0:0:
256,192,167071,1,0,0:0:0:0:
256,192,167171,1,0,0:0:0:0:
256,192,167271,1,8,0:0:0:0:
256,192,167471,1,0,0:0:0:0:
256,192,167671,1,8,0:0:0:0:
256,192,167871,1,0,0:0:0:0:
256,192,168071,1,8,0:0:0:0:
256,192,168171,1,8,0:0:0:0:
256,192,168271,1,0,0:0:0:0:
256,192,168371,1,0,0:0:0:0:
256,192,168471,1,8,0:0:0:0:
256,192,168671,1,8,0:0:0:0:
256,192,168871,1,8,0:0:0:0:
256,192,169071,1,0,0:0:0:0:
256,192,169171,1,0,0:0:0:0:
256,192,169271,1,8,0:0:0:0:
256,192,169371,1,0,0:0:0:0:
256,192,169471,1,8,0:0:0:0:
256,192,169671,5,4,0:0:0:0:
256,192,170071,1,8,0:0:0:0:
256,192,170271,1,0,0:0:0:0:
256,192,170471,1,8,0:0:0:0:
256,192,170571,1,8,0:0:0:0:
256,192,170671,1,0,0:0:0:0:
256,192,170771,1,0,0:0:0:0:
256,192,170871,1,8,0:0:0:0:
256,192,171071,1,8,0:0:0:0:
256,192,171271,1,0,0:0:0:0:
256,192,171471,1,0,0:0:0:0:
256,192,171571,1,0,0:0:0:0:
256,192,171671,1,8,0:0:0:0:
256,192,171871,1,0,0:0:0:0:
256,192,172071,1,8,0:0:0:0:
256,192,172171,1,8,0:0:0:0:
256,192,172271,1,0,0:0:0:0:
256,192,172471,1,8,0:0:0:0:
256,192,172671,1,8,0:0:0:0:
256,192,172871,5,4,0:0:0:0:
256,192,173271,1,8,0:0:0:0:
256,192,173471,1,0,0:0:0:0:
256,192,173571,1,0,0:0:0:0:
256,192,173671,1,8,0:0:0:0:
256,192,173871,1,0,0:0:0:0:
256,192,174071,1,8,0:0:0:0:
256,192,174271,1,0,0:0:0:0:
256,192,174371,1,0,0:0:0:0:
256,192,174471,1,8,0:0:0:0:
256,192,174571,1,8,0:0:0:0:
256,192,174671,1,0,0:0:0:0:
256,192,174871,1,8,0:0:0:0:
256,192,175071,1,0,0:0:0:0:
256,192,175271,1,8,0:0:0:0:
256,192,175371,1,8,0:0:0:0:
256,192,175471,1,0,0:0:0:0:
256,192,175671,1,8,0:0:0:0:
256,192,175871,1,8,0:0:0:0:
256,192,176071,5,4,0:0:0:0:
256,192,176471,1,0,0:0:0:0:
256,192,176671,1,0,0:0:0:0:
256,192,176871,1,8,0:0:0:0:
256,192,176971,1,8,0:0:0:0:
256,192,177071,1,0,0:0:0:0:
256,192,177171,1,0,0:0:0:0:
256,192,177271,1,8,0:0:0:0:
256,192,177471,1,0,0:0:0:0:
256,192,177671,1,8,0:0:0:0:
256,192,177871,1,0,0:0:0:0:
256,192,177971,1,0,0:0:0:0:
256,192,178071,1,0,0:0:0:0:
256,192,178271,1,8,0:0:0:0:
256,192,178471,1,8,0:0:0:0:
256,192,178571,1,8,0:0:0:0:
256,192,178671,1,0,0:0:0:0:
256,192,178871,1,8,0:0:0:0:
256,192,179071,1,8,0:0:0:0:
256,192,179271,5,4,0:0:0:0:
256,192,179671,1,0,0:0:0:0:
256,192,179871,1,0,0:0:0:0:
256,192,179971,1,0,0:0:0:0:
256,192,180071,1,8,0:0:0:0:
256,192,180271,1,0,0:0:0:0:
256,192,180471,1,8,0:0:0:0:
256,192,180671,1,0,0:0:0:0:
256,192,180871,1,8,0:0:0:0:
256,192,180971,1,8,0:0:0:0:
256,192,181071,1,0,0:0:0:0:
256,192,181271,1,8,0:0:0:0:
256,192,181471,1,0,0:0:0:0:
256,192,181571,1,0,0:0:0:0:
256,192,181671,1,8,0:0:0:0:
256,192,181771,1,8,0:0:0:0:
256,192,181871,1,0,0:0:0:0:
256,192,182071,1,8,0:0:0:0:
256,192,182271,1,8,0:0:0:0:
256,192,182471,5,0,0:0:0:0:
256,192,182596,1,0,0:0:0:0:
256,192,182721,1,8,0:0:0:0:
256,192,182846,1,0,0:0:0:0:
256,192,182908,1,0,0:0:0:0:
256,192,182971,1,0,0:0:0:0:
256,192,183096,1,8,0:0:0:0:
256,192,183221,1,0,0:0:0:0:
256,192,183346,1,8,0:0:0:0:
256,192,183596,1,0,0:0:0:0:
256,192,183721,1,8,0:0:0:0:
256,192,183846,1,0,0:0:0:0:
256,192,183971,1,8,0:0:0:0:
256,192,184033,1,8,0:0:0:0:
256,192,184096,1,8,0:0:0:0:
256,192,184158,1,8,0:0:0:0:
256,192,184221,1,0,0:0:0:0:
256,192,184346,1,0,0:0:0:0:
256,192,184471,1,8,0:0:0:0:
256,192,184721,5,8,0:0:0:0:
256,192,184846,1,0,0:0:0:0:
256,192,184908,1,0,0:0:0:0:
256,192,184971,1,0,0:0:0:0:
256,192,185096,1,8,0:0:0:0:
256,192,185221,1,0,0:0:0:0:
256,192,185346,1,8,0:0:0:0:
256,192,185596,1,8,0:0:0:0:
256,192,185721,1,8,0:0:0:0:
256,192,185846,1,0,0:0:0:0:
256,192,185971,1,8,0:0:0:0:
256,192,186033,1,8,0:0:0:0:
256,192,186096,1,8,0:0:0:0:
256,192,186158,1,8,0:0:0:0:
256,192,186221,1,0,0:0:0:0:
256,192,186346,1,0,0:0:0:0:
256,192,186471,5,8,0:0:0:0:
256,192,186596,1,0,0:0:0:0:
256,192,186721,1,8,0:0:0:0:
256,192,186846,1,0,0:0:0:0:
256,192,186908,1,0,0:0:0:0:
256,192,186971,1,0,0:0:0:0:
256,192,187096,1,8,0:0:0:0:
256,192,187221,1,0,0:0:0:0:
256,192,187346,1,8,0:0:0:0:
256,192,187596,1,0,0:0:0:0:
256,192,187721,1,8,0:0:0:0:
256,192,187846,1,0,0:0:0:0:
256,192,187971,1,8,0:0:0:0:
256,192,188033,1,8,0:0:0:0:
256,192,188096,1,8,0:0:0:0:
256,192,188158,1,8,0:0:0:0:
256,192,188221,1,0,0:0:0:0:
256,192,188346,1,0,0:0:0:0:
256,192,188471,1,8,0:0:0:0:
256,192,188721,5,8,0:0:0:0:
256,192,188846,1,0,0:0:0:0:
256,192,188908,1,0,0:0:0:0:
256,192,188971,1,0,0:0:0:0:
256,192,189096,1,8,0:0:0:0:
256,192,189221,1,0,0:0:0:0:
256,192,189346,1,8,0:0:0:0:
256,192,189596,1,8,0:0:0:0:
256,192,189721,1,8,0:0:0:0:
256,192,189846,1,0,0:0:0:0:
256,192,189971,1,8,0:0:0:0:
256,192,190096,1,0,0:0:0:0:
256,192,190221,1,8,0:0:0:0:
256,192,190283,1,8,0:0:0:0:
256,192,190346,1,0,0:0:0:0:
256,192,190408,1,0,0:0:0:0:
256,192,190471,1,8,0:0:0:0:
256,192,190721,5,0,0:0:0:0:
256,192,190846,1,8,0:0:0:0:
256,192,190971,1,0,0:0:0:0:
256,192,191033,1,0,0:0:0:0:
256,192,191096,1,0,0:0:0:0:
256,192,191221,1,8,0:0:0:0:
256,192,191346,1,8,0:0:0:0:
256,192,191471,1,0,0:0:0:0:
256,192,191596,1,0,0:0:0:0:
256,192,191721,1,8,0:0:0:0:
256,192,191783,1,8,0:0:0:0:
256,192,191846,1,0,0:0:0:0:
256,192,191971,1,8,0:0:0:0:
256,192,192096,1,0,0:0:0:0:
256,192,192221,1,8,0:0:0:0:
256,192,192471,1,8,0:0:0:0:
256,192,192596,1,0,0:0:0:0:
256,192,192721,1,0,0:0:0:0:
256,192,192783,1,0,0:0:0:0:
256,192,192846,1,8,0:0:0:0:
256,192,192971,1,0,0:0:0:0:
256,192,193096,1,8,0:0:0:0:
256,192,193221,1,8,0:0:0:0:
256,192,193346,1,0,0:0:0:0:
256,192,193471,1,8,0:0:0:0:
256,192,193596,1,0,0:0:0:0:
256,192,193658,1,0,0:0:0:0:
256,192,193721,1,0,0:0:0:0:
256,192,193846,1,0,0:0:0:0:
256,192,193971,1,8,0:0:0:0:
256,192,194096,1,0,0:0:0:0:
256,192,194221,1,8,0:0:0:0:
256,192,194471,5,8,0:0:0:0:
256,192,194596,1,0,0:0:0:0:
256,192,194658,1,0,0:0:0:0:
256,192,194721,1,8,0:0:0:0:
256,192,194846,1,8,0:0:0:0:
256,192,194971,1,8,0:0:0:0:
256,192,195096,1,0,0:0:0:0:
256,192,195221,1,8,0:0:0:0:
256,192,195471,1,8,0:0:0:0:
256,192,195533,1,8,0:0:0:0:
256,192,195596,1,0,0:0:0:0:
256,192,195721,1,8,0:0:0:0:
256,192,195846,1,0,0:0:0:0:
256,192,195971,1,8,0:0:0:0:
256,192,196096,1,8,0:0:0:0:
256,192,196221,1,8,0:0:0:0:
256,192,196471,1,8,0:0:0:0:
256,192,196596,1,0,0:0:0:0:
256,192,196658,1,0,0:0:0:0:
256,192,196721,1,8,0:0:0:0:
256,192,196846,1,0,0:0:0:0:
256,192,196971,1,0,0:0:0:0:
256,192,197096,1,8,0:0:0:0:
256,192,197221,1,0,0:0:0:0:
256,192,197346,1,8,0:0:0:0:
256,192,197408,1,8,0:0:0:0:
256,192,197471,1,0,0:0:0:0:
256,192,197596,1,0,0:0:0:0:
256,192,197721,1,8,0:0:0:0:
256,192,197846,1,0,0:0:0:0:
256,192,197971,1,12,0:0:0:0:
256,192,198221,1,0,0:0:0:0:
256,192,198471,5,8,0:0:0:0:
256,192,198596,1,0,0:0:0:0:
256,192,198721,1,8,0:0:0:0:
256,192,198846,1,8,0:0:0:0:
256,192,198971,1,0,0:0:0:0:
256,192,199033,1,0,0:0:0:0:
256,192,199096,1,8,0:0:0:0:
256,192,199221,1,8,0:0:0:0:
256,192,199471,1,8,0:0:0:0:
256,192,199596,1,0,0:0:0:0:
256,192,199721,1,8,0:0:0:0:
256,192,199846,1,8,0:0:0:0:
256,192,199908,1,8,0:0:0:0:
256,192,199971,1,0,0:0:0:0:
256,192,200096,1,8,0:0:0:0:
256,192,200221,1,8,0:0:0:0:
256,192,200346,1,0,0:0:0:0:
256,192,200471,1,8,0:0:0:0:
256,192,200721,1,8,0:0:0:0:
256,192,200846,1,0,0:0:0:0:
256,192,200908,1,0,0:0:0:0:
256,192,200971,1,8,0:0:0:0:
256,192,201096,1,8,0:0:0:0:
256,192,201221,1,0,0:0:0:0:
256,192,201346,1,8,0:0:0:0:
256,192,201596,1,8,0:0:0:0:
256,192,201721,1,8,0:0:0:0:
256,192,201783,1,8,0:0:0:0:
256,192,201846,1,0,0:0:0:0:
256,192,201971,1,8,0:0:0:0:
256,192,202096,1,0,0:0:0:0:
256,192,202221,1,8,0:0:0:0:
256,192,202471,5,0,0:0:0:0:
256,192,202596,1,0,0:0:0:0:
256,192,202721,1,8,0:0:0:0:
256,192,202846,1,0,0:0:0:0:
256,192,202908,1,0,0:0:0:0:
256,192,202971,1,0,0:0:0:0:
256,192,203096,1,8,0:0:0:0:
256,192,203221,1,0,0:0:0:0:
256,192,203346,1,8,0:0:0:0:
256,192,203471,1,0,0:0:0:0:
256,192,203533,1,0,0:0:0:0:
256,192,203596,1,0,0:0:0:0:
256,192,203721,1,8,0:0:0:0:
256,192,203846,1,0,0:0:0:0:
256,192,203971,1,0,0:0:0:0:
256,192,204096,1,8,0:0:0:0:
256,192,204221,1,0,0:0:0:0:
256,192,204471,1,8,0:0:0:0:
256,192,204596,1,8,0:0:0:0:
256,192,204721,1,0,0:0:0:0:
256,192,204783,1,0,0:0:0:0:
256,192,204846,1,0,0:0:0:0:
256,192,204971,1,8,0:0:0:0:
256,192,205096,1,0,0:0:0:0:
256,192,205221,1,8,0:0:0:0:
256,192,205283,1,8,0:0:0:0:
256,192,205346,1,8,0:0:0:0:
256,192,205471,1,0,0:0:0:0:
256,192,205721,1,8,0:0:0:0:
256,192,205846,1,0,0:0:0:0:
256,192,205971,1,8,0:0:0:0:
256,192,206096,1,8,0:0:0:0:
256,192,206158,1,8,0:0:0:0:
256,192,206221,1,0,0:0:0:0:
256,192,206346,1,0,0:0:0:0:
256,192,206471,5,12,0:0:0:0:
256,192,206721,1,8,0:0:0:0:
256,192,206846,1,8,0:0:0:0:
256,192,206971,1,0,0:0:0:0:
256,192,207096,1,0,0:0:0:0:
256,192,207221,1,8,0:0:0:0:
256,192,207471,1,8,0:0:0:0:
256,192,207596,1,0,0:0:0:0:
256,192,207658,1,0,0:0:0:0:
256,192,207721,1,0,0:0:0:0:
256,192,207846,1,8,0:0:0:0:
256,192,207971,1,0,0:0:0:0:
256,192,208096,1,0,0:0:0:0:
256,192,208221,1,8,0:0:0:0:
256,192,208346,1,0,0:0:0:0:
256,192,208471,1,8,0:0:0:0:
256,192,208721,5,8,0:0:0:0:
256,192,208846,1,0,0:0:0:0:
256,192,208908,1,0,0:0:0:0:
256,192,208971,1,8,0:0:0:0:
256,192,209096,1,8,0:0:0:0:
256,192,209221,1,0,0:0:0:0:
256,192,209346,1,0,0:0:0:0:
256,192,209471,1,8,0:0:0:0:
256,192,209721,1,8,0:0:0:0:
256,192,209846,1,0,0:0:0:0:
256,192,209971,1,8,0:0:0:0:
256,192,210096,1,8,0:0:0:0:
256,192,210158,1,8,0:0:0:0:
256,192,210221,1,0,0:0:0:0:
256,192,210346,1,0,0:0:0:0:
256,192,210471,1,8,0:0:0:0:
256,192,210721,5,8,0:0:0:0:
256,192,210846,1,8,0:0:0:0:
256,192,210971,1,0,0:0:0:0:
256,192,211096,1,0,0:0:0:0:
256,192,211221,1,8,0:0:0:0:
256,192,211471,1,8,0:0:0:0:
256,192,211596,1,0,0:0:0:0:
256,192,211658,1,0,0:0:0:0:
256,192,211721,1,0,0:0:0:0:
256,192,211846,1,8,0:0:0:0:
256,192,211971,1,0,0:0:0:0:
256,192,212096,1,0,0:0:0:0:
256,192,212221,1,8,0:0:0:0:
256,192,212471,1,8,0:0:0:0:
256,192,212721,1,8,0:0:0:0:
256,192,212846,1,0,0:0:0:0:
256,192,212971,1,8,0:0:0:0:
256,192,213096,1,8,0:0:0:0:
256,192,213221,1,8,0:0:0:0:
256,192,213346,1,0,0:0:0:0:
256,192,213471,1,8,0:0:0:0:
256,192,213596,1,0,0:0:0:0:
256,192,213658,1,0,0:0:0:0:
256,192,213721,1,8,0:0:0:0:
256,192,213846,1,8,0:0:0:0:
256,192,213971,1,0,0:0:0:0:
256,192,214096,1,8,0:0:0:0:
256,192,214221,1,8,0:0:0:0:
256,192,214346,1,0,0:0:0:0:
256,192,214471,5,12,0:0:0:0:
256,192,214858,1,0,0:0:0:0:
256,192,215051,1,0,0:0:0:0:
256,192,215245,1,0,0:0:0:0:
256,192,215438,1,0,0:0:0:0:
256,192,215632,1,8,0:0:0:0:
256,192,216019,1,0,0:0:0:0:
256,192,216212,1,0,0:0:0:0:
256,192,216406,1,0,0:0:0:0:
256,192,216600,1,0,0:0:0:0:
256,192,216793,1,8,0:0:0:0:
256,192,217180,1,4,0:0:0:0:
256,192,217374,1,4,0:0:0:0:
256,192,217567,1,4,0:0:0:0:
256,192,217761,1,4,0:0:0:0:
256,192,218341,5,12,0:0:0:0:
256,192,218741,1,0,0:0:0:0:
256,192,218941,1,0,0:0:0:0:
256,192,219141,1,8,0:0:0:0:
256,192,219341,1,0,0:0:0:0:
256,192,219541,1,8,0:0:0:0:
256,192,219941,1,8,0:0:0:0:
256,192,220141,1,0,0:0:0:0:
256,192,220341,1,8,0:0:0:0:
256,192,220541,1,0,0:0:0:0:
256,192,220741,1,8,0:0:0:0:
256,192,221141,1,0,0:0:0:0:
256,192,221341,1,8,0:0:0:0:
256,192,221541,1,8,0:0:0:0:
256,192,221741,1,0,0:0:0:0:
256,192,221941,1,8,0:0:0:0:
256,192,222341,1,8,0:0:0:0:
256,192,222541,1,0,0:0:0:0:
256,192,222741,1,8,0:0:0:0:
256,192,222941,1,8,0:0:0:0:
256,192,223141,1,8,0:0:0:0:
256,192,223541,5,0,0:0:0:0:
256,192,223741,1,0,0:0:0:0:
256,192,223941,1,8,0:0:0:0:
256,192,224141,1,0,0:0:0:0:
256,192,224341,1,8,0:0:0:0:
256,192,224741,1,8,0:0:0:0:
256,192,224941,1,0,0:0:0:0:
256,192,225141,1,8,0:0:0:0:
256,192,225341,1,0,0:0:0:0:
256,192,225541,1,8,0:0:0:0:
256,192,225941,1,8,0:0:0:0:
256,192,226141,1,8,0:0:0:0:
256,192,226341,1,0,0:0:0:0:
256,192,226541,1,0,0:0:0:0:
256,192,226741,1,8,0:0:0:0:
256,192,227141,1,8,0:0:0:0:
256,192,227341,1,8,0:0:0:0:
256,192,227541,1,0,0:0:0:0:
256,192,227741,1,8,0:0:0:0:
256,192,227941,5,8,0:0:0:0:
256,192,228201,1,0,0:0:0:0:
256,192,228499,1,0,0:0:0:0:
256,192,228798,1,0,0:0:0:0:
256,192,229096,1,0,0:0:0:0:
256,192,229440,1,0,0:0:0:0:
256,192,229785,1,0,0:0:0:0:
256,192,230130,1,0,0:0:0:0:
256,192,230475,5,12,0:0:0:0:
256,192,231075,1,0,0:0:0:0:
256,192,231375,1,8,0:0:0:0:
256,192,231675,1,8,0:0:0:0:
256,192,231975,1,0,0:0:0:0:
256,192,232275,1,8,0:0:0:0:
256,192,232875,1,8,0:0:0:0:
256,192,233175,1,0,0:0:0:0:
256,192,233475,1,8,0:0:0:0:
256,192,233775,1,0,0:0:0:0:
256,192,234075,1,8,0:0:0:0:
256,192,234675,1,0,0:0:0:0:
256,192,234975,1,8,0:0:0:0:
256,192,235275,1,0,0:0:0:0:
256,192,235575,1,0,0:0:0:0:
256,192,235875,1,8,0:0:0:0:
256,192,236475,1,8,0:0:0:0:
256,192,236775,1,0,0:0:0:0:
256,192,237075,1,8,0:0:0:0:
256,192,237375,1,8,0:0:0:0:
256,192,237675,1,8,0:0:0:0:
256,192,238275,5,8,0:0:0:0:
256,192,238575,1,0,0:0:0:0:
256,192,238875,1,8,0:0:0:0:
256,192,239175,1,0,0:0:0:0:
256,192,239475,1,8,0:0:0:0:
256,192,240075,1,0,0:0:0:0:
256,192,240375,1,8,0:0:0:0:
256,192,240675,1,0,0:0:0:0:
256,192,240975,1,0,0:0:0:0:
256,192,241275,1,8,0:0:0:0:
256,192,241875,1,0,0:0:0:0:
256,192,242175,1,8,0:0:0:0:
256,192,242475,1,8,0:0:0:0:
256,192,242775,1,0,0:0:0:0:
256,192,243075,1,8,0:0:0:0:
256,192,243675,1,8,0:0:0:0:
256,192,243975,1,0,0:0:0:0:
256,192,244275,1,8,0:0:0:0:
256,192,244575,1,8,0:0:0:0:
256,192,244887,5,12,0:0:0:0:
256,192,247672,1,0,0:0:0:0:
256,192,247744,1,0,0:0:0:0:
256,192,247815,1,0,0:0:0:0:
256,192,247887,1,8,0:0:0:0:
256,192,248101,1,8,0:0:0:0:
256,192,248315,1,4,0:0:0:0:
256,192,248529,1,12,0:0:0:0:
256,192,248744,5,8,0:0:0:0:
256,192,248851,1,8,0:0:0:0:
256,192,248958,1,8,0:0:0:0:
256,192,249065,1,0,0:0:0:0:
256,192,249172,1,8,0:0:0:0:
256,192,249387,1,8,0:0:0:0:
256,192,249494,1,8,0:0:0:0:
256,192,249601,1,0,0:0:0:0:
256,192,249708,1,8,0:0:0:0:
256,192,249815,1,8,0:0:0:0:
256,192,249922,1,0,0:0:0:0:
256,192,250029,1,8,0:0:0:0:
256,192,250244,1,8,0:0:0:0:
256,192,250351,1,0,0:0:0:0:
256,192,250458,1,8,0:0:0:0:
256,192,250565,1,0,0:0:0:0:
256,192,250672,1,8,0:0:0:0:
256,192,250779,1,8,0:0:0:0:
256,192,250994,1,8,0:0:0:0:
256,192,251101,1,0,0:0:0:0:
256,192,251208,1,8,0:0:0:0:
256,192,251315,1,0,0:0:0:0:
256,192,251422,1,8,0:0:0:0:
256,192,251529,1,8,0:0:0:0:
256,192,251744,5,12,0:0:0:0:
256,192,251958,1,8,0:0:0:0:
256,192,252172,1,8,0:0:0:0:
256,192,252279,1,8,0:0:0:0:
256,192,252387,1,0,0:0:0:0:
256,192,252494,1,8,0:0:0:0:
256,192,252708,1,8,0:0:0:0:
256,192,252815,1,8,0:0:0:0:
256,192,252922,1,8,0:0:0:0:
256,192,253029,1,0,0:0:0:0:
256,192,253137,1,8,0:0:0:0:
256,192,253244,1,8,0:0:0:0:
256,192,253351,1,0,0:0:0:0:
256,192,253458,1,8,0:0:0:0:
256,192,253672,1,8,0:0:0:0:
256,192,253779,1,8,0:0:0:0:
256,192,253887,1,0,0:0:0:0:
256,192,253994,1,8,0:0:0:0:
256,192,254101,1,8,0:0:0:0:
256,192,254315,1,8,0:0:0:0:
256,192,254422,1,8,0:0:0:0:
256,192,254529,1,0,0:0:0:0:
256,192,254637,1,8,0:0:0:0:
256,192,254744,1,0,0:0:0:0:
256,192,254851,1,0,0:0:0:0:
256,192,254958,1,8,0:0:0:0:
256,192,255172,5,12,0:0:0:0:
256,192,255387,1,8,0:0:0:0:
256,192,255601,1,8,0:0:0:0:
256,192,255708,1,8,0:0:0:0:
256,192,255815,1,0,0:0:0:0:
256,192,255922,1,8,0:0:0:0:
256,192,256137,1,8,0:0:0:0:
256,192,256244,1,8,0:0:0:0:
256,192,256351,1,8,0:0:0:0:
256,192,256458,1,0,0:0:0:0:
256,192,256565,1,8,0:0:0:0:
256,192,256672,1,8,0:0:0:0:
256,192,256779,1,0,0:0:0:0:
256,192,256886,1,8,0:0:0:0:
256,192,257101,1,8,0:0:0:0:
256,192,257208,1,0,0:0:0:0:
256,192,257315,1,8,0:0:0:0:
256,192,257422,1,0,0:0:0:0:
256,192,257529,1,8,0:0:0:0:
256,192,257636,1,8,0:0:0:0:
256,192,257744,1,0,0:0:0:0:
256,192,257851,1,8,0:0:0:0:
256,192,257958,1,8,0:0:0:0:
256,192,258172,5,12,0:0:0:0:
256,192,258386,1,8,0:0:0:0:
256,192,258601,1,4,0:0:0:0:
256,192,258815,1,0,0:0:0:0:
256,192,259029,1,8,0:0:0:0:
256,192,259136,1,8,0:0:0:0:
256,192,259244,1,0,0:0:0:0:
256,192,259351,1,0,0:0:0:0:
256,192,259458,1,8,0:0:0:0:
256,192,259565,1,8,0:0:0:0:
256,192,259672,1,0,0:0:0:0:
256,192,259726,1,0,0:0:0:0:
256,192,259779,1,0,0:0:0:0:
256,192,259886,1,8,0:0:0:0:
256,192,259994,1,0,0:0:0:0:
256,192,260101,1,8,0:0:0:0:
256,192,260208,1,8,0:0:0:0:
256,192,260315,1,8,0:0:0:0:
256,192,260529,1,0,0:0:0:0:
256,192,260744,1,8,0:0:0:0:
256,192,260851,1,0,0:0:0:0:
256,192,260958,1,8,0:0:0:0:
256,192,261065,1,8,0:0:0:0:
256,192,261172,1,0,0:0:0:0:
256,192,261279,1,0,0:0:0:0:
256,192,261386,1,8,0:0:0:0:
256,192,261440,1,8,0:0:0:0:
256,192,261494,1,8,0:0:0:0:
256,192,261601,1,0,0:0:0:0:
256,192,261708,1,8,0:0:0:0:
256,192,261815,1,8,0:0:0:0:
256,192,262029,1,12,0:0:0:0:
256,192,262244,5,0,0:0:0:0:
256,192,262351,1,0,0:0:0:0:
256,192,262458,1,8,0:0:0:0:
256,192,262565,1,8,0:0:0:0:
256,192,262672,1,0,0:0:0:0:
256,192,262726,1,0,0:0:0:0:
256,192,262779,1,0,0:0:0:0:
256,192,262887,1,8,0:0:0:0:
256,192,262994,1,8,0:0:0:0:
256,192,263101,1,0,0:0:0:0:
256,192,263208,1,0,0:0:0:0:
256,192,263315,1,8,0:0:0:0:
256,192,263422,1,8,0:0:0:0:
256,192,263529,1,0,0:0:0:0:
256,192,263637,1,0,0:0:0:0:
256,192,263744,1,8,0:0:0:0:
256,192,263958,1,0,0:0:0:0:
256,192,264065,1,0,0:0:0:0:
256,192,264172,1,8,0:0:0:0:
256,192,264279,1,8,0:0:0:0:
256,192,264387,1,0,0:0:0:0:
256,192,264494,1,0,0:0:0:0:
256,192,264601,1,8,0:0:0:0:
256,192,264654,1,8,0:0:0:0:
256,192,264708,1,8,0:0:0:0:
256,192,264815,1,0,0:0:0:0:
256,192,264922,1,0,0:0:0:0:
256,192,265029,1,8,0:0:0:0:
256,192,265244,1,8,0:0:0:0:
256,192,265458,5,4,0:0:0:0:
256,192,265672,1,0,0:0:0:0:
256,192,265887,1,8,0:0:0:0:
256,192,265994,1,8,0:0:0:0:
256,192,266101,1,0,0:0:0:0:
256,192,266208,1,0,0:0:0:0:
256,192,266315,1,8,0:0:0:0:
256,192,266369,1,8,0:0:0:0:
256,192,266422,1,8,0:0:0:0:
256,192,266529,1,0,0:0:0:0:
256,192,266637,1,0,0:0:0:0:
256,192,266744,1,8,0:0:0:0:
256,192,266851,1,0,0:0:0:0:
256,192,266958,1,8,0:0:0:0:
256,192,267172,1,0,0:0:0:0:
256,192,267387,1,8,0:0:0:0:
256,192,267494,1,8,0:0:0:0:
256,192,267601,1,0,0:0:0:0:
256,192,267708,1,8,0:0:0:0:
256,192,267815,1,0,0:0:0:0:
256,192,267869,1,0,0:0:0:0:
256,192,267922,1,0,0:0:0:0:
256,192,268029,1,8,0:0:0:0:
256,192,268136,1,0,0:0:0:0:
256,192,268244,1,8,0:0:0:0:
256,192,268351,1,8,0:0:0:0:
256,192,268458,1,0,0:0:0:0:
256,192,268565,1,8,0:0:0:0:
256,192,268672,1,8,0:0:0:0:
256,192,268886,5,12,0:0:0:0:
256,192,269101,1,0,0:0:0:0:
256,192,269208,1,0,0:0:0:0:
256,192,269315,1,8,0:0:0:0:
256,192,269422,1,8,0:0:0:0:
256,192,269529,1,0,0:0:0:0:
256,192,269636,1,0,0:0:0:0:
256,192,269744,1,8,0:0:0:0:
256,192,269851,1,8,0:0:0:0:
256,192,269958,1,0,0:0:0:0:
256,192,270011,1,0,0:0:0:0:
256,192,270065,1,0,0:0:0:0:
256,192,270172,1,8,0:0:0:0:
256,192,270279,1,0,0:0:0:0:
256,192,270386,1,8,0:0:0:0:
256,192,270494,1,0,0:0:0:0:
256,192,270601,1,8,0:0:0:0:
256,192,270815,1,8,0:0:0:0:
256,192,270869,1,8,0:0:0:0:
256,192,270922,1,8,0:0:0:0:
256,192,271029,1,0,0:0:0:0:
256,192,271136,1,0,0:0:0:0:
256,192,271244,1,8,0:0:0:0:
256,192,271351,1,8,0:0:0:0:
256,192,271458,1,0,0:0:0:0:
256,192,271565,1,0,0:0:0:0:
256,192,271672,1,8,0:0:0:0:
256,192,271779,1,8,0:0:0:0:
256,192,271886,1,0,0:0:0:0:
256,192,271994,1,8,0:0:0:0:
256,192,272101,1,8,0:0:0:0:
256,192,272315,5,12,0:0:0:0:
256,192,274161,1,12,0:0:0:0:
256,192,275084,1,4,0:0:0:0:
256,192,275995,1,12,0:0:0:0:
256,192,276475,5,8,0:0:0:0:
256,192,276623,1,0,0:0:0:0:
256,192,276771,1,0,0:0:0:0:
256,192,276931,1,0,0:0:0:0:
256,192,277288,1,0,0:0:0:0:
256,192,277665,1,0,0:0:0:0:
256,192,278057,5,12,0:0:0:0:
256,192,279390,1,12,0:0:0:0:
