osu file format v14

[General]
AudioFilename: audio.ogg
AudioLeadIn: 0
PreviewTime: 244275
Countdown: 0
SampleSet: Normal
StackLeniency: 0.7
Mode: 1
LetterboxInBreaks: 0
WidescreenStoryboard: 1

[Editor]
Bookmarks: 47290,70288,76865,84573,89716,111998,124871,140871,156871,182471,190471,214471,227953,244875,272303
DistanceSpacing: 0.8
BeatDivisor: 2
GridSize: 32
TimelineZoom: 2.05

[Metadata]
Title:Manufactured Extinct
TitleUnicode:Manufactured Extinct
Artist:Cattle Decapitation
ArtistUnicode:Cattle Decapitation
Creator:Heaxys
Version:Futsuu
Source:
Tags:technical death grindcore deathcore deathgrind metal english the anthropocene extinction mini pack mini-pack haexy haexys
BeatmapID:3267663
BeatmapSetID:1454753

[Difficulty]
HPDrainRate:7
CircleSize:2
OverallDifficulty:4
ApproachRate:10
SliderMultiplier:1.4
SliderTickRate:1

[Events]
//Background and Video events
0,0,"connor-lee-small.jpg",0,0
//Break Periods
//Storyboard Layer 0 (Background)
//Storyboard Layer 1 (Fail)
//Storyboard Layer 2 (Pass)
//Storyboard Layer 3 (Foreground)
//Storyboard Layer 4 (Overlay)
//Storyboard Sound Samples

[TimingPoints]
21007,410.677618069815,4,1,0,100,1,0
76859,410.677618069815,4,1,0,100,1,8
76865,214.285714285714,3,1,0,100,1,0
76865,-166.666666666667,3,1,0,100,0,0
84579,-153.846153846154,3,1,0,100,0,1
89722,-166.666666666667,3,1,0,100,0,0
94864,214.285714285714,4,1,0,100,1,0
94864,-166.666666666667,4,1,0,100,0,0
98292,214.285714285714,3,1,0,100,1,1
98292,-153.846153846154,3,1,0,100,0,1
103434,214.285714285714,4,1,0,100,1,0
103434,-153.846153846154,4,1,0,100,0,0
103755,-166.666666666667,4,1,0,100,0,0
106862,214.285714285714,3,1,0,100,1,1
106862,-153.846153846154,3,1,0,100,0,1
112004,434.782608695652,3,1,0,100,1,0
112004,-82.2368421052632,3,1,0,100,0,0
112871,400,4,1,0,100,1,0
124871,250,4,1,0,100,1,0
124871,-133.333333333333,4,1,0,100,0,0
132871,-133.333333333333,4,1,0,100,0,1
140871,400,4,1,0,100,1,0
140871,-76.9230769230769,4,1,0,100,0,0
143671,-90.9090909090909,4,1,0,100,0,0
156871,-90.9090909090909,4,1,0,100,0,1
182471,250,4,1,0,100,1,0
182471,-133.333333333333,4,1,0,100,0,0
190471,-133.333333333333,4,1,0,100,0,1
214471,387.096774193548,3,1,0,100,1,0
214471,-86.9565217391304,3,1,0,100,0,0
217954,387.096774193548,3,1,0,100,1,8
218341,400,3,1,0,100,1,0
227941,521.739130434783,4,1,0,100,1,0
227941,-76.6871165644172,4,1,0,100,0,0
228201,447.761194029851,4,1,0,100,1,8
228201,-85.4700854700855,4,1,0,100,0,8
228499,-88.4955752212389,4,1,0,100,0,8
228798,-91.743119266055,4,1,0,100,0,8
229096,517.241379310345,4,1,0,100,1,8
229096,-84.0336134453781,4,1,0,100,0,8
229440,-88.4955752212389,4,1,0,100,0,8
229785,-92.5925925925926,4,1,0,100,0,8
230130,-98.0392156862745,4,1,0,100,0,8
230475,600,3,1,0,100,1,0
243675,-76.9230769230769,3,1,0,100,0,0
243975,-74.0740740740741,3,1,0,100,0,0
244275,-71.4285714285714,3,1,0,100,0,0
244575,-68.9655172413793,3,1,0,100,0,0
244875,600,3,1,0,100,1,8
244887,214.285714285714,4,1,0,100,1,0
244887,-166.666666666667,4,1,0,100,0,0
248315,-166.666666666667,4,1,0,100,0,1
258172,-166.666666666667,4,1,0,100,0,0
258601,-153.846153846154,4,1,0,100,0,1
272315,461.538461538462,4,1,0,100,1,0
272315,-71.4285714285714,4,1,0,100,0,0
272533,-90.9090909090909,4,1,0,100,0,0
274841,-95.2380952380954,4,1,0,100,0,0
275995,480,4,1,0,100,1,0
275995,-96.8992248062017,4,1,0,100,0,0
276475,444.444444444444,4,1,0,100,1,8
276475,-104.712041884817,4,1,0,100,0,8
276771,480,4,1,0,100,1,8
277288,566.037735849057,4,1,0,100,1,8
277288,-86.9565217391304,4,1,0,100,0,8
277665,588.235294117647,4,1,0,100,1,8
277665,-86.9565217391304,4,1,0,100,0,8
278057,666.666666666667,4,1,0,100,1,0
278057,-80,4,1,0,100,0,0
278914,-83.3333333333333,4,1,0,100,0,0

[HitObjects]
256,192,21007,5,4,0:0:0:0:
256,192,22649,1,12,0:0:0:0:
256,192,23471,1,12,0:0:0:0:
256,192,24292,1,4,0:0:0:0:
256,192,25935,1,8,0:0:0:0:
256,192,27577,5,4,0:0:0:0:
256,192,29220,1,12,0:0:0:0:
256,192,30041,1,12,0:0:0:0:
256,192,30863,1,12,0:0:0:0:
256,192,32095,1,0,0:0:0:0:
256,192,32505,1,8,0:0:0:0:
256,192,33327,1,8,0:0:0:0:
256,192,33738,1,8,0:0:0:0:
256,192,34148,5,4,0:0:0:0:
256,192,35791,1,12,0:0:0:0:
256,192,36612,1,12,0:0:0:0:
256,192,37434,1,4,0:0:0:0:
256,192,39076,1,8,0:0:0:0:
256,192,40719,5,4,0:0:0:0:
256,192,42362,1,12,0:0:0:0:
256,192,43183,1,12,0:0:0:0:
256,192,44004,1,12,0:0:0:0:
256,192,45236,1,0,0:0:0:0:
256,192,45647,1,8,0:0:0:0:
256,192,46469,1,8,0:0:0:0:
256,192,46879,1,8,0:0:0:0:
256,192,47290,5,4,0:0:0:0:
256,192,48111,1,8,0:0:0:0:
256,192,48522,1,0,0:0:0:0:
256,192,48933,1,8,0:0:0:0:
256,192,49343,1,8,0:0:0:0:
256,192,49754,1,8,0:0:0:0:
256,192,50165,1,0,0:0:0:0:
256,192,50575,5,12,0:0:0:0:
256,192,51397,1,8,0:0:0:0:
256,192,52218,1,8,0:0:0:0:
256,192,53039,1,8,0:0:0:0:
256,192,53861,5,4,0:0:0:0:
256,192,54682,1,8,0:0:0:0:
256,192,55093,1,0,0:0:0:0:
256,192,55503,1,8,0:0:0:0:
256,192,55914,1,0,0:0:0:0:
256,192,56325,1,8,0:0:0:0:
256,192,56735,1,8,0:0:0:0:
256,192,57146,5,12,0:0:0:0:
256,192,57967,1,8,0:0:0:0:
256,192,58789,1,8,0:0:0:0:
256,192,59200,1,8,0:0:0:0:
256,192,59405,1,0,0:0:0:0:
256,192,59610,1,8,0:0:0:0:
256,192,60021,1,8,0:0:0:0:
256,192,60432,5,4,0:0:0:0:
256,192,61253,1,8,0:0:0:0:
256,192,61664,1,0,0:0:0:0:
256,192,62074,1,8,0:0:0:0:
256,192,62485,1,8,0:0:0:0:
256,192,62896,1,8,0:0:0:0:
256,192,63306,1,0,0:0:0:0:
256,192,63717,5,12,0:0:0:0:
256,192,64538,1,8,0:0:0:0:
256,192,65360,1,8,0:0:0:0:
256,192,66181,1,8,0:0:0:0:
256,192,67002,5,4,0:0:0:0:
256,192,67824,1,8,0:0:0:0:
256,192,68234,1,0,0:0:0:0:
256,192,68645,1,8,0:0:0:0:
256,192,69056,1,0,0:0:0:0:
256,192,69466,1,8,0:0:0:0:
256,192,69877,1,8,0:0:0:0:
256,192,70288,5,12,0:0:0:0:
256,192,71109,1,8,0:0:0:0:
256,192,71931,1,12,0:0:0:0:
256,192,72752,1,8,0:0:0:0:
256,192,73573,1,12,0:0:0:0:
256,192,74395,1,12,0:0:0:0:
256,192,75216,1,12,0:0:0:0:
256,192,76037,1,12,0:0:0:0:
256,192,76865,5,8,0:0:0:0:
256,192,77293,1,0,0:0:0:0:
256,192,77507,1,8,0:0:0:0:
256,192,77936,1,8,0:0:0:0:
256,192,78150,1,8,0:0:0:0:
256,192,78579,1,0,0:0:0:0:
256,192,78793,1,8,0:0:0:0:
256,192,79007,1,0,0:0:0:0:
256,192,79436,5,12,0:0:0:0:
256,192,80079,1,0,0:0:0:0:
256,192,80507,1,8,0:0:0:0:
256,192,80722,1,8,0:0:0:0:
256,192,81365,1,0,0:0:0:0:
256,192,81579,1,8,0:0:0:0:
256,192,82007,1,8,0:0:0:0:
256,192,82436,1,8,0:0:0:0:
256,192,82650,1,8,0:0:0:0:
256,192,82864,1,0,0:0:0:0:
256,192,83079,1,0,0:0:0:0:
256,192,83293,1,8,0:0:0:0:
256,192,83507,1,8,0:0:0:0:
256,192,84150,1,8,0:0:0:0:
256,192,84579,5,12,0:0:0:0:
256,192,84793,1,0,0:0:0:0:
256,192,85007,1,0,0:0:0:0:
256,192,85222,1,8,0:0:0:0:
256,192,85864,1,0,0:0:0:0:
256,192,86079,1,8,0:0:0:0:
256,192,86293,1,8,0:0:0:0:
256,192,86507,1,8,0:0:0:0:
256,192,86722,1,0,0:0:0:0:
256,192,86936,1,8,0:0:0:0:
256,192,87150,1,8,0:0:0:0:
256,192,87793,1,8,0:0:0:0:
256,192,88007,1,0,0:0:0:0:
256,192,88222,1,8,0:0:0:0:
256,192,88436,1,8,0:0:0:0:
256,192,88650,1,8,0:0:0:0:
256,192,88864,1,0,0:0:0:0:
256,192,89079,1,8,0:0:0:0:
256,192,89293,1,8,0:0:0:0:
256,192,89722,5,12,0:0:0:0:
256,192,90364,1,8,0:0:0:0:
256,192,90793,1,0,0:0:0:0:
256,192,91007,1,8,0:0:0:0:
256,192,91436,1,8,0:0:0:0:
256,192,91650,1,8,0:0:0:0:
256,192,92079,1,0,0:0:0:0:
256,192,92293,1,8,0:0:0:0:
256,192,92722,1,8,0:0:0:0:
256,192,92936,1,8,0:0:0:0:
256,192,93150,1,0,0:0:0:0:
256,192,93364,1,8,0:0:0:0:
256,192,93579,1,0,0:0:0:0:
256,192,93793,1,8,0:0:0:0:
256,192,94007,1,8,0:0:0:0:
256,192,94436,1,8,0:0:0:0:
256,192,94864,5,4,0:0:0:0:
256,192,95506,1,0,0:0:0:0:
256,192,95935,1,0,0:0:0:0:
256,192,96149,1,8,0:0:0:0:
256,192,96578,1,0,0:0:0:0:
256,192,97221,1,8,0:0:0:0:
256,192,97649,1,0,0:0:0:0:
256,192,97864,1,8,0:0:0:0:
256,192,98292,5,12,0:0:0:0:
256,192,98934,1,8,0:0:0:0:
256,192,99363,1,0,0:0:0:0:
256,192,99577,1,8,0:0:0:0:
256,192,99792,1,8,0:0:0:0:
256,192,100220,1,8,0:0:0:0:
256,192,100434,1,0,0:0:0:0:
256,192,100863,1,8,0:0:0:0:
256,192,101292,1,0,0:0:0:0:
256,192,101506,1,8,0:0:0:0:
256,192,101720,1,8,0:0:0:0:
256,192,101934,1,0,0:0:0:0:
256,192,102149,1,8,0:0:0:0:
256,192,102577,1,0,0:0:0:0:
256,192,102792,1,8,0:0:0:0:
256,192,103006,1,8,0:0:0:0:
256,192,103220,1,8,0:0:0:0:
256,192,103434,5,4,0:0:0:0:
256,192,104076,1,8,0:0:0:0:
256,192,104505,1,0,0:0:0:0:
256,192,104719,1,8,0:0:0:0:
256,192,105148,1,0,0:0:0:0:
256,192,105791,1,8,0:0:0:0:
256,192,106219,1,8,0:0:0:0:
256,192,106434,1,0,0:0:0:0:
256,192,106862,5,12,0:0:0:0:
256,192,107290,1,8,0:0:0:0:
256,192,107504,1,0,0:0:0:0:
256,192,107719,1,8,0:0:0:0:
256,192,107933,1,8,0:0:0:0:
256,192,108576,1,8,0:0:0:0:
256,192,108790,1,8,0:0:0:0:
256,192,109004,1,0,0:0:0:0:
256,192,109219,1,8,0:0:0:0:
256,192,109862,1,8,0:0:0:0:
256,192,110076,1,0,0:0:0:0:
256,192,110290,1,8,0:0:0:0:
256,192,110504,1,8,0:0:0:0:
256,192,110719,1,8,0:0:0:0:
256,192,110933,1,0,0:0:0:0:
256,192,111147,1,8,0:0:0:0:
256,192,111362,1,8,0:0:0:0:
256,192,111576,1,0,0:0:0:0:
256,192,112004,5,12,0:0:0:0:
256,192,112871,5,8,0:0:0:0:
256,192,113271,1,0,0:0:0:0:
256,192,113671,1,8,0:0:0:0:
256,192,114471,1,8,0:0:0:0:
256,192,114871,1,0,0:0:0:0:
256,192,115071,1,8,0:0:0:0:
256,192,115271,1,8,0:0:0:0:
256,192,116071,5,8,0:0:0:0:
256,192,116471,1,0,0:0:0:0:
256,192,116871,1,8,0:0:0:0:
256,192,117671,1,8,0:0:0:0:
256,192,118071,1,0,0:0:0:0:
256,192,118271,1,0,0:0:0:0:
256,192,118471,1,8,0:0:0:0:
256,192,118871,1,0,0:0:0:0:
256,192,119271,5,8,0:0:0:0:
256,192,119671,1,0,0:0:0:0:
256,192,120071,1,8,0:0:0:0:
256,192,120471,1,0,0:0:0:0:
256,192,120871,1,8,0:0:0:0:
256,192,121071,1,8,0:0:0:0:
256,192,121271,1,0,0:0:0:0:
256,192,121671,1,12,0:0:0:0:
256,192,122471,5,8,0:0:0:0:
256,192,122871,1,0,0:0:0:0:
256,192,123271,1,8,0:0:0:0:
256,192,123671,1,0,0:0:0:0:
256,192,124071,1,8,0:0:0:0:
256,192,124871,5,4,0:0:0:0:
256,192,125121,1,8,0:0:0:0:
256,192,125371,1,0,0:0:0:0:
256,192,125496,1,8,0:0:0:0:
256,192,125746,1,8,0:0:0:0:
256,192,126121,1,8,0:0:0:0:
256,192,126371,1,8,0:0:0:0:
256,192,126621,1,0,0:0:0:0:
256,192,126871,5,8,0:0:0:0:
256,192,127121,1,8,0:0:0:0:
256,192,127371,1,0,0:0:0:0:
256,192,127496,1,8,0:0:0:0:
256,192,127746,1,8,0:0:0:0:
256,192,128121,1,8,0:0:0:0:
256,192,128371,1,0,0:0:0:0:
256,192,128871,5,8,0:0:0:0:
256,192,129121,1,8,0:0:0:0:
256,192,129371,1,0,0:0:0:0:
256,192,129496,1,8,0:0:0:0:
256,192,129746,1,8,0:0:0:0:
256,192,130121,1,8,0:0:0:0:
256,192,130371,1,8,0:0:0:0:
256,192,130621,1,0,0:0:0:0:
256,192,130871,5,8,0:0:0:0:
256,192,131121,1,8,0:0:0:0:
256,192,131371,1,0,0:0:0:0:
256,192,131496,1,8,0:0:0:0:
256,192,131746,1,8,0:0:0:0:
256,192,132371,5,8,0:0:0:0:
256,192,132621,1,8,0:0:0:0:
256,192,132871,1,4,0:0:0:0:
256,192,133121,5,8,0:0:0:0:
256,192,133371,1,0,0:0:0:0:
256,192,133496,1,8,0:0:0:0:
256,192,133746,1,8,0:0:0:0:
256,192,134121,1,8,0:0:0:0:
256,192,134371,1,0,0:0:0:0:
256,192,134621,1,8,0:0:0:0:
256,192,134871,1,0,0:0:0:0:
256,192,135121,1,8,0:0:0:0:
256,192,135371,1,8,0:0:0:0:
256,192,135746,1,8,0:0:0:0:
256,192,135871,1,8,0:0:0:0:
256,192,136121,1,8,0:0:0:0:
256,192,136371,1,0,0:0:0:0:
256,192,136871,5,4,0:0:0:0:
256,192,137121,1,8,0:0:0:0:
256,192,137371,1,0,0:0:0:0:
256,192,137496,1,8,0:0:0:0:
256,192,137746,1,8,0:0:0:0:
256,192,138121,1,8,0:0:0:0:
256,192,138246,1,0,0:0:0:0:
256,192,138621,1,8,0:0:0:0:
256,192,138871,1,0,0:0:0:0:
256,192,139121,1,8,0:0:0:0:
256,192,139371,1,8,0:0:0:0:
256,192,139621,1,8,0:0:0:0:
256,192,139871,1,8,0:0:0:0:
256,192,140121,1,8,0:0:0:0:
256,192,140496,1,0,0:0:0:0:
256,192,140621,1,8,0:0:0:0:
256,192,140871,1,4,0:0:0:0:
256,192,143871,5,0,0:0:0:0:
256,192,144071,1,12,0:0:0:0:
256,192,144871,1,8,0:0:0:0:
256,192,146471,1,8,0:0:0:0:
256,192,147271,1,4,0:0:0:0:
256,192,148071,1,8,0:0:0:0:
256,192,149671,1,8,0:0:0:0:
256,192,150271,1,0,0:0:0:0:
256,192,150471,1,12,0:0:0:0:
256,192,151271,1,8,0:0:0:0:
256,192,152871,1,8,0:0:0:0:
256,192,153671,1,12,0:0:0:0:
256,192,154471,1,8,0:0:0:0:
256,192,155271,1,12,0:0:0:0:
256,192,155871,1,0,0:0:0:0:
256,192,156071,1,8,0:0:0:0:
256,192,156271,1,0,0:0:0:0:
256,192,156471,1,8,0:0:0:0:
256,192,156671,1,8,0:0:0:0:
256,192,156871,5,4,0:0:0:0:
256,192,157271,1,8,0:0:0:0:
256,192,157471,1,0,0:0:0:0:
256,192,157671,1,8,0:0:0:0:
256,192,157871,1,0,0:0:0:0:
256,192,158071,1,8,0:0:0:0:
256,192,158271,1,8,0:0:0:0:
256,192,158871,1,8,0:0:0:0:
256,192,159071,1,0,0:0:0:0:
256,192,159271,1,8,0:0:0:0:
256,192,159471,1,0,0:0:0:0:
256,192,159671,1,8,0:0:0:0:
256,192,159871,1,8,0:0:0:0:
256,192,160071,1,4,0:0:0:0:
256,192,160471,5,8,0:0:0:0:
256,192,160671,1,8,0:0:0:0:
256,192,160871,1,0,0:0:0:0:
256,192,161071,1,0,0:0:0:0:
256,192,161271,1,8,0:0:0:0:
256,192,161471,1,0,0:0:0:0:
256,192,161671,1,8,0:0:0:0:
256,192,162071,1,8,0:0:0:0:
256,192,162271,1,8,0:0:0:0:
256,192,162471,1,8,0:0:0:0:
256,192,162671,1,0,0:0:0:0:
256,192,162871,1,8,0:0:0:0:
256,192,163071,1,8,0:0:0:0:
256,192,163271,1,4,0:0:0:0:
256,192,163671,5,8,0:0:0:0:
256,192,163871,1,0,0:0:0:0:
256,192,164071,1,8,0:0:0:0:
256,192,164271,1,0,0:0:0:0:
256,192,164471,1,8,0:0:0:0:
256,192,164671,1,8,0:0:0:0:
256,192,165271,1,8,0:0:0:0:
256,192,165471,1,8,0:0:0:0:
256,192,165671,1,0,0:0:0:0:
256,192,165871,1,8,0:0:0:0:
256,192,166071,1,0,0:0:0:0:
256,192,166271,1,0,0:0:0:0:
256,192,166471,1,4,0:0:0:0:
256,192,167271,5,8,0:0:0:0:
256,192,167671,1,8,0:0:0:0:
256,192,167871,1,0,0:0:0:0:
256,192,168071,1,8,0:0:0:0:
256,192,168471,1,8,0:0:0:0:
256,192,168671,1,8,0:0:0:0:
256,192,168871,1,8,0:0:0:0:
256,192,169071,1,0,0:0:0:0:
256,192,169271,1,8,0:0:0:0:
256,192,169671,1,4,0:0:0:0:
256,192,170071,5,8,0:0:0:0:
256,192,170271,1,0,0:0:0:0:
256,192,170471,1,8,0:0:0:0:
256,192,170671,1,0,0:0:0:0:
256,192,170871,1,8,0:0:0:0:
256,192,171071,1,8,0:0:0:0:
256,192,171671,1,8,0:0:0:0:
256,192,171871,1,0,0:0:0:0:
256,192,172071,1,8,0:0:0:0:
256,192,172271,1,0,0:0:0:0:
256,192,172471,1,8,0:0:0:0:
256,192,172671,1,8,0:0:0:0:
256,192,172871,1,4,0:0:0:0:
256,192,173271,5,8,0:0:0:0:
256,192,173671,1,8,0:0:0:0:
256,192,173871,1,0,0:0:0:0:
256,192,174071,1,8,0:0:0:0:
256,192,174271,1,0,0:0:0:0:
256,192,174471,1,8,0:0:0:0:
256,192,174871,1,8,0:0:0:0:
256,192,175071,1,0,0:0:0:0:
256,192,175271,1,8,0:0:0:0:
256,192,175471,1,8,0:0:0:0:
256,192,175671,1,8,0:0:0:0:
256,192,175871,1,0,0:0:0:0:
256,192,176071,1,4,0:0:0:0:
256,192,176871,5,8,0:0:0:0:
256,192,177271,1,8,0:0:0:0:
256,192,177471,1,0,0:0:0:0:
256,192,177671,1,8,0:0:0:0:
256,192,178071,1,0,0:0:0:0:
256,192,178271,1,8,0:0:0:0:
256,192,178471,1,0,0:0:0:0:
256,192,178671,1,8,0:0:0:0:
256,192,178871,1,8,0:0:0:0:
256,192,179071,1,0,0:0:0:0:
256,192,179271,1,4,0:0:0:0:
256,192,179671,1,0,0:0:0:0:
256,192,180071,1,8,0:0:0:0:
256,192,180471,1,8,0:0:0:0:
256,192,180671,1,0,0:0:0:0:
256,192,180871,1,8,0:0:0:0:
256,192,181271,1,0,0:0:0:0:
256,192,181671,1,8,0:0:0:0:
256,192,182071,1,8,0:0:0:0:
256,192,182471,5,4,0:0:0:0:
256,192,182721,1,8,0:0:0:0:
256,192,182971,1,0,0:0:0:0:
256,192,183096,1,8,0:0:0:0:
256,192,183346,1,8,0:0:0:0:
256,192,183721,1,8,0:0:0:0:
256,192,183971,1,8,0:0:0:0:
256,192,184221,1,0,0:0:0:0:
256,192,184471,5,8,0:0:0:0:
256,192,184721,1,8,0:0:0:0:
256,192,184971,1,0,0:0:0:0:
256,192,185096,1,8,0:0:0:0:
256,192,185346,1,8,0:0:0:0:
256,192,185721,1,8,0:0:0:0:
256,192,185971,1,0,0:0:0:0:
256,192,186471,5,8,0:0:0:0:
256,192,186721,1,8,0:0:0:0:
256,192,186971,1,0,0:0:0:0:
256,192,187096,1,8,0:0:0:0:
256,192,187346,1,8,0:0:0:0:
256,192,187721,1,8,0:0:0:0:
256,192,187971,1,8,0:0:0:0:
256,192,188221,1,0,0:0:0:0:
256,192,188471,5,8,0:0:0:0:
256,192,188721,1,8,0:0:0:0:
256,192,188971,1,0,0:0:0:0:
256,192,189096,1,8,0:0:0:0:
256,192,189346,1,8,0:0:0:0:
256,192,189721,1,8,0:0:0:0:
256,192,189971,1,0,0:0:0:0:
256,192,190221,1,0,0:0:0:0:
256,192,190471,5,12,0:0:0:0:
256,192,190846,1,0,0:0:0:0:
256,192,191221,1,8,0:0:0:0:
256,192,191721,1,8,0:0:0:0:
256,192,191971,1,0,0:0:0:0:
256,192,192221,1,0,0:0:0:0:
256,192,192471,1,8,0:0:0:0:
256,192,192846,1,8,0:0:0:0:
256,192,193221,1,0,0:0:0:0:
256,192,193471,1,8,0:0:0:0:
256,192,193971,1,0,0:0:0:0:
256,192,194471,5,8,0:0:0:0:
256,192,194846,1,8,0:0:0:0:
256,192,195221,1,0,0:0:0:0:
256,192,195471,1,8,0:0:0:0:
256,192,195721,1,8,0:0:0:0:
256,192,195971,1,0,0:0:0:0:
256,192,196221,1,8,0:0:0:0:
256,192,196471,1,0,0:0:0:0:
256,192,196846,1,0,0:0:0:0:
256,192,197221,1,8,0:0:0:0:
256,192,197471,1,0,0:0:0:0:
256,192,197721,1,8,0:0:0:0:
256,192,197971,1,12,0:0:0:0:
256,192,198471,5,8,0:0:0:0:
256,192,198846,1,8,0:0:0:0:
256,192,198971,1,8,0:0:0:0:
256,192,199221,1,0,0:0:0:0:
256,192,199471,1,8,0:0:0:0:
256,192,199846,1,8,0:0:0:0:
256,192,200221,1,8,0:0:0:0:
256,192,200471,1,0,0:0:0:0:
256,192,200721,1,0,0:0:0:0:
256,192,200971,1,8,0:0:0:0:
256,192,201346,1,8,0:0:0:0:
256,192,201596,1,8,0:0:0:0:
256,192,201721,1,8,0:0:0:0:
256,192,201971,1,8,0:0:0:0:
256,192,202471,5,0,0:0:0:0:
256,192,202721,1,8,0:0:0:0:
256,192,203096,1,8,0:0:0:0:
256,192,203471,1,0,0:0:0:0:
256,192,203721,1,8,0:0:0:0:
256,192,204096,1,0,0:0:0:0:
256,192,204471,1,8,0:0:0:0:
256,192,204721,1,0,0:0:0:0:
256,192,204971,1,8,0:0:0:0:
256,192,205221,1,8,0:0:0:0:
256,192,205471,1,0,0:0:0:0:
256,192,205721,1,8,0:0:0:0:
256,192,205971,1,8,0:0:0:0:
256,192,206221,1,8,0:0:0:0:
256,192,206471,1,4,0:0:0:0:
256,192,206971,5,0,0:0:0:0:
256,192,207221,1,8,0:0:0:0:
256,192,207471,1,8,0:0:0:0:
256,192,207846,1,8,0:0:0:0:
256,192,208221,1,8,0:0:0:0:
256,192,208471,1,4,0:0:0:0:
256,192,208971,5,0,0:0:0:0:
256,192,209221,1,0,0:0:0:0:
256,192,209471,1,8,0:0:0:0:
256,192,209971,1,0,0:0:0:0:
256,192,210221,1,8,0:0:0:0:
256,192,210471,5,4,0:0:0:0:
256,192,210971,1,0,0:0:0:0:
256,192,211221,1,8,0:0:0:0:
256,192,211471,1,8,0:0:0:0:
256,192,211846,1,8,0:0:0:0:
256,192,212221,1,0,0:0:0:0:
256,192,212471,1,8,0:0:0:0:
256,192,212721,1,8,0:0:0:0:
256,192,212971,1,8,0:0:0:0:
256,192,213221,1,0,0:0:0:0:
256,192,213471,1,8,0:0:0:0:
256,192,213721,1,8,0:0:0:0:
256,192,213971,1,0,0:0:0:0:
256,192,214471,5,12,0:0:0:0:
256,192,214858,1,0,0:0:0:0:
256,192,215245,1,0,0:0:0:0:
256,192,215438,1,0,0:0:0:0:
256,192,215632,1,8,0:0:0:0:
256,192,216019,1,0,0:0:0:0:
256,192,216406,1,0,0:0:0:0:
256,192,216600,1,0,0:0:0:0:
256,192,216793,1,8,0:0:0:0:
256,192,217180,1,4,0:0:0:0:
256,192,217567,1,4,0:0:0:0:
256,192,217761,1,4,0:0:0:0:
256,192,218341,5,12,0:0:0:0:
256,192,219141,1,8,0:0:0:0:
256,192,219541,1,8,0:0:0:0:
256,192,220341,1,0,0:0:0:0:
256,192,220741,1,8,0:0:0:0:
256,192,221541,1,8,0:0:0:0:
256,192,221941,1,8,0:0:0:0:
256,192,222341,1,8,0:0:0:0:
256,192,222741,1,0,0:0:0:0:
256,192,223141,1,8,0:0:0:0:
256,192,223941,5,8,0:0:0:0:
256,192,224341,1,8,0:0:0:0:
256,192,225141,1,0,0:0:0:0:
256,192,225541,1,8,0:0:0:0:
256,192,226341,1,8,0:0:0:0:
256,192,226741,1,8,0:0:0:0:
256,192,227141,1,0,0:0:0:0:
256,192,227541,1,8,0:0:0:0:
256,192,227941,5,4,0:0:0:0:
256,192,230475,5,4,0:0:0:0:
256,192,231075,1,0,0:0:0:0:
256,192,231375,1,8,0:0:0:0:
256,192,231675,1,0,0:0:0:0:
256,192,232275,1,8,0:0:0:0:
256,192,232875,1,0,0:0:0:0:
256,192,233175,1,0,0:0:0:0:
256,192,233475,1,0,0:0:0:0:
256,192,234075,1,8,0:0:0:0:
256,192,234675,1,8,0:0:0:0:
256,192,234975,1,0,0:0:0:0:
256,192,235275,1,8,0:0:0:0:
256,192,235875,1,8,0:0:0:0:
256,192,236475,1,0,0:0:0:0:
256,192,236775,1,8,0:0:0:0:
256,192,237075,1,0,0:0:0:0:
256,192,237375,1,0,0:0:0:0:
256,192,237675,5,12,0:0:0:0:
256,192,238275,1,0,0:0:0:0:
256,192,238575,1,8,0:0:0:0:
256,192,238875,1,0,0:0:0:0:
256,192,239475,1,8,0:0:0:0:
256,192,240075,1,0,0:0:0:0:
256,192,240375,1,0,0:0:0:0:
256,192,240675,1,0,0:0:0:0:
256,192,241275,1,8,0:0:0:0:
256,192,241875,1,8,0:0:0:0:
256,192,242175,1,0,0:0:0:0:
256,192,242475,1,8,0:0:0:0:
256,192,243075,1,8,0:0:0:0:
256,192,243675,1,8,0:0:0:0:
256,192,243975,1,0,0:0:0:0:
256,192,244275,1,8,0:0:0:0:
256,192,244575,1,8,0:0:0:0:
256,192,244887,5,4,0:0:0:0:
256,192,247672,1,0,0:0:0:0:
256,192,247887,1,8,0:0:0:0:
256,192,248315,1,4,0:0:0:0:
256,192,248744,5,8,0:0:0:0:
256,192,248958,1,8,0:0:0:0:
256,192,249387,1,0,0:0:0:0:
256,192,249601,1,8,0:0:0:0:
256,192,250029,1,0,0:0:0:0:
256,192,250458,1,8,0:0:0:0:
256,192,250672,1,8,0:0:0:0:
256,192,251101,1,8,0:0:0:0:
256,192,251315,1,0,0:0:0:0:
256,192,251744,5,12,0:0:0:0:
256,192,252387,1,8,0:0:0:0:
256,192,252815,1,0,0:0:0:0:
256,192,253029,1,8,0:0:0:0:
256,192,253458,1,0,0:0:0:0:
256,192,253672,1,0,0:0:0:0:
256,192,253887,1,8,0:0:0:0:
256,192,254101,1,8,0:0:0:0:
256,192,254529,1,0,0:0:0:0:
256,192,254744,1,8,0:0:0:0:
256,192,255172,1,12,0:0:0:0:
256,192,255601,5,8,0:0:0:0:
256,192,255922,1,8,0:0:0:0:
256,192,256244,1,0,0:0:0:0:
256,192,256458,1,8,0:0:0:0:
256,192,256886,1,0,0:0:0:0:
256,192,257315,1,8,0:0:0:0:
256,192,257529,1,8,0:0:0:0:
256,192,257744,1,0,0:0:0:0:
256,192,257958,1,0,0:0:0:0:
256,192,258172,1,12,0:0:0:0:
256,192,258601,5,4,0:0:0:0:
256,192,259029,1,8,0:0:0:0:
256,192,259244,1,0,0:0:0:0:
256,192,259458,1,8,0:0:0:0:
256,192,259672,1,0,0:0:0:0:
256,192,259886,1,8,0:0:0:0:
256,192,260101,1,8,0:0:0:0:
256,192,260744,1,8,0:0:0:0:
256,192,260958,1,8,0:0:0:0:
256,192,261172,1,0,0:0:0:0:
256,192,261386,1,8,0:0:0:0:
256,192,261601,1,8,0:0:0:0:
256,192,261815,1,0,0:0:0:0:
256,192,262029,1,12,0:0:0:0:
256,192,262458,5,8,0:0:0:0:
256,192,262672,1,0,0:0:0:0:
256,192,262887,1,8,0:0:0:0:
256,192,263101,1,0,0:0:0:0:
256,192,263315,1,8,0:0:0:0:
256,192,263529,1,8,0:0:0:0:
256,192,263744,1,12,0:0:0:0:
256,192,264172,1,8,0:0:0:0:
256,192,264387,1,0,0:0:0:0:
256,192,264601,1,8,0:0:0:0:
256,192,264815,1,0,0:0:0:0:
256,192,265029,1,8,0:0:0:0:
256,192,265458,5,4,0:0:0:0:
256,192,265887,1,8,0:0:0:0:
256,192,266101,1,0,0:0:0:0:
256,192,266315,1,8,0:0:0:0:
256,192,266529,1,0,0:0:0:0:
256,192,266744,1,8,0:0:0:0:
256,192,266958,1,8,0:0:0:0:
256,192,267387,1,8,0:0:0:0:
256,192,268029,1,8,0:0:0:0:
256,192,268244,1,8,0:0:0:0:
256,192,268458,1,0,0:0:0:0:
256,192,268672,1,0,0:0:0:0:
256,192,268886,1,12,0:0:0:0:
256,192,269315,5,8,0:0:0:0:
256,192,269529,1,0,0:0:0:0:
256,192,269744,1,8,0:0:0:0:
256,192,269958,1,0,0:0:0:0:
256,192,270172,1,8,0:0:0:0:
256,192,270601,1,8,0:0:0:0:
256,192,270815,1,8,0:0:0:0:
256,192,271029,1,0,0:0:0:0:
256,192,271244,1,8,0:0:0:0:
256,192,271458,1,0,0:0:0:0:
256,192,271672,1,8,0:0:0:0:
256,192,271886,1,0,0:0:0:0:
256,192,272315,1,12,0:0:0:0:
256,192,274161,5,12,0:0:0:0:
256,192,275084,1,4,0:0:0:0:
256,192,275995,1,12,0:0:0:0:
256,192,276475,1,8,0:0:0:0:
256,192,276931,1,0,0:0:0:0:
256,192,277288,1,0,0:0:0:0:
256,192,277665,1,0,0:0:0:0:
256,192,278057,1,12,0:0:0:0:
256,192,279390,1,12,0:0:0:0:
