osu file format v14

[General]
AudioFilename: audio.mp3
AudioLeadIn: 0
PreviewTime: 12993
Countdown: 0
SampleSet: Soft
StackLeniency: 0.3
Mode: 0
LetterboxInBreaks: 0
WidescreenStoryboard: 1

[Editor]
Bookmarks: 4620,13676,22733,31790,34054,40846,49903,58959,64337,68016,72544,90658,108771,126884,135941,144997,154054,163110,181224,190280,199337,201601,203865,206129,208393,217450,226507
DistanceSpacing: 1.7
BeatDivisor: 4
GridSize: 4
TimelineZoom: 2

[Metadata]
Title:1000000% CAFFEINE
TitleUnicode:1000000% CAFFEINE
Artist:Catsprite overdoses on Coffee
ArtistUnicode:Catsprite overdoses on Coffee
Creator:Ryuusei Aika
Version:Shunao's Hard
Source:Coffee Hispanic: Mocha
Tags:Shunao ShogunMoon LeCandy Down るーく rook osu! tournament tourney ro16 fm1 Tycani Fuiba Fuyu beasttrollmc electronic btmc instrumental edward
BeatmapID:3557830
BeatmapSetID:1571087

[Difficulty]
HPDrainRate:5
CircleSize:3.3
OverallDifficulty:6.3
ApproachRate:8
SliderMultiplier:1.4
SliderTickRate:1

[Events]
//Background and Video events
0,0,"90133021_p0.jpg",0,0
//Break Periods
2,126984,134525
//Storyboard Layer 0 (Background)
//Storyboard Layer 1 (Fail)
//Storyboard Layer 2 (Pass)
//Storyboard Layer 3 (Foreground)
//Storyboard Layer 4 (Overlay)
//Storyboard Sound Samples

[TimingPoints]
-8,283.018867924528,4,2,1,80,1,0
4520,-125,4,2,1,80,0,0
13576,-100,4,2,1,80,0,0
22633,-125,4,2,1,70,0,0
28293,-111.111111111111,4,2,1,70,0,0
29425,-100,4,2,1,70,0,0
31690,-125,4,2,1,80,0,0
33954,-100,4,2,1,80,0,0
40746,-111.111111111111,4,2,1,80,0,0
46407,-100,4,2,1,80,0,0
47539,-90.9090909090909,4,2,1,80,0,0
49803,-125,4,2,1,60,0,0
54331,-100,4,2,1,60,0,0
57727,-100,4,2,1,80,0,0
58859,-90.9090909090909,4,2,1,80,0,0
67916,-142.857142857143,4,2,1,60,0,0
71029,-142.857142857143,4,2,1,70,0,0
72444,-90.9090909090909,4,2,1,85,0,0
90558,-100,4,2,1,70,0,0
108671,-111.111111111111,4,2,1,80,0,0
126784,-111.111111111111,4,2,1,55,0,0
135841,-142.857142857142,4,2,1,65,0,0
139237,-142.857142857142,4,2,1,70,0,0
144897,-100,4,2,1,80,0,0
153954,-142.857142857143,4,2,1,70,0,0
158482,-125,4,2,1,70,0,0
162444,-125,4,2,1,80,0,0
163010,-83.3333333333333,4,2,1,85,0,0
199237,-100,4,2,1,80,0,0
208293,-90.9090909090909,4,2,1,80,0,0
217350,-125,4,2,1,70,0,0
223010,-100,4,2,1,70,0,0
225841,-100,4,2,1,80,0,0
226407,-100,4,2,1,60,0,0

[Colours]
Combo1 : 191,143,0
Combo2 : 0,191,0
Combo3 : 0,86,191
Combo4 : 181,11,36

[HitObjects]
154,83,2256,5,2,1:0:0:0:
154,83,3388,6,0,P|208:47|292:68,1,140,2|0,1:0|3:0,0:0:0:0:
432,180,3954,1,8,0:0:0:0:
297,322,4237,1,4,1:0:0:0:
130,228,4520,6,0,P|73:218|0:206,2,112,12|8|8,0:0|0:0|0:0,0:0:0:0:
297,322,5369,2,0,P|324:317|362:311,1,56,8|8,0:0|0:0,0:0:0:0:
369,218,5652,6,0,P|426:226|493:237,2,112,8|8|8,0:0|0:0|0:0,0:0:0:0:
269,55,6501,2,0,P|239:60|206:66,1,56,8|8,0:0|0:0,0:0:0:0:
129,20,6784,6,0,P|71:13|11:6,2,112,8|8|8,0:0|0:0|0:0,0:0:0:0:
125,210,7633,2,0,P|121:242|116:282,1,56,8|8,0:0|0:0,0:0:0:0:
122,368,7916,5,8,0:0:0:0:
122,368,7987,1,0,3:0:0:0:
122,368,8058,2,0,P|152:373|192:365,1,56,0|8,3:0|0:0,0:0:0:0:
265,334,8341,2,0,L|259:288,2,28,0|0|8,3:0|3:0|0:0,0:0:0:0:
364,368,8624,1,0,3:0:0:0:
364,368,8694,1,0,3:0:0:0:
364,368,8765,2,0,P|393:372|437:361,1,56,8|8,0:0|0:0,0:0:0:0:
501,318,9048,6,0,L|512:201,2,112,8|8|8,1:2|0:0|0:0,0:0:0:0:
328,237,9897,2,0,L|320:167,1,56,8|8,0:0|0:0,0:0:0:0:
412,141,10180,5,8,0:0:0:0:
412,141,10251,1,0,3:0:0:0:
412,141,10322,2,0,L|421:67,1,56,0|8,3:0|0:0,0:0:0:0:
244,0,10746,2,0,L|132:14,1,112,8|8,0:0|0:0,0:0:0:0:
38,27,11171,1,8,0:0:0:0:
84,122,11312,5,8,0:0:0:0:
84,122,11383,1,0,3:0:0:0:
84,122,11454,2,0,L|75:193,1,56,0|8,3:0|0:0,0:0:0:0:
7,242,11737,2,0,L|16:315,1,56,0|8,0:0|0:0,0:0:0:0:
72,372,12020,2,0,P|99:366|142:359,1,56,0|8,3:0|0:0,0:0:0:0:
221,372,12303,1,8,0:0:0:0:
221,372,12444,6,0,P|248:328|236:260,1,112,2|2,1:2|1:2,0:0:0:0:
376,135,13010,2,0,L|419:141,3,28,8|0|8|0,0:0|0:0|0:0|0:0,0:0:0:0:
450,147,13293,2,0,P|458:175|448:215,1,56,8|8,0:0|0:0,0:0:0:0:
428,310,13576,6,0,L|271:289,1,140,6|2,1:2|0:0,0:0:0:0:
228,368,14001,2,0,P|241:234|117:185,1,280,2|2,1:2|0:0,0:0:0:0:
31,212,14708,6,0,P|19:144|7:66,1,140,2|2,1:2|0:0,0:0:0:0:
93,25,15133,2,0,P|167:12|222:66,1,140,2|2,1:2|0:0,0:0:0:0:
273,128,15558,1,2,1:2:0:0:
453,203,15841,6,0,P|463:128|474:52,1,140,2|2,1:2|0:0,0:0:0:0:
387,15,16265,1,2,1:2:0:0:
248,153,16548,2,0,P|254:224|262:314,1,140,2|2,0:0|0:0,0:0:0:0:
173,339,16973,6,0,P|108:368|35:340,1,140,2|2,1:2|0:0,0:0:0:0:
2,260,17397,2,0,P|11:187|21:104,1,140,2|2,1:2|0:0,0:0:0:0:
7,23,17822,1,2,1:2:0:0:
202,41,18105,6,0,P|270:62|354:32,1,140,2|2,1:2|0:0,0:0:0:0:
431,18,18529,1,2,1:2:0:0:
431,18,18671,2,0,P|450:121|471:233,1,210,10|2,0:2|0:0,0:0:0:0:
482,321,19237,6,0,P|439:357|353:351,1,140,2|2,1:2|0:0,0:0:0:0:
275,313,19661,1,2,1:2:0:0:
275,313,19803,1,8,0:0:0:0:
114,201,20086,1,2,1:2:0:0:
248,58,20369,6,0,L|262:207,1,140,2|2,1:2|0:0,0:0:0:0:
191,265,20793,1,2,1:2:0:0:
191,265,20935,2,0,P|277:292|356:208,1,210,10|2,0:0|0:0,0:0:0:0:
390,123,21501,6,0,P|406:197|423:273,1,140,2|2,1:2|0:0,0:0:0:0:
481,342,21925,1,2,1:2:0:0:
481,342,22067,2,0,P|408:358|335:374,1,140,10|2,0:0|1:2,0:0:0:0:
156,342,22633,6,0,P|177:269|116:203,1,168,4|0,1:0|0:0,0:0:0:0:
27,184,23199,2,0,P|19:157|18:113,1,56,8|0,0:0|0:0,0:0:0:0:
54,99,23411,1,2,0:0:0:0:
54,99,23482,2,0,P|62:72|63:28,1,56
156,21,23765,5,0,1:0:0:0:
156,21,23907,2,0,P|215:13|270:50,1,112
329,101,24331,2,0,L|324:144,2,28,8|0|0,0:0|3:0|3:0,0:0:0:0:
421,74,24614,2,0,L|431:146,1,56
439,224,24897,6,0,P|376:273|280:252,1,168,0|0,1:0|0:0,0:0:0:0:
211,212,25463,2,0,L|201:289,1,56,8|0,0:0|0:0,0:0:0:0:
169,300,25675,1,2,0:0:0:0:
169,300,25746,2,0,L|178:373,1,56
274,374,26029,5,0,1:0:0:0:
274,374,26171,2,0,P|330:368|401:361,1,112
480,366,26595,2,0,P|491:339|487:299,1,56,8|0,0:0|0:0,0:0:0:0:
427,241,26878,2,0,P|416:214|420:174,1,56
475,112,27161,6,0,P|417:103|355:94,1,112,0|0,1:0|1:0,0:0:0:0:
192,18,27727,2,0,L|121:27,1,56,8|0,0:0|0:0,0:0:0:0:
105,61,27939,1,2,0:0:0:0:
105,61,28010,2,0,L|31:51,1,56,0|0,1:0|0:0,0:0:0:0:
25,145,28293,6,0,P|18:183|31:218,1,62.9999980773926,0|0,1:0|0:0,0:0:0:0:
95,267,28576,2,0,P|102:305|89:340,1,62.9999980773926,0|0,1:0|0:0,0:0:0:0:
178,373,28859,2,0,L|252:366,1,62.9999980773926,8|0,0:0|0:0,0:0:0:0:
284,343,29072,1,2,0:0:0:0:
284,343,29142,2,0,L|346:348,1,62.9999980773926,0|0,1:0|0:0,0:0:0:0:
426,289,29425,5,0,1:0:0:0:
426,289,29567,2,0,L|505:281,2,70,0|0|0,1:0|1:0|1:0,0:0:0:0:
352,224,29991,2,0,L|346:177,3,35,8|8|8|0,0:0|0:0|0:0|1:0,0:0:0:0:
378,149,30275,2,0,L|387:72,1,70,0|0,1:0|1:0,0:0:0:0:
313,12,30558,5,2,0:0:0:0:
33,105,31124,1,8,0:0:0:0:
33,105,31265,1,8,0:0:0:0:
1,200,31407,1,8,0:0:0:0:
1,200,31548,1,8,0:0:0:0:
37,300,31690,6,0,P|93:317|152:293,1,112,6|0,1:0|0:0,0:0:0:0:
285,175,32256,2,0,L|277:104,1,56,2|2,1:2|0:0,0:0:0:0:
315,33,32539,1,2,0:0:0:0:
315,33,32680,2,0,P|344:23|380:27,1,56,2|0,0:0|1:0,0:0:0:0:
504,166,33105,5,2,0:0:0:0:
504,166,33246,2,0,L|497:239,1,56,2|2,0:0|1:2,0:0:0:0:
347,338,33671,1,2,1:2:0:0:
265,376,33812,1,2,1:2:0:0:
265,376,33883,1,2,1:2:0:0:
265,376,33954,6,0,L|188:366,1,70,6|2,1:2|0:0,0:0:0:0:
120,312,34237,1,2,1:2:0:0:
120,312,34378,2,0,L|39:323,1,70,2|2,0:0|1:2,0:0:0:0:
9,232,34661,2,0,P|2:158|55:102,1,140,2|2,0:0|0:0,0:0:0:0:
138,82,35086,5,2,1:2:0:0:
138,82,35227,2,0,L|148:0,1,70,2|2,0:0|1:2,0:0:0:0:
244,8,35510,2,0,L|253:90,1,70,2|0,0:0|1:0,0:0:0:0:
332,151,35793,1,2,1:2:0:0:
332,151,35864,1,2,1:2:0:0:
332,151,35935,2,0,P|370:145|411:138,1,70,2|0,1:2|1:0,0:0:0:0:
482,194,36218,6,0,P|494:237|482:278,1,70,2|2,1:0|0:1,0:0:0:0:
446,351,36501,1,2,1:0:0:0:
446,351,36642,2,0,L|364:341,1,70,2|0,0:1|1:0,0:0:0:0:
287,301,36925,2,0,L|200:312,1,70,2|2,0:0|1:2,0:0:0:0:
141,371,37208,1,2,0:0:0:0:
141,371,37279,1,2,0:0:0:0:
141,371,37350,6,0,P|168:311|126:237,1,140,2|2,1:2|1:2,0:0:0:0:
57,203,37775,1,2,0:1:0:0:
57,203,37916,2,0,P|46:166|57:123,1,70,0|2,1:0|0:0,0:0:0:0:
123,69,38199,2,0,P|161:75|216:84,1,70,2|2,1:2|1:2,0:0:0:0:
285,47,38482,5,0,1:0:0:0:
285,47,39048,1,2,1:0:0:0:
285,47,39614,5,0,1:0:0:0:
383,92,39756,1,0,0:0:0:0:
383,92,39826,1,0,0:0:0:0:
383,92,39897,2,0,L|389:144,3,35,0|0|0|0,1:0|1:0|1:0|1:0,0:0:0:0:
420,163,40180,2,0,L|413:210,3,35,0|0|0|0,1:0|1:0|1:0|1:0,0:0:0:0:
374,225,40463,2,0,L|381:276,3,35,0|0|0|0,1:0|1:0|1:0|1:0,0:0:0:0:
387,303,40746,5,10,0:1:0:0:
214,379,41029,1,2,0:0:0:0:
40,303,41312,1,8,0:0:0:0:
40,303,41454,2,0,L|119:295,1,62.9999980773926,2|2,0:1|0:1,0:0:0:0:
169,229,41737,1,2,0:1:0:0:
169,229,41878,6,0,L|215:234,2,31.4999990386963,0|0|0,1:0|1:0|1:0,0:0:0:0:
123,145,42161,2,0,P|114:114|125:73,1,62.9999980773926,2|0,0:3|1:0,0:0:0:0:
180,11,42444,2,0,L|242:18,1,62.9999980773926,8|2,0:0|0:0,0:0:0:0:
307,87,42727,2,0,L|377:79,1,62.9999980773926,2|2,0:0|0:0,0:0:0:0:
443,23,43010,6,0,P|479:70|469:142,1,125.999996154785,0|2,1:0|3:0,0:0:0:0:
413,207,43435,1,0,1:0:0:0:
413,207,43576,2,0,L|286:195,1,125.999996154785,8|2,0:0|1:2,0:0:0:0:
98,185,44142,6,0,P|82:212|78:263,1,62.9999980773926,2|2,1:2|0:0,0:0:0:0:
79,337,44425,1,0,0:0:0:0:
172,371,44567,1,2,1:2:0:0:
172,371,44708,2,0,L|246:364,1,62.9999980773926,10|0,0:0|0:0,0:0:0:0:
322,328,44991,2,0,L|397:336,1,62.9999980773926,2|0,1:2|0:0,0:0:0:0:
472,371,45275,5,0,1:0:0:0:
501,184,45558,1,10,0:1:0:0:
407,19,45841,2,0,L|327:29,1,62.9999980773926,8|2,0:0|0:0,0:0:0:0:
251,46,46124,2,0,L|256:88,3,31.4999990386963,0|0|0|0,1:0|1:0|1:0|1:0,0:0:0:0:
286,114,46407,6,0,L|276:194,1,70,6|2,1:2|1:2,0:0:0:0:
251,281,46690,1,10,0:2:0:0:
251,281,46831,2,0,P|197:322|115:308,1,140,2|2,1:2|1:2,0:0:0:0:
43,265,47256,1,10,0:0:0:0:
16,66,47539,6,0,P|56:60|103:54,1,77.0000023498536,8|0,0:0|1:0,0:0:0:0:
183,13,47822,1,0,1:0:0:0:
183,13,47963,2,0,P|262:22|350:33,1,154.000004699707,8|0,0:0|1:0,0:0:0:0:
435,45,48388,2,0,P|450:85|436:132,1,77.0000023498536,8|0,0:0|1:0,0:0:0:0:
375,191,48671,6,0,L|320:184,3,38.5000011749268,8|8|8|8,0:0|0:0|0:0|0:0,0:0:0:0:
295,157,48954,2,0,L|240:164,3,38.5000011749268,8|8|8|8,0:0|0:0|0:0|0:0,0:0:0:0:
208,175,49237,2,0,P|156:230|173:317,1,154.000004699707,0|0,1:0|1:0,0:0:0:0:
339,375,49803,5,2,1:0:0:0:
488,256,50086,2,0,L|495:187,1,56,2|2,0:0|0:0,0:0:0:0:
450,114,50369,2,0,L|442:42,1,56,10|2,0:0|0:0,0:0:0:0:
359,13,50652,1,6,1:2:0:0:
272,28,50793,1,2,0:0:0:0:
272,28,50863,1,2,0:0:0:0:
272,28,50935,6,0,P|241:28|205:39,1,56,2|2,0:0|0:0,0:0:0:0:
145,97,51218,1,2,1:2:0:0:
145,97,51359,2,0,L|150:136,2,28,2|2|10,0:0|0:0|0:0,0:0:0:0:
56,76,51642,1,2,0:0:0:0:
56,76,51784,2,0,L|49:149,1,56,2|2,0:0|1:2,0:0:0:0:
12,219,52067,6,0,L|19:288,2,56,6|2|2,0:0|0:0|0:3,0:0:0:0:
105,202,52491,1,2,0:3:0:0:
105,202,52633,2,0,P|133:207|170:213,1,56,8|0,0:0|0:0,0:0:0:0:
225,281,52916,1,2,1:0:0:0:
389,377,53199,6,0,P|419:372|455:366,1,56,2|0,0:1|3:0,0:0:0:0:
496,287,53482,1,2,0:1:0:0:
401,121,53765,2,0,L|393:188,1,56,8|0,0:3|0:0,0:0:0:0:
302,203,54048,2,0,L|294:130,1,56,2|2,0:3|0:0,0:0:0:0:
286,49,54331,5,6,1:2:0:0:
90,31,54614,2,0,L|80:115,1,70,0|0,1:0|3:0,0:0:0:0:
156,172,54897,1,8,0:0:0:0:
156,172,55039,2,0,L|201:166,2,35,0|0|0,3:0|0:0|1:0,0:0:0:0:
73,225,55322,1,0,3:0:0:0:
73,225,55463,6,0,L|82:315,1,70,0|0,1:0|3:0,0:0:0:0:
137,374,55746,2,0,P|171:361|221:366,1,70,0|0,1:0|3:0,0:0:0:0:
291,315,56029,2,0,L|285:264,2,35,8|0|0,0:0|3:0|3:0,0:0:0:0:
384,345,56312,2,0,L|394:267,1,70,0|0,1:0|3:0,0:0:0:0:
406,178,56595,6,0,L|363:171,3,35,8|0|0|0,0:0|1:0|1:0|1:0,0:0:0:0:
338,137,56878,2,0,L|295:143,3,35,8|0|0|0,0:0|1:0|1:0|1:0,0:0:0:0:
275,182,57161,2,0,L|232:175,3,35,8|0|0|0,0:0|1:0|1:0|1:0,0:0:0:0:
207,141,57444,2,0,L|164:147,3,35,8|0|0|0,0:0|1:0|1:0|1:0,0:0:0:0:
123,153,57727,5,2,1:2:0:0:
123,153,58859,6,0,L|108:313,1,154.000004699707,6|2,1:2|0:0,0:0:0:0:
12,335,59284,2,0,L|-2:174,1,154.000004699707,2|2,1:2|0:0,0:0:0:0:
8,82,59708,1,10,0:1:0:0:
92,25,59850,1,0,0:0:0:0:
92,25,59921,1,0,0:0:0:0:
92,25,59991,6,0,P|134:18|177:36,1,77.0000023498536,2|0,1:0|0:0,0:0:0:0:
258,70,60275,2,0,P|252:109|245:157,2,77.0000023498536,10|2|2,0:0|0:0|1:2,0:0:0:0:
349,29,60699,2,0,P|387:20|431:33,1,77.0000023498536,2|2,0:0|0:0,0:0:0:0:
479,118,60982,1,2,0:0:0:0:
479,118,61124,6,0,P|485:154|492:197,2,77.0000023498536,6|2|2,1:2|0:0|0:0,0:0:0:0:
384,139,61548,1,2,1:2:0:0:
384,139,61690,1,8,0:0:0:0:
253,264,61973,1,2,1:2:0:0:
109,126,62256,5,10,0:0:0:0:
24,307,62539,2,0,L|14:215,1,77.0000023498536,0|2,1:0|0:0,0:0:0:0:
115,221,62822,2,0,L|124:300,1,77.0000023498536,2|2,0:0|0:0,0:0:0:0:
201,360,63105,1,2,1:3:0:0:
401,324,63388,5,6,1:2:0:0:
401,324,63529,2,0,P|442:312|495:324,2,77.0000023498536,2|2|2,0:0|0:0|1:2,0:0:0:0:
361,231,63954,2,0,P|352:193|346:141,1,77.0000023498536,10|0,0:0|0:0,0:0:0:0:
247,168,64237,2,0,P|255:130|261:92,1,77.0000023498536,4|0,1:2|0:0,0:0:0:0:
331,20,64520,6,0,P|375:13|414:36,2,77.0000023498536,6|0|2,1:2|0:0|0:0,0:0:0:0:
238,58,64944,1,2,1:2:0:0:
148,24,65086,1,8,0:0:0:0:
148,24,65227,2,0,P|69:21|12:83,1,154.000004699707,2|2,1:2|0:0,0:0:0:0:
5,169,65652,6,0,L|171:151,1,154.000004699707,4|2,1:2|0:0,0:0:0:0:
237,213,66076,2,0,P|223:299|208:393,1,154.000004699707,2|0,1:2|0:0,0:0:0:0:
312,369,66501,2,0,P|340:338|359:296,1,77.0000023498536,2|2,1:2|0:0,0:0:0:0:
453,285,66784,6,0,P|378:276|344:199,1,154.000004699707,10|2,0:0|3:2,0:0:0:0:
344,112,67208,2,0,L|521:91,1,154.000004699707,2|2,1:2|3:2,0:0:0:0:
453,3,67633,2,0,L|358:14,1,77.0000023498536,4|0,1:2|0:0,0:0:0:0:
281,28,67916,5,0,1:0:0:0:
281,28,68482,1,0,1:0:0:0:
281,28,69048,5,0,1:0:0:0:
281,28,69614,1,0,1:0:0:0:
281,28,70180,6,0,L|216:21,1,48.9999985046387,0|0,1:0|0:0,0:0:0:0:
150,78,70463,2,0,L|88:71,1,48.9999985046387,0|0,1:0|0:0,0:0:0:0:
44,158,70746,2,0,L|50:193,3,24.4999992523194,0|0|0|0,1:0|1:0|1:0|1:0,0:0:0:0:
87,212,71029,2,0,L|80:254,3,24.4999992523194,0|0|0|0,1:0|1:0|1:0|1:0,0:0:0:0:
76,284,71312,5,0,1:0:0:0:
76,284,72444,5,6,1:2:0:0:
20,91,72727,1,2,0:0:0:0:
104,36,72869,1,2,0:0:0:0:
104,36,73010,2,0,L|179:22,1,77.0000023498536,8|2,0:0|0:0,0:0:0:0:
280,29,73293,2,0,P|294:71|280:115,1,77.0000023498536,2|2,0:0|0:0,0:0:0:0:
219,175,73576,6,0,L|168:168,2,38.5000011749268,2|0|0,1:0|0:0|0:0,0:0:0:0:
302,231,73859,2,0,L|402:218,1,77.0000023498536,0|0,3:0|3:0,0:0:0:0:
463,273,74142,2,0,P|476:314|461:358,1,77.0000023498536,8|2,0:0|0:0,0:0:0:0:
372,377,74425,2,0,L|283:366,1,77.0000023498536,0|0,1:0|0:0,0:0:0:0:
195,376,74708,5,0,1:0:0:0:
4,314,74991,1,2,1:2:0:0:
15,214,75133,1,2,0:0:0:0:
15,214,75275,2,0,P|53:197|110:202,1,77.0000023498536,8|2,0:0|0:0,0:0:0:0:
185,217,75558,2,0,L|234:210,3,38.5000011749268,2|0|2|0,0:0|0:0|0:0|0:0,0:0:0:0:
258,176,75841,6,1,P|394:158|414:76,1,231.000007049561,2|0,1:3|0:0,0:0:0:0:
334,22,76407,2,0,L|243:12,1,77.0000023498536,8|0,0:0|3:0,0:0:0:0:
159,35,76690,2,0,L|68:48,1,77.0000023498536,0|0,1:0|3:0,0:0:0:0:
22,126,76973,5,0,1:0:0:0:
66,321,77256,2,0,P|103:306|167:321,1,77.0000023498536,0|2,0:0|0:0,0:0:0:0:
218,369,77539,1,10,0:0:0:0:
320,357,77680,1,2,0:0:0:0:
320,357,77822,2,0,L|333:268,1,77.0000023498536,2|0,0:0|3:0,0:0:0:0:
332,180,78105,6,0,P|371:197|425:189,1,77.0000023498536,2|0,1:3|0:0,0:0:0:0:
474,123,78388,2,0,L|525:114,2,38.5000011749268,2|2|2,0:0|0:0|0:0,0:0:0:0:
433,31,78671,2,0,P|393:18|340:25,1,77.0000023498536,10|2,0:0|0:0,0:0:0:0:
269,66,78954,2,0,L|177:56,1,77.0000023498536,2|2,1:2|0:0,0:0:0:0:
109,114,79237,5,2,1:0:0:0:
109,114,79378,2,0,P|96:152|110:205,1,77.0000023498536,0|2,0:0|0:0,0:0:0:0:
176,254,79661,1,0,1:0:0:0:
177,358,79803,1,10,0:0:0:0:
177,358,79944,2,0,P|94:366|8:374,1,154.000004699707,2|2,0:0|0:0,0:0:0:0:
9,273,80369,6,0,P|32:240|39:197,1,77.0000023498536,0|0,1:0|3:0,0:0:0:0:
42,104,80652,2,0,P|19:71|12:28,1,77.0000023498536,2|2,0:0|0:0,0:0:0:0:
115,35,80934,1,10,0:0:0:0:
115,35,81076,1,10,0:0:0:0:
218,25,81218,1,10,0:0:0:0:
218,25,81359,1,10,0:0:0:0:
286,98,81501,6,0,P|349:57|441:82,1,154.000004699707,4|2,1:2|0:0,0:0:0:0:
494,139,81925,1,2,0:0:0:0:
487,242,82067,1,10,0:0:0:0:
487,242,82208,2,0,L|474:333,1,77.0000023498536,2|0,0:0|0:0,0:0:0:0:
396,378,82491,1,2,1:2:0:0:
396,378,82633,6,0,P|361:366|304:367,1,77.0000023498536,2|0,1:0|0:0,0:0:0:0:
226,329,82916,2,0,L|215:236,1,77.0000023498536,2|0,3:0|3:0,0:0:0:0:
259,161,83199,2,0,L|269:65,1,77.0000023498536,10|2,0:0|0:0,0:0:0:0:
193,16,83482,1,2,0:3:0:0:
96,23,83624,1,0,1:0:0:0:
96,23,83694,1,0,1:0:0:0:
96,23,83765,6,0,P|21:48|1:129,1,154.000004699707,4|2,1:2|1:2,0:0:0:0:
11,213,84190,1,2,0:0:0:0:
11,213,84331,2,0,L|22:305,1,77.0000023498536,8|2,0:0|0:0,0:0:0:0:
115,320,84614,2,0,L|128:231,1,77.0000023498536,2|2,1:2|0:0,0:0:0:0:
134,143,84897,6,0,P|244:157|370:172,1,231.000007049561,2|2,1:0|0:0,0:0:0:0:
456,133,85463,2,0,P|444:98|441:45,1,77.0000023498536,10|2,0:0|0:0,0:0:0:0:
349,15,85746,2,0,P|309:12|264:37,1,77.0000023498536,2|0,1:2|0:0,0:0:0:0:
177,48,86029,6,0,P|91:36|22:26,1,154.000004699707,0|2,1:0|0:0,0:0:0:0:
12,126,86454,1,2,0:0:0:0:
12,126,86595,2,0,P|20:167|26:220,1,77.0000023498536,10|2,0:0|0:0,0:0:0:0:
70,291,86878,2,0,P|59:333|52:383,1,77.0000023498536,2|2,0:0|0:0,0:0:0:0:
153,372,87161,5,2,1:0:0:0:
280,217,87444,1,2,0:0:0:0:
415,371,87727,1,10,0:0:0:0:
415,371,87869,2,0,L|431:284,1,77.0000023498536,10|8,0:0|0:0,0:0:0:0:
508,233,88152,1,8,0:0:0:0:
508,233,88293,6,0,P|449:266|362:233,1,154.000004699707,4|2,1:2|0:0,0:0:0:0:
349,148,88718,1,0,1:0:0:0:
349,148,88859,2,0,L|362:65,1,77.0000023498536,2|2,1:2|3:2,0:0:0:0:
269,29,89142,2,0,P|228:15|174:29,1,77.0000023498536,10|2,3:2|3:2,0:0:0:0:
95,33,89425,6,0,L|90:-9,2,38.5000011749268,8|0|8,0:0|3:0|0:0,0:0:0:0:
27,107,89708,1,8,0:0:0:0:
90,192,89850,1,8,0:0:0:0:
90,192,89991,2,0,P|129:181|175:191,1,77.0000023498536,8|8,0:0|0:0,0:0:0:0:
251,237,90275,2,0,L|247:270,6,19.2500005874634,8|8|8|8|8|8|8,0:0|0:0|0:0|0:0|0:0|0:0|0:0,0:0:0:0:
274,227,90558,6,0,L|265:143,1,70,4|2,1:2|0:0,0:0:0:0:
346,100,90841,2,0,P|384:104|424:109,1,70,2|0,1:2|0:0,0:0:0:0:
471,188,91124,2,0,L|460:267,1,70,2|2,1:2|1:2,0:0:0:0:
450,355,91407,2,0,L|403:349,3,35,0|0|0|0,1:0|1:0|1:0|1:0,0:0:0:0:
370,330,91690,6,0,P|302:303|237:345,1,140,0|0,1:0|1:0,0:0:0:0:
158,373,92114,2,0,L|86:364,1,70,0|0,0:0|1:0,0:0:0:0:
18,294,92397,1,0,1:0:0:0:
18,294,92539,2,0,P|11:255|24:207,1,70,0|0,1:0|1:0,0:0:0:0:
60,137,92822,6,0,P|54:104|46:61,2,70,8|0|0,0:0|1:0|1:0,0:0:0:0:
150,173,93246,2,0,P|216:139|289:169,1,140,8|0,0:0|1:0,0:0:0:0:
349,221,93671,2,0,L|386:217,3,35,8|8|8|8,0:0|0:0|0:0|0:0,0:0:0:0:
429,198,93954,6,0,P|440:160|429:112,1,70,8|2,0:0|0:3,0:0:0:0:
360,67,94237,2,0,P|349:31|361:-11,2,70,0|0|0,1:0|1:0|1:0,0:0:0:0:
279,122,94661,2,0,P|277:146|271:177,2,35,8|8|0,0:0|0:0|3:0,0:0:0:0:
224,46,94944,1,0,1:0:0:0:
224,46,95086,6,0,P|182:39|137:33,1,70,12|0,0:1|1:0,0:0:0:0:
61,66,95369,2,0,P|52:102|65:146,1,70,8|0,0:0|0:0,0:0:0:0:
132,198,95652,2,0,P|146:239|131:282,1,70,8|0,0:0|0:0,0:0:0:0:
58,317,95935,2,0,L|66:367,3,35,8|0|0|0,0:0|1:0|1:0|1:0,0:0:0:0:
106,375,96218,6,0,P|141:370|175:366,1,70,8|0,0:0|1:0,0:0:0:0:
263,323,96501,2,0,P|332:334|414:347,1,140,8|8,0:0|0:0,0:0:0:0:
492,305,96925,1,8,0:0:0:0:
492,305,97067,2,0,P|499:267|491:233,1,70,0|0,1:0|1:0,0:0:0:0:
487,192,97279,1,0,1:0:0:0:
487,192,97350,5,8,0:0:0:0:
426,115,97491,2,0,L|445:34,2,70,0|0|8,1:0|1:0|0:0,0:0:0:0:
327,117,97916,2,0,L|339:204,1,70,0|0,1:0|1:0,0:0:0:0:
390,260,98199,2,0,L|443:266,4,35,8|8|8|8|0,0:0|0:0|0:0|0:0|1:0,0:0:0:0:
347,341,98624,6,0,P|305:349|265:338,1,70,2|8,0:3|0:0,0:0:0:0:
187,306,98907,2,0,P|150:295|113:302,1,70,0|0,1:0|1:0,0:0:0:0:
21,305,99190,2,0,L|7:162,1,140,0|0,0:0|1:0,0:0:0:0:
45,75,99614,5,12,0:1:0:0:
130,25,99756,1,0,1:0:0:0:
130,25,99897,2,0,P|169:24|201:42,1,70,8|0,0:0|1:0,0:0:0:0:
255,116,100180,1,8,0:0:0:0:
255,116,100322,2,0,P|246:187|237:268,1,140,0|0,1:0|1:0,0:0:0:0:
273,346,100746,6,0,P|338:374|409:352,1,140,8|8,0:0|0:0,0:0:0:0:
489,311,101171,2,0,P|480:244|471:166,1,140,0|0,1:0|1:0,0:0:0:0:
405,100,101595,2,0,P|410:60|417:6,1,70,8|0,0:0|1:0,0:0:0:0:
316,19,101878,6,0,P|280:17|239:38,1,70,8|0,0:0|1:0,0:0:0:0:
162,75,102161,2,0,L|84:66,1,70,8|0,0:0|1:0,0:0:0:0:
24,138,102444,2,0,P|15:178|26:214,1,70,8|0,0:0|1:0,0:0:0:0:
62,295,102727,1,8,0:0:0:0:
242,372,103010,5,8,0:0:0:0:
242,372,103152,2,0,P|311:366|390:358,1,140,0|0,1:0|1:0,0:0:0:0:
406,264,103576,2,0,P|367:255|324:246,1,70,8|0,0:0|1:0,0:0:0:0:
247,210,103859,2,0,P|212:217|178:225,1,70,8|0,0:0|0:0,0:0:0:0:
81,242,104142,6,0,L|74:193,3,35,4|0|0|0,1:2|1:0|1:0|1:0,0:0:0:0:
103,166,104425,2,0,L|111:117,3,35,0|0|0|0,1:0|1:0|1:0|1:0,0:0:0:0:
69,102,104708,2,0,L|61:55,3,35,0|0|0|0,1:0|1:0|1:0|0:0,0:0:0:0:
86,24,104991,2,0,P|120:9|163:18,1,70,0|0,1:0|1:0,0:0:0:0:
245,43,105275,6,0,L|290:38,3,35,0|0|0|0,1:0|1:0|1:0|1:0,0:0:0:0:
323,16,105558,2,0,L|374:23,3,35,0|0|0|0,1:0|1:0|1:0|1:0,0:0:0:0:
406,27,105841,2,0,L|416:108,1,70,0|0,1:0|1:0,0:0:0:0:
498,148,106124,2,0,L|486:234,1,70,0|0,1:0|1:0,0:0:0:0:
433,300,106407,5,8,0:3:0:0:
433,300,106548,2,0,L|440:355,2,35,4|4|4,0:3|0:3|0:3,0:0:0:0:
342,262,106831,2,0,P|304:250|262:262,1,70,0|8,1:0|0:3,0:0:0:0:
185,276,107114,1,0,1:0:0:0:
185,276,107185,1,0,1:0:0:0:
185,276,107256,2,0,L|178:330,3,35,0|0|0|0,1:0|1:0|1:0|1:0,0:0:0:0:
173,359,107539,5,4,1:2:0:0:
173,359,108671,5,6,1:0:0:0:
37,116,109237,1,8,0:0:0:0:
37,116,109378,2,0,L|76:111,3,31.4999990386963,2|0|2|2,0:3|0:0|0:0|0:0,0:0:0:0:
110,91,109661,2,0,L|153:97,3,31.4999990386963,2|0|2|2,1:2|0:0|0:0|0:0,0:0:0:0:
175,127,109944,6,0,L|251:120,1,62.9999980773926,2|2,0:0|1:2,0:0:0:0:
315,184,110227,1,2,0:0:0:0:
315,184,110369,2,0,L|307:258,1,62.9999980773926,10|2,0:0|0:0,0:0:0:0:
297,340,110652,1,2,0:3:0:0:
485,327,110935,6,0,L|477:256,1,62.9999980773926,2|2,0:1|0:1,0:0:0:0:
497,173,111218,2,0,L|502:123,3,31.4999990386963,2|0|0|0,0:1|3:0|1:0|0:0,0:0:0:0:
463,111,111501,2,0,L|452:27,1,62.9999980773926,8|0,0:0|3:0,0:0:0:0:
363,24,111784,2,0,L|354:86,1,62.9999980773926,2|2,1:2|0:0,0:0:0:0:
266,122,112067,6,0,P|209:92|141:112,1,125.999996154785,2|0,1:2|0:0,0:0:0:0:
76,160,112491,1,2,1:2:0:0:
76,160,112633,2,0,L|-1:148,1,62.9999980773926,8|2,0:0|0:0,0:0:0:0:
8,245,112916,2,0,L|86:256,1,62.9999980773926,2|0,1:3|0:0,0:0:0:0:
161,228,113199,6,0,P|114:275|115:347,1,125.999996154785,0|0,1:0|0:0,0:0:0:0:
294,372,113765,2,0,L|366:363,1,62.9999980773926,2|2,1:3|0:0,0:0:0:0:
440,319,114048,2,0,L|434:274,3,31.4999990386963,2|2|2|2,1:2|0:0|0:0|0:0,0:0:0:0:
455,244,114331,6,0,B|459:223|459:223|452:190,3,41.9999987182618,2|2|2|2,1:2|0:0|0:0|0:0,0:0:0:0:
382,150,114756,1,2,1:2:0:0:
382,150,114897,2,0,L|308:159,1,62.9999980773926,8|2,0:0|0:0,0:0:0:0:
227,133,115180,2,0,P|241:72|180:20,1,125.999996154785,2|0,1:2|1:2,0:0:0:0:
118,16,115605,5,2,0:0:0:0:
118,16,115675,1,2,0:0:0:0:
118,16,115746,2,0,L|34:26,1,62.9999980773926,2|2,0:0|1:2,0:0:0:0:
19,111,116029,2,0,L|97:120,1,62.9999980773926,8|0,0:0|3:0,0:0:0:0:
79,213,116312,2,0,L|-5:223,1,62.9999980773926,0|2,1:0|0:3,0:0:0:0:
6,314,116595,6,0,P|10:334|18:360,3,31.4999990386963,2|2|2|2,0:0|0:0|0:0|0:0,0:0:0:0:
52,370,116878,1,2,1:2:0:0:
198,250,117161,1,10,0:0:0:0:
341,373,117444,2,0,P|383:347|443:372,1,94.499997116089,0|0,1:0|1:0,0:0:0:0:
469,370,117727,6,0,L|484:232,1,125.999996154785,2|2,1:3|0:1,0:0:0:0:
459,163,118152,1,0,0:0:0:0:
459,163,118223,1,2,0:0:0:0:
459,163,118293,2,0,P|420:149|381:157,1,62.9999980773926,12|0,0:0|3:0,0:0:0:0:
317,101,118576,2,0,P|278:115|239:107,1,62.9999980773926,0|0,1:2|0:0,0:0:0:0:
164,91,118859,6,0,L|174:16,1,62.9999980773926,0|0,1:0|3:0,0:0:0:0:
82,16,119142,1,0,1:0:0:0:
82,16,119284,2,0,L|71:93,1,62.9999980773926,0|0,1:0|1:0,0:0:0:0:
31,163,119567,2,0,L|-10:158,2,31.4999990386963,0|0|0,3:0|3:0|1:0,0:0:0:0:
73,248,119850,1,0,1:0:0:0:
73,248,119991,6,0,P|105:228|147:230,1,62.9999980773926,2|0,1:3|0:0,0:0:0:0:
219,259,120275,2,0,L|228:343,1,62.9999980773926,0|0,1:0|1:0,0:0:0:0:
318,340,120558,2,0,L|314:382,2,31.4999990386963,0|0|0,1:0|0:0|3:0,0:0:0:0:
411,324,120841,2,0,L|420:246,1,62.9999980773926,0|0,1:0|3:0,0:0:0:0:
409,166,121124,6,0,P|350:177|286:135,1,125.999996154785,0|0,1:0|1:0,0:0:0:0:
225,82,121548,2,0,L|173:89,2,31.4999990386963,0|0|0,3:0|3:0|1:0,0:0:0:0:
293,16,121831,1,0,3:0:0:0:
293,16,121973,2,0,L|375:25,1,62.9999980773926,0|0,1:0|0:0,0:0:0:0:
449,8,122256,5,8,0:0:0:0:
511,85,122397,1,8,0:0:0:0:
511,85,122539,2,0,P|507:119|500:167,1,62.9999980773926,8|2,0:0|0:3,0:0:0:0:
409,166,122822,2,0,P|413:200|420:248,1,62.9999980773926,8|8,0:0|0:0,0:0:0:0:
492,285,123105,2,0,P|488:319|481:367,1,62.9999980773926,8|2,0:0|0:3,0:0:0:0:
394,377,123388,6,0,P|360:372|324:367,1,62.9999980773926,8|8,0:0|0:0,0:0:0:0:
249,320,123671,2,0,P|181:331|110:343,1,125.999996154785,8|10,0:0|0:0,0:0:0:0:
35,372,124095,1,10,0:0:0:0:
35,372,124237,2,0,P|28:332|23:293,1,62.9999980773926,8|0,0:0|1:0,0:0:0:0:
12,215,124520,6,0,P|32:209|54:209,3,31.4999990386963,8|8|8|8,0:0|0:0|0:0|0:0,0:0:0:0:
87,191,124803,2,0,P|107:198|134:199,3,31.4999990386963,8|8|8|8,0:0|0:0|0:0|0:0,0:0:0:0:
160,218,125086,2,0,P|180:212|202:212,3,31.4999990386963,8|8|8|8,0:0|0:0|0:0|0:0,0:0:0:0:
235,194,125369,2,0,P|255:201|282:202,3,31.4999990386963,8|8|8|8,0:0|0:0|0:0|0:0,0:0:0:0:
312,197,125652,5,0,1:0:0:0:
312,197,126784,5,4,0:0:0:0:
246,39,135275,6,0,L|254:127,1,62.9999980773926,8|0,0:0|1:0,0:0:0:0:
264,195,135558,1,8,0:0:0:0:
443,274,135841,5,2,1:3:0:0:
443,274,137256,5,2,1:2:0:0:
443,274,137397,1,0,0:0:0:0:
273,368,137680,1,2,1:3:0:0:
273,368,137822,1,0,0:0:0:0:
77,363,138105,5,2,1:2:0:0:
15,123,138529,1,2,0:0:0:0:
201,63,138812,2,0,L|193:-5,2,48.9999985046387,2|2|0,0:0|0:0|0:0,0:0:0:0:
272,130,139237,5,2,1:2:0:0:
272,130,139378,2,0,L|260:244,1,97.9999970092774,2|2,0:0|0:0,0:0:0:0:
236,322,139803,1,2,0:0:0:0:
318,374,139944,1,2,1:2:0:0:
318,374,140086,2,0,P|341:364|386:367,1,48.9999985046387
462,368,140369,5,2,1:2:0:0:
505,180,140652,1,2,0:0:0:0:
505,180,140793,1,2,0:0:0:0:
346,64,141076,2,0,L|340:0,2,48.9999985046387,2|2|0,0:0|0:0|0:0,0:0:0:0:
175,160,141642,5,2,0:0:0:0:
91,119,141784,1,2,1:2:0:0:
91,119,141925,2,0,P|63:118|33:129,1,48.9999985046387,2|2,0:0|0:0,0:0:0:0:
0,212,142208,2,0,L|8:270,1,48.9999985046387,2|0,1:2|0:0,0:0:0:0:
14,362,142491,1,2,0:0:0:0:
14,362,142633,6,0,P|39:368|72:359,1,48.9999985046387,2|2,1:2|0:0,0:0:0:0:
149,319,142916,2,0,L|257:336,1,97.9999970092774,2|2,0:0|0:0,0:0:0:0:
338,367,143341,2,0,L|392:359,2,48.9999985046387,2|2|2,0:0|0:0|0:0,0:0:0:0:
313,272,143765,5,2,1:2:0:0:
454,136,144048,2,0,L|446:198,1,48.9999985046387,2|2,0:0|0:0,0:0:0:0:
350,167,144331,2,0,L|346:129,2,24.4999992523194,0|0|0,1:0|3:0|1:0,0:0:0:0:
253,186,144614,2,0,L|249:165,6,12.2499996261597,0|0|0|0|0|0|0,1:0|0:0|1:0|0:0|1:0|0:0|1:0,0:0:0:0:
239,233,144897,6,0,P|169:229|113:283,1,140,6|0,1:2|0:0,0:0:0:0:
87,368,145322,1,0,1:0:0:0:
87,368,145463,2,0,P|66:231|52:150,1,210,8|0,0:0|0:0,0:0:0:0:
96,71,146029,6,0,P|170:63|221:109,1,140,0|0,1:0|0:0,0:0:0:0:
308,137,146454,2,0,P|380:126|461:114,1,140,0|0,1:0|0:0,0:0:0:0:
510,191,146879,1,0,1:0:0:0:
408,357,147161,6,0,P|338:346|269:336,1,140,0|0,1:0|0:0,0:0:0:0:
174,362,147586,1,0,1:0:0:0:
174,362,147727,2,0,P|239:294|201:185,1,210,8|0,0:0|0:0,0:0:0:0:
119,150,148293,6,0,L|95:313,1,140,0|0,1:0|0:0,0:0:0:0:
20,348,148718,2,0,L|3:199,1,140,0|0,1:0|0:0,0:0:0:0:
23,112,149143,1,0,1:0:0:0:
199,26,149426,6,0,P|273:35|353:43,1,140,8|0,0:0|3:0,0:0:0:0:
433,22,149850,1,0,1:0:0:0:
433,22,149992,2,0,P|368:68|406:202,1,210,8|0,0:0|3:0,0:0:0:0:
473,225,150558,6,0,P|462:299|450:383,1,140,8|0,0:0|3:0,0:0:0:0:
359,376,150982,1,0,1:0:0:0:
359,376,151124,1,8,0:0:0:0:
212,246,151407,1,0,1:0:0:0:
66,376,151690,6,0,P|26:319|55:241,1,140,8|8,0:0|0:0,0:0:0:0:
94,173,152114,1,0,1:0:0:0:
94,173,152256,2,0,L|84:86,1,70,8|0,0:0|0:0,0:0:0:0:
153,32,152539,2,0,P|185:20|228:29,1,70,8|0,0:0|0:0,0:0:0:0:
316,43,152822,6,0,P|353:52|395:39,2,70,8|8|8,0:0|0:0|0:0,0:0:0:0:
254,118,153246,1,8,0:0:0:0:
254,118,153388,2,0,L|262:169,3,35,8|8|8|8,0:0|0:0|0:0|0:0,0:0:0:0:
293,187,153671,2,0,L|286:242,3,35,8|8|8|8,0:0|0:0|0:0|0:0,0:0:0:0:
284,270,153954,6,0,P|348:304|423:276,1,146.999995513916,4|2,1:2|0:0,0:0:0:0:
478,207,154520,2,0,L|469:136,1,48.9999985046387,10|0,0:0|0:0,0:0:0:0:
501,120,154732,1,0,0:0:0:0:
501,120,154803,2,0,L|510:49,1,48.9999985046387,2|2,0:0|0:0,0:0:0:0:
427,23,155086,5,2,1:2:0:0:
427,23,155228,2,0,P|376:16|321:47,1,97.9999970092774,2|0,0:0|0:0,0:0:0:0:
269,106,155652,2,0,L|276:151,2,24.4999992523194,10|2|0,0:0|0:0|0:0,0:0:0:0:
173,81,155935,2,0,L|177:13,1,48.9999985046387,2|2,0:0|0:0,0:0:0:0:
78,20,156218,6,0,P|15:50|1:126,1,146.999995513916,2|2,1:2|0:0,0:0:0:0:
12,218,156784,2,0,L|83:209,1,48.9999985046387,10|0,0:0|0:0,0:0:0:0:
102,184,156996,1,0,0:0:0:0:
102,184,157067,2,0,L|168:191,1,48.9999985046387,2|2,0:0|0:0,0:0:0:0:
251,212,157350,5,2,1:2:0:0:
251,212,157492,2,0,P|278:254|267:316,1,97.9999970092774,2|2,0:0|0:0,0:0:0:0:
209,372,157916,1,10,0:0:0:0:
114,373,158058,1,2,0:0:0:0:
114,373,158199,2,0,L|53:366,1,48.9999985046387,2|2,0:0|0:0,0:0:0:0:
2,274,158482,6,0,P|34:232|50:165,1,112,0|0,1:0|1:0,0:0:0:0:
168,27,159048,2,0,L|238:35,1,56,8|0,0:0|0:0,0:0:0:0:
262,70,159260,1,0,0:0:0:0:
262,70,159331,2,0,L|317:62,1,56,0|0,1:0|0:0,0:0:0:0:
407,94,159614,6,0,P|416:124|408:160,1,56,0|0,1:0|0:0,0:0:0:0:
340,210,159897,2,0,P|331:240|339:276,1,56,0|0,1:0|0:0,0:0:0:0:
362,355,160180,2,0,L|433:349,1,56,8|0,0:0|0:0,0:0:0:0:
467,337,160393,1,0,0:0:0:0:
467,337,160463,2,0,P|475:306|467:269,1,56,0|0,1:0|0:0,0:0:0:0:
467,176,160746,5,0,1:0:0:0:
467,176,160888,2,0,L|484:112,2,56,0|0|0,1:0|1:0|1:0,0:0:0:0:
367,165,161312,2,0,L|361:123,3,28,0|0|8|8,1:0|1:0|0:0|0:0,0:0:0:0:
324,100,161595,2,0,L|329:57,3,28,0|0|0|0,1:0|1:0|1:0|1:0,0:0:0:0:
300,22,161879,5,2,0:0:0:0:
68,97,162444,1,8,0:0:0:0:
68,97,162586,1,8,0:0:0:0:
15,189,162727,1,8,0:0:0:0:
15,189,162869,1,8,0:0:0:0:
87,265,163010,6,0,P|177:249|286:229,1,167.999994873047,6|0,1:0|1:0,0:0:0:0:
327,302,163435,2,0,P|275:231|320:165,1,167.999994873047,0|0,0:0|3:0,0:0:0:0:
411,144,163859,1,0,1:0:0:0:
411,144,164001,1,0,3:0:0:0:
495,197,164142,6,0,P|507:159|511:100,1,83.9999974365235,0|0,1:0|3:0,0:0:0:0:
466,24,164425,1,0,1:0:0:0:
466,24,164567,2,0,P|380:36|291:47,1,167.999994873047,2|0,3:0|3:0,0:0:0:0:
211,95,164991,2,0,P|167:88|113:79,1,83.9999974365235,0|0,1:0|0:0,0:0:0:0:
34,40,165275,6,0,P|91:102|51:179,1,167.999994873047,0|0,1:0|1:0,0:0:0:0:
3,252,165699,2,0,P|87:269|190:289,1,167.999994873047,0|0,3:0|3:0,0:0:0:0:
252,349,166124,1,0,1:0:0:0:
252,349,166265,1,0,3:0:0:0:
350,325,166407,6,0,P|395:253|356:179,1,167.999994873047,0|0,1:0|1:0,0:0:0:0:
273,137,166831,2,0,L|176:127,1,83.9999974365235,0|0,3:0|1:0,0:0:0:0:
112,62,167114,2,0,L|52:68,2,41.9999987182618,0|0|0,1:0|1:0|1:0,0:0:0:0:
197,8,167397,1,0,1:0:0:0:
297,21,167539,6,0,L|400:11,1,83.9999974365235,0|0,1:0|3:0,0:0:0:0:
484,30,167822,1,0,1:0:0:0:
484,30,167963,2,0,P|514:101|457:193,1,167.999994873047,0|0,3:0|3:0,0:0:0:0:
403,247,168388,1,0,1:0:0:0:
403,247,168529,1,0,1:0:0:0:
319,304,168671,6,0,P|233:293|148:282,1,167.999994873047,0|0,1:0|1:0,0:0:0:0:
53,301,169095,2,0,P|44:260|60:214,1,83.9999974365235,0|0,0:0|1:0,0:0:0:0:
106,133,169378,2,0,L|96:83,2,41.9999987182618,0|0|0,1:0|1:0|1:0,0:0:0:0:
201,166,169661,1,0,0:0:0:0:
294,128,169803,6,0,P|304:38|379:26,1,167.999994873047,4|0,1:2|1:0,0:0:0:0:
467,37,170227,2,0,P|453:122|437:220,1,167.999994873047,0|0,0:0|3:0,0:0:0:0:
476,302,170652,1,0,1:0:0:0:
476,302,170793,1,0,3:0:0:0:
399,368,170935,6,0,P|338:318|235:344,1,167.999994873047,0|0,1:0|1:0,0:0:0:0:
164,370,171359,1,2,0:0:0:0:
164,370,171501,2,0,L|98:360,3,41.9999987182618,8|8|8|8,0:0|0:0|0:0|0:0,0:0:0:0:
85,328,171784,2,0,L|26:337,3,41.9999987182618,8|0|0|0,0:0|1:0|1:0|1:0,0:0:0:0:
3,303,172067,6,0,P|-4:212|71:163,1,167.999994873047,4|0,1:0|1:0,0:0:0:0:
144,134,172491,2,0,P|229:147|315:161,1,167.999994873047,0|0,3:0|3:0,0:0:0:0:
409,196,172915,1,0,1:0:0:0:
409,196,173057,1,0,3:0:0:0:
480,125,173198,6,0,P|489:83|470:46,1,83.9999974365235,0|0,1:0|3:0,0:0:0:0:
375,14,173481,1,0,1:0:0:0:
375,14,173623,2,0,P|289:26|200:37,1,167.999994873047,0|0,3:0|3:0,0:0:0:0:
109,55,174047,2,0,P|65:48|11:39,1,83.9999974365235,0|2,1:0|3:0,0:0:0:0:
0,142,174331,6,0,P|7:231|98:256,1,167.999994873047,0|0,1:0|1:0,0:0:0:0:
140,188,174755,2,0,P|122:268|97:370,1,167.999994873047,0|0,3:0|3:0,0:0:0:0:
203,382,175180,1,0,1:0:0:0:
203,382,175321,1,0,3:0:0:0:
302,366,175463,6,0,P|369:326|458:387,1,167.999994873047,0|0,1:0|1:0,0:0:0:0:
503,279,175887,2,0,P|488:237|481:178,1,83.9999974365235,0|0,3:0|1:0,0:0:0:0:
459,99,176170,2,0,P|469:77|473:43,2,41.9999987182618,0|0|0,3:0|3:0|1:2,0:0:0:0:
371,47,176453,1,0,0:0:0:0:
371,47,176595,6,0,P|329:35|283:45,1,83.9999974365235,8|2,0:0|3:0,0:0:0:0:
200,85,176878,1,0,1:2:0:0:
200,85,177019,2,0,P|210:164|224:254,1,167.999994873047,0|0,1:0|1:0,0:0:0:0:
220,356,177444,1,0,1:0:0:0:
220,356,177585,1,0,3:0:0:0:
119,369,177727,6,0,P|35:368|-3:284,1,167.999994873047,0|0,1:0|1:0,0:0:0:0:
2,201,178151,2,0,P|46:193|97:185,1,83.9999974365235,0|0,3:0|1:0,0:0:0:0:
164,121,178435,1,0,1:0:0:0:
164,121,178506,1,0,1:0:0:0:
164,121,178576,2,0,P|207:130|261:139,1,83.9999974365235,4|0,1:2|0:0,0:0:0:0:
289,228,178859,6,0,P|290:139|370:110,1,167.999994873047,0|0,1:0|1:0,0:0:0:0:
453,99,179283,2,0,L|444:8,2,83.9999974365235,0|0|0,1:0|1:0|1:0,0:0:0:0:
497,195,179708,1,0,1:0:0:0:
497,195,179849,1,0,1:0:0:0:
468,292,179991,6,0,P|442:286|411:293,3,41.9999987182618,0|0|0|0,1:0|1:0|1:0|1:0,0:0:0:0:
383,314,180275,2,0,P|362:319|341:318,3,41.9999987182618,0|0|0|0,1:0|1:0|1:0|1:0,0:0:0:0:
297,293,180558,2,0,P|271:287|240:294,3,41.9999987182618,0|0|0|0,1:0|1:0|1:0|1:0,0:0:0:0:
209,308,180841,1,2,0:0:0:0:
15,365,181124,6,0,P|2:325|5:260,1,83.9999974365235,2|0,1:0|0:0,0:0:0:0:
60,202,181407,2,0,P|73:162|70:97,1,83.9999974365235,2|0,1:2|3:0,0:0:0:0:
14,46,181690,1,0,1:0:0:0:
14,46,181831,2,0,P|51:28|115:35,1,83.9999974365235,0|2,3:0|1:2,0:0:0:0:
186,66,182114,1,0,3:0:0:0:
286,100,182256,5,0,1:0:0:0:
286,100,182397,2,0,L|305:7,2,83.9999974365235,0|2|0,3:0|1:2|3:0,0:0:0:0:
245,192,182822,2,0,L|257:291,1,83.9999974365235,0|0,1:0|3:0,0:0:0:0:
226,372,183105,1,2,1:2:0:0:
334,375,183246,1,0,1:0:0:0:
334,375,183317,1,0,1:0:0:0:
334,375,183388,6,0,P|380:369|441:360,1,83.9999974365235,4|0,1:2|3:0,0:0:0:0:
466,275,183671,2,0,L|517:283,2,41.9999987182618,2|0|0,1:2|0:0|3:0,0:0:0:0:
409,190,183954,1,0,1:0:0:0:
409,190,184095,2,0,P|429:151|435:108,1,83.9999974365235,0|2,3:0|1:2,0:0:0:0:
371,32,184378,1,0,0:0:0:0:
371,32,184520,6,0,P|326:27|279:22,1,83.9999974365235,2|0,3:0|3:0,0:0:0:0:
187,38,184803,2,0,P|180:16|176:-9,2,41.9999987182618,2|0|0,1:2|3:0|1:0,0:0:0:0:
109,103,185086,2,0,P|94:144|86:196,1,83.9999974365235,0|0,1:0|1:0,0:0:0:0:
80,284,185369,1,2,1:2:0:0:
138,372,185510,1,0,1:0:0:0:
138,372,185652,6,0,P|181:368|231:362,1,83.9999974365235,4|0,1:2|3:0,0:0:0:0:
317,330,185935,2,0,P|338:332|368:336,2,41.9999987182618,2|0|0,1:2|3:0|3:0,0:0:0:0:
261,245,186218,2,0,P|246:204|245:160,1,83.9999974365235,0|0,1:2|3:0,0:0:0:0:
314,91,186501,2,0,P|329:50|330:6,1,83.9999974365235,2|0,1:2|3:0,0:0:0:0:
429,29,186784,6,0,P|474:32|513:65,1,83.9999974365235,0|0,1:0|3:0,0:0:0:0:
505,154,187067,2,0,L|512:200,2,41.9999987182618,2|0|0,1:2|3:0|3:0,0:0:0:0:
404,141,187350,2,0,L|395:231,1,83.9999974365235,0|0,1:0|3:0,0:0:0:0:
418,323,187633,1,2,1:2:0:0:
329,366,187774,1,0,3:0:0:0:
329,366,187916,6,0,P|270:344|201:370,2,125.999996154785,4|0|0,1:2|1:0|1:0,0:0:0:0:
418,323,188482,1,0,1:0:0:0:
362,251,188624,1,0,1:0:0:0:
362,251,188694,1,0,1:0:0:0:
362,251,188765,2,0,P|369:208|376:153,1,83.9999974365235,0|0,1:0|1:0,0:0:0:0:
320,82,189048,6,0,P|266:54|194:67,2,125.999996154785,0|0|0,1:0|1:0|1:0,0:0:0:0:
248,154,189614,2,0,L|254:208,3,41.9999987182618,0|0|0|0,1:0|1:0|1:0|1:0,0:0:0:0:
231,241,189897,1,2,1:3:0:0:
32,277,190180,6,0,L|25:228,3,41.9999987182618,0|0|0|0,1:0|1:0|1:0|1:0,0:0:0:0:
16,185,190463,1,0,1:0:0:0:
12,88,190605,1,0,1:0:0:0:
12,88,190746,2,0,P|52:72|107:80,1,83.9999974365235,0|0,1:0|1:0,0:0:0:0:
187,107,191029,2,0,L|193:157,3,41.9999987182618,0|0|0|0,1:0|1:0|1:0|1:0,0:0:0:0:
235,174,191312,6,0,L|228:218,3,41.9999987182618,0|0|0|0,1:0|1:0|1:0|1:0,0:0:0:0:
226,266,191595,2,0,P|264:289|335:276,1,83.9999974365235,0|0,1:0|1:0,0:0:0:0:
402,273,191878,1,0,1:0:0:0:
487,217,192020,1,0,1:0:0:0:
487,217,192161,2,0,L|477:121,1,83.9999974365235,0|0,1:0|1:0,0:0:0:0:
463,33,192444,6,0,P|420:21|373:37,1,83.9999974365235,0|0,1:0|1:0,0:0:0:0:
284,53,192727,2,0,L|241:45,3,41.9999987182618,0|0|0|0,1:0|1:0|1:0|1:0,0:0:0:0:
201,16,193010,2,0,L|147:25,3,41.9999987182618,0|0|0|0,1:0|1:0|1:0|1:0,0:0:0:0:
109,16,193293,1,0,1:0:0:0:
36,86,193435,1,0,1:0:0:0:
36,86,193576,6,0,L|42:137,3,41.9999987182618,0|0|0|0,1:0|1:0|1:0|1:0,0:0:0:0:
78,161,193859,2,0,L|66:258,1,83.9999974365235,0|0,1:0|1:0,0:0:0:0:
63,345,194142,2,0,L|120:354,3,41.9999987182618,0|0|0|0,1:0|1:0|1:0|1:0,0:0:0:0:
154,360,194425,1,2,1:0:0:0:
355,369,194708,6,0,P|413:300|371:226,1,167.999994873047,4|0,1:2|1:0,0:0:0:0:
313,174,195133,1,2,0:0:0:0:
313,174,195275,2,0,L|226:161,1,83.9999974365235,8|0,0:0|1:0,0:0:0:0:
137,202,195558,2,0,L|37:186,1,83.9999974365235,0|0,1:0|1:0,0:0:0:0:
3,101,195841,6,0,P|1:58|28:13,1,83.9999974365235,4|0,1:2|3:0,0:0:0:0:
118,2,196124,1,0,1:0:0:0:
213,32,196265,1,8,0:0:0:0:
213,32,196407,2,0,L|311:21,1,83.9999974365235,8|0,0:0|3:0,0:0:0:0:
376,84,196690,2,0,L|475:71,1,83.9999974365235,0|2,1:0|0:3,0:0:0:0:
499,165,196973,5,6,1:2:0:0:
309,371,197397,1,2,0:0:0:0:
309,371,197539,1,2,1:2:0:0:
130,164,197963,1,2,0:0:0:0:
46,218,198105,5,2,1:2:0:0:
46,218,198246,2,0,P|29:179|41:126,2,83.9999974365235,2|2|2,1:2|1:2|1:2,0:0:0:0:
122,284,198671,2,0,L|130:342,3,41.9999987182618,2|0|0|0,1:2|1:0|0:0|0:0,0:0:0:0:
138,374,198954,1,0,0:0:0:0:
333,375,199237,6,0,P|341:300|350:223,1,140,6|2,1:2|0:0,0:0:0:0:
201,106,199803,2,0,P|196:70|189:14,1,70,2|2,1:2|0:0,0:0:0:0:
291,18,200086,1,2,0:0:0:0:
291,18,200227,2,0,P|328:15|364:32,1,70,2|2,0:0|1:2,0:0:0:0:
492,178,200652,5,2,1:2:0:0:
492,178,200793,2,0,L|481:263,1,70,0|2,0:0|0:3,0:0:0:0:
511,341,201076,1,2,0:3:0:0:
238,353,201501,6,0,P|187:340|141:355,1,93.3333333333333,6|0,1:2|1:0,0:0:0:0:
97,374,201784,2,0,L|83:276,1,93.3333333333333,2|0,1:2|0:0,0:0:0:0:
73,226,202067,1,10,0:0:0:0:
46,122,202256,1,0,1:0:0:0:
46,122,202350,2,0,P|87:99|139:105,1,93.3333333333333,2|0,1:2|0:0,0:0:0:0:
183,124,202633,6,0,L|283:113,1,93.3333333333333,2|2,0:0|0:2,0:0:0:0:
317,76,202916,1,10,0:2:0:0:
474,133,203199,2,0,P|491:181|471:233,1,93.3333333333333,2|0,1:3|0:0,0:0:0:0:
450,268,203482,2,0,L|348:257,1,93.3333333333333,2|2,0:0|0:0,0:0:0:0:
308,285,203765,5,2,1:0:0:0:
136,379,204048,1,10,0:0:0:0:
6,231,204331,2,0,L|90:220,1,70,2|2,1:2|1:2,0:0:0:0:
154,163,204614,2,0,L|243:175,1,70,10|0,0:0|0:0,0:0:0:0:
293,104,204897,5,6,1:2:0:0:
293,104,205039,2,0,L|345:98,2,35,0|2|10,0:0|0:0|0:0,0:0:0:0:
244,18,205322,2,0,L|161:28,1,70,2|2,1:2|0:0,0:0:0:0:
84,35,205605,1,2,0:0:0:0:
84,35,205675,1,0,0:0:0:0:
84,35,205746,2,0,P|71:71|84:115,1,70,10|2,0:0|0:0,0:0:0:0:
154,163,206029,5,2,1:3:0:0:
349,174,206312,1,2,0:0:0:0:
333,369,206595,1,0,1:0:0:0:
137,361,206878,1,2,1:3:0:0:
154,163,207161,6,0,P|102:144|47:163,2,105,12|8|8,0:0|0:0|0:0,0:0:0:0:
227,228,207727,2,0,L|270:224,3,35,8|8|8|8,0:0|0:0|0:0|0:0,0:0:0:0:
305,201,208010,2,0,L|354:206,3,35,8|8|8|8,0:0|0:0|0:0|0:0,0:0:0:0:
383,229,208293,6,0,P|353:158|410:92,1,154.000004699707,6|2,1:2|0:0,0:0:0:0:
488,71,208718,2,0,P|336:49|171:25,1,308.000009399414,2|2,1:2|0:0,0:0:0:0:
83,22,209425,6,0,P|17:53|13:145,1,154.000004699707,2|2,1:2|0:0,0:0:0:0:
33,223,209850,2,0,P|113:212|198:199,1,154.000004699707,2|2,1:2|0:0,0:0:0:0:
274,155,210275,1,10,0:0:0:0:
469,192,210557,6,0,P|509:268|460:331,1,154.000004699707,2|2,1:2|0:0,0:0:0:0:
392,373,210982,2,0,P|238:360|77:344,1,308.000009399414,2|2,1:2|0:0,0:0:0:0:
59,248,211689,6,0,P|135:241|222:233,1,154.000004699707,2|2,1:2|0:0,0:0:0:0:
308,203,212114,2,0,P|280:120|326:70,1,154.000004699707,2|2,1:2|0:0,0:0:0:0:
413,44,212539,1,2,1:2:0:0:
212,36,212822,6,0,P|136:28|56:19,1,154.000004699707,6|2,1:2|0:0,0:0:0:0:
9,107,213246,1,2,1:2:0:0:
9,107,213388,2,0,P|-2:207|112:270,1,231.000007049561,10|2,0:0|0:0,0:0:0:0:
183,219,213954,6,0,P|259:211|340:203,1,154.000004699707,2|2,1:2|0:0,0:0:0:0:
402,285,214378,1,2,1:2:0:0:
402,285,214520,2,0,L|390:382,1,77.0000023498536,8|2,0:0|0:0,0:0:0:0:
293,375,214803,2,0,L|283:289,1,77.0000023498536,2|0,1:2|0:0,0:0:0:0:
272,198,215086,6,0,P|324:136|408:140,1,154.000004699707,2|2,1:2|0:0,0:0:0:0:
494,120,215510,1,2,1:2:0:0:
494,120,215652,2,0,P|387:90|258:54,1,231.000007049561,8|2,0:0|0:0,0:0:0:0:
179,17,216218,6,0,P|98:33|13:52,1,154.000004699707,2|2,1:2|0:0,0:0:0:0:
16,150,216642,1,2,1:2:0:0:
16,150,216784,2,0,P|24:197|38:240,1,77.0000023498536,10|0,0:0|0:0,0:0:0:0:
113,284,217067,2,0,P|105:331|91:374,1,77.0000023498536,2|0,1:2|0:0,0:0:0:0:
207,375,217350,6,0,P|270:325|361:348,1,168,6|2,1:2|0:0,0:0:0:0:
441,371,217916,2,0,L|449:306,1,56,8|2,0:0|0:0,0:0:0:0:
486,286,218128,1,2,0:0:0:0:
486,286,218199,2,0,L|476:218,1,56,2|0,0:0|0:0,0:0:0:0:
464,140,218482,5,0,1:0:0:0:
464,140,218624,2,0,P|411:124|357:152,1,112,2|2,0:0|0:0,0:0:0:0:
292,211,219048,2,0,L|298:250,2,28,8|0|2,0:0|0:0|0:0,0:0:0:0:
222,145,219331,2,0,L|231:72,1,56,2|2,0:0|0:0,0:0:0:0:
152,31,219614,6,0,P|67:16|17:85,1,168,0|2,1:0|0:0,0:0:0:0:
19,167,220180,2,0,L|79:161,1,56,8|2,0:0|0:0,0:0:0:0:
118,138,220392,1,2,0:0:0:0:
118,138,220463,2,0,L|184:131,1,56,2|0,0:0|0:0,0:0:0:0:
244,204,220746,5,2,1:2:0:0:
244,204,220888,2,0,P|252:265|263:338,1,112,2|2,0:0|0:0,0:0:0:0:
345,353,221312,1,8,0:0:0:0:
443,329,221454,1,2,0:0:0:0:
443,329,221525,1,2,0:0:0:0:
443,329,221595,2,0,L|453:257,1,56,2|2,0:0|0:0,0:0:0:0:
457,178,221878,6,0,P|399:185|349:151,1,112,8|0,0:0|1:0,0:0:0:0:
215,28,222444,2,0,L|206:99,1,56,8|0,0:0|0:0,0:0:0:0:
172,115,222657,1,2,0:0:0:0:
172,115,222727,2,0,L|180:182,1,56,0|0,1:0|0:0,0:0:0:0:
247,241,223010,6,0,L|238:318,1,70,8|0,0:0|0:0,0:0:0:0:
153,359,223293,2,0,L|69:350,1,70,0|0,1:0|0:0,0:0:0:0:
26,271,223576,2,0,P|16:236|13:187,1,70,8|0,0:0|0:0,0:0:0:0:
52,172,223789,1,2,0:0:0:0:
52,172,223859,2,0,P|62:137|65:88,1,70,0|0,1:0|0:0,0:0:0:0:
124,26,224142,5,8,0:0:0:0:
124,26,224284,2,0,P|87:11|45:12,2,70,8|8|8,0:0|0:0|0:0,0:0:0:0:
216,56,224708,2,0,L|265:51,3,35,0|0|0|0,1:0|1:0|1:0|1:0,0:0:0:0:
295,31,224992,2,0,L|369:40,1,70,0|0,1:0|1:0,0:0:0:0:
459,14,225275,5,0,0:0:0:0:
284,308,225841,1,8,0:0:0:0:
284,308,225982,1,8,0:0:0:0:
238,226,226124,1,10,0:0:0:0:
238,226,226265,1,8,0:0:0:0:
295,146,226407,5,2,0:3:0:0:
