osu file format v14

[General]
AudioFilename: audio.mp3
AudioLeadIn: 0
PreviewTime: 12993
Countdown: 0
SampleSet: Soft
StackLeniency: 0.6
Mode: 0
LetterboxInBreaks: 0
WidescreenStoryboard: 1

[Editor]
Bookmarks: 4620,13676,22733,31790,34054,40846,49903,58959,64337,68016,72544,90658,108771,126884,135941,144997,154054,163110,181224,190280,199337,201601,203865,206129,208393,217450,226507
DistanceSpacing: 0.63
BeatDivisor: 4
GridSize: 4
TimelineZoom: 2.999999

[Metadata]
Title:1000000% CAFFEINE
TitleUnicode:1000000% CAFFEINE
Artist:Catsprite overdoses on Coffee
ArtistUnicode:Catsprite overdoses on Coffee
Creator:Ryuusei Aika
Version:LeCandy's Insane
Source:Coffee Hispanic: Mocha
Tags:Shunao ShogunMoon LeCandy Down るーく rook osu! tournament tourney ro16 fm1 Tycani Fuiba Fuyu beasttrollmc electronic btmc instrumental edward
BeatmapID:3386757
BeatmapSetID:1571087

[Difficulty]
HPDrainRate:4.8
CircleSize:3.8
OverallDifficulty:8
ApproachRate:9
SliderMultiplier:1.52
SliderTickRate:1

[Events]
//Background and Video events
0,0,"90133021_p0.jpg",0,0
//Break Periods
2,126984,134321
//Storyboard Layer 0 (Background)
//Storyboard Layer 1 (Fail)
//Storyboard Layer 2 (Pass)
//Storyboard Layer 3 (Foreground)
//Storyboard Layer 4 (Overlay)
//Storyboard Sound Samples

[TimingPoints]
-8,283.018867924528,4,2,1,80,1,0
4520,-125,4,2,1,80,0,0
13576,-100,4,2,1,80,0,0
14001,-133.333333333333,4,2,1,80,0,0
14284,-100,4,2,1,80,0,0
15558,-142.857142857143,4,2,1,80,0,0
15841,-100,4,2,1,80,0,0
16265,-133.333333333333,4,2,1,80,0,0
16548,-100,4,2,1,80,0,0
16973,-83.3333333333333,4,2,1,80,0,0
17397,-90.9090909090909,4,2,1,80,0,0
17822,-100,4,2,1,80,0,0
18105,-100,4,2,1,80,0,0
22633,-100,4,2,1,70,0,0
27161,-125,4,2,1,70,0,0
28293,-100,4,2,1,70,0,0
31690,-90.9090909090909,4,2,1,80,0,0
33671,-125,4,2,1,80,0,0
33954,-90.9090909090909,4,2,1,80,0,0
44708,-83.3333333333333,4,2,1,80,0,0
44991,-90.9090909090909,4,2,1,80,0,0
45558,-66.6666666666667,4,2,1,80,0,0
45841,-100,4,2,1,80,0,0
46407,-90.9090909090909,4,2,1,80,0,0
49803,-100,4,2,1,60,0,0
52067,-83.3333333333333,4,2,1,60,0,0
52350,-153.846153846153,4,2,1,60,0,0
52916,-100,4,2,1,60,0,0
57727,-100,4,2,1,80,0,0
58859,-90.9090909090909,4,2,1,80,0,0
67916,-142.857142857143,4,2,1,60,0,0
71029,-142.857142857143,4,2,1,70,0,0
72444,-90.9090909090909,4,2,1,85,0,0
87161,-166.666666666667,4,2,1,85,0,0
87727,-90.9090909090909,4,2,1,85,0,0
90558,-100,4,2,1,70,0,0
108671,-100,4,2,1,80,0,0
126784,-100,4,2,1,55,0,0
134921,-133.333333333333,4,2,1,55,0,0
135841,-166.666666666666,4,2,1,65,0,0
139237,-166.666666666666,4,2,1,70,0,0
144897,-100,4,2,1,80,0,0
145322,-133.333333333333,4,2,1,80,0,0
145605,-100,4,2,1,80,0,0
146879,-142.857142857143,4,2,1,80,0,0
147162,-100,4,2,1,80,0,0
147869,-100,4,2,1,80,0,0
148294,-76.9230769230769,4,2,1,80,0,0
148859,-58.8235294117647,4,2,1,80,0,0
149143,-100,4,2,1,80,0,0
149426,-100,4,2,1,80,0,0
153954,-100,4,2,1,70,0,0
158482,-125,4,2,1,70,0,0
159614,-100,4,2,1,70,0,0
162444,-100,4,2,1,80,0,0
163010,-90.9090909090909,4,2,1,85,0,0
198812,-333.333333333333,4,2,1,85,0,0
199237,-90.9090909090909,4,2,1,80,0,0
208293,-100,4,2,1,80,0,0
208718,-133.333333333333,4,2,1,80,0,0
209001,-100,4,2,1,80,0,0
210275,-142.857142857143,4,2,1,80,0,0
210558,-100,4,2,1,80,0,0
210982,-133.333333333333,4,2,1,80,0,0
211265,-100,4,2,1,80,0,0
211690,-83.3333333333333,4,2,1,80,0,0
212114,-90.9090909090909,4,2,1,80,0,0
212539,-100,4,2,1,80,0,0
212822,-100,4,2,1,80,0,0
217350,-100,4,2,1,70,0,0
221878,-125,4,2,1,70,0,0
223010,-100,4,2,1,70,0,0
225841,-100,4,2,1,80,0,0
226407,-100,4,2,1,60,0,0

[Colours]
Combo1 : 191,143,0
Combo2 : 0,191,0
Combo3 : 0,86,191
Combo4 : 181,11,36

[HitObjects]
493,42,2256,6,0,B|427:20|378:145|436:50|386:174|310:151,1,228,2|0,1:0|0:0,0:0:0:0:
51,266,3388,6,0,P|47:228|34:277,2,152,2|0|8,1:0|3:0|0:0,0:0:0:0:
141,67,4520,6,0,P|147:37|156:7,1,60.8,12|0,0:0|0:0,0:0:0:0:
214,129,4803,2,0,P|220:99|229:69,1,60.8,8|0,0:0|3:0,0:0:0:0:
42,138,5086,2,0,P|48:108|57:78,1,60.8,8|0,0:0|0:0,0:0:0:0:
141,67,5369,1,8,0:0:0:0:
141,67,5510,1,8,0:0:0:0:
137,195,5652,6,0,P|181:204|220:275,1,121.6,8|8,0:0|0:0,0:0:0:0:
444,64,6218,1,8,0:0:0:0:
444,64,6501,5,8,0:0:0:0:
394,134,6642,1,8,0:0:0:0:
301,37,6784,6,0,P|306:66|312:96,1,60.8,8|0,0:0|3:0,0:0:0:0:
332,187,7067,2,0,P|337:216|343:246,1,60.8,8|0,0:0|3:0,0:0:0:0:
481,143,7350,2,0,P|475:172|469:202,1,60.8,8|0,0:0|0:0,0:0:0:0:
430,282,7633,1,8,0:0:0:0:
430,282,7775,1,8,0:0:0:0:
512,365,7916,6,0,P|498:357|486:349,2,30.4,8|0|0,0:0|0:0|3:0,0:0:0:0:
430,282,8199,2,0,P|401:294|386:340,1,60.8,8|0,0:0|3:0,0:0:0:0:
321,369,8411,1,0,3:0:0:0:
321,369,8482,2,0,P|292:357|277:311,1,60.8,8|0,0:0|3:0,0:0:0:0:
248,252,8765,1,8,0:0:0:0:
248,252,8907,1,8,0:0:0:0:
148,371,9048,6,0,B|131:310|170:318|149:248,2,121.6,8|8|8,1:2|0:0|0:0,0:0:0:0:
8,241,9897,1,8,0:0:0:0:
8,241,10039,1,8,0:0:0:0:
55,169,10180,6,0,P|51:139|42:110,1,60.8,8|0,0:0|3:0,0:0:0:0:
185,77,10463,2,0,P|160:94|139:117,1,60.8,8|0,0:0|0:0,0:0:0:0:
40,14,10746,2,0,P|67:26|97:33,1,60.8,8|0,0:0|0:0,0:0:0:0:
139,116,11029,1,8,0:0:0:0:
139,116,11171,1,8,0:0:0:0:
279,38,11312,5,8,0:0:0:0:
279,38,11454,2,0,P|311:60|320:95,1,60.8,0|8,3:0|0:0,0:0:0:0:
409,93,11737,2,0,P|396:129|364:147,1,60.8,0|8,0:0|0:0,0:0:0:0:
298,179,12020,2,0,P|269:170|240:178,1,60.8,0|8,3:0|0:0,0:0:0:0:
250,315,12303,1,8,0:0:0:0:
250,315,12444,2,0,P|253:276|278:250,1,60.8,2|0,1:2|0:0,0:0:0:0:
432,384,12727,2,0,P|429:345|404:319,1,60.8,2|0,1:2|0:0,0:0:0:0:
353,273,13010,6,0,P|351:257|349:242,3,30.4,8|0|8|0,0:0|0:0|0:0|0:0,0:0:0:0:
435,247,13293,1,8,0:0:0:0:
435,247,13435,1,8,0:0:0:0:
512,131,13576,6,0,B|503:51|450:86|443:-13,1,152,6|2,1:2|0:0,0:0:0:0:
291,65,14001,2,0,B|252:41|252:41|289:54,1,85.5000032615663,2|0,1:2|0:0,0:0:0:0:
362,31,14284,2,0,B|355:92|314:65|309:140,1,114,2|0,0:0|0:0,0:0:0:0:
310,128,14567,1,0,0:0:0:0:
135,197,14708,6,0,B|68:159|68:159|3:241,1,152,2|2,1:2|0:0,0:0:0:0:
172,84,15133,2,0,B|179:145|220:118|225:193,1,114,2|0,1:2|0:0,0:0:0:0:
223,181,15416,1,2,0:0:0:0:
124,303,15558,2,0,B|75:292|75:292|119:313,1,79.7999975646973,2|0,1:2|0:0,0:0:0:0:
139,315,15841,6,0,B|225:300|191:365|293:352,1,152,2|2,1:2|0:0,0:0:0:0:
407,370,16265,2,0,B|448:354|448:354|413:382,1,85.5000032615663,2|0,1:2|0:0,0:0:0:0:
395,382,16548,2,0,B|377:313|424:336|399:238,1,114,2|0,0:0|0:0,0:0:0:0:
405,270,16831,1,0,0:0:0:0:
512,158,16973,6,0,P|442:114|439:182,1,182.399994433594,2|2,1:2|0:0,0:0:0:0:
207,29,17397,6,0,P|220:96|272:51,1,167.200005102539,2|2,1:2|0:0,0:0:0:0:
366,50,17822,6,0,P|375:25|367:50,1,76,2|0,1:2|0:0,0:0:0:0:
254,196,18105,6,0,B|174:201|195:244|112:250,1,152,2|2,1:2|0:0,0:0:0:0:
115,249,18529,1,2,1:2:0:0:
60,85,18671,1,10,0:2:0:0:
1,137,18812,2,0,B|31:208|31:208|97:153,1,152
359,258,19237,6,0,B|439:267|413:313|499:320,1,152,2|2,1:2|0:0,0:0:0:0:
494,319,19661,1,2,1:2:0:0:
425,182,19803,1,8,0:0:0:0:
497,132,19944,2,0,B|522:155|522:155|500:204,1,76,0|2,0:0|1:2,0:0:0:0:
425,182,20227,1,0,0:0:0:0:
333,82,20369,6,0,B|250:86|285:144|193:144,1,152,2|2,1:2|0:0,0:0:0:0:
200,143,20793,1,2,1:2:0:0:
60,218,20935,1,10,0:0:0:0:
114,157,21076,2,0,B|109:114|140:79|140:79|98:84|104:131,1,152
109,321,21501,6,0,P|135:266|235:270,1,152,2|2,1:2|0:0,0:0:0:0:
218,257,21925,1,2,1:2:0:0:
386,294,22067,1,10,0:0:0:0:
310,242,22208,2,0,P|301:279|295:316,1,76,0|2,0:0|1:2,0:0:0:0:
386,294,22491,1,0,0:0:0:0:
233,384,22633,5,4,1:0:0:0:
233,384,23199,1,8,0:0:0:0:
110,314,23765,5,0,1:0:0:0:
110,314,24331,1,8,0:0:0:0:
367,205,24897,5,0,1:0:0:0:
367,205,25463,1,8,0:0:0:0:
470,179,26029,5,0,1:0:0:0:
470,179,26595,1,8,0:0:0:0:
302,0,27161,6,0,P|297:37|296:75,1,60.8,0|0,1:0|0:0,0:0:0:0:
192,21,27444,2,0,P|190:58|186:96,1,60.8,0|0,1:0|0:0,0:0:0:0:
302,0,27727,2,0,P|297:37|296:75,1,60.8,8|0,0:0|0:0,0:0:0:0:
192,21,28010,2,0,P|190:58|186:96,1,60.8,0|0,1:0|0:0,0:0:0:0:
16,125,28293,6,0,P|20:162|21:200,1,76,0|0,1:0|0:0,0:0:0:0:
165,158,28576,2,0,P|166:195|170:233,1,76,0|0,1:0|0:0,0:0:0:0:
16,125,28859,2,0,P|20:162|21:200,1,76,8|0,0:0|0:0,0:0:0:0:
165,158,29142,2,0,P|166:195|170:233,1,76,0|0,1:0|0:0,0:0:0:0:
206,384,29425,5,0,1:0:0:0:
206,384,29567,1,0,1:0:0:0:
290,318,29708,1,0,1:0:0:0:
290,318,29850,1,0,1:0:0:0:
387,370,29991,6,0,P|382:342|380:312,2,38,8|8|8,0:0|0:0|0:0,0:0:0:0:
130,345,30275,2,0,P|135:317|137:287,2,38,0|0|0,1:0|1:0|1:0,0:0:0:0:
245,133,31124,6,0,L|250:170,1,38,8|0,0:0|0:0,0:0:0:0:
233,124,31265,2,0,L|238:161,1,38,8|0,0:0|0:0,0:0:0:0:
320,207,31407,2,0,L|314:244,1,38,8|0,0:0|0:0,0:0:0:0:
332,198,31548,2,0,L|326:235,1,38,8|0,0:0|0:0,0:0:0:0:
255,297,31690,6,0,B|163:260|218:85|302:208|365:65|296:-5|234:32,2,334.400010205078,6|2|0,1:0|1:2|1:0,0:0:0:0:
184,67,33388,1,2,1:2:0:0:
184,67,33671,2,0,P|154:71|117:79,1,60.8,2|2,1:2|1:2,0:0:0:0:
50,32,33883,5,2,1:2:0:0:
50,32,33954,2,0,B|28:57|-2:76|-2:76|27:114|52:188,1,167.200005102539,6|2,1:2|1:2,0:0:0:0:
30,256,34378,1,0,0:0:0:0:
135,161,34520,2,0,P|124:201|117:242,1,83.6000025512696,2|2,1:2|0:0,0:0:0:0:
105,332,34803,1,2,1:2:0:0:
196,284,34944,1,2,0:0:0:0:
396,367,35086,6,0,P|436:374|491:388,1,83.6000025512696,2|2,1:2|0:0,0:0:0:0:
486,378,35298,2,0,P|480:353|473:322,1,41.8000012756348,2|2,0:0|1:2,0:0:0:0:
454,246,35510,1,2,0:0:0:0:
367,281,35652,2,0,P|327:288|272:302,1,83.6000025512696,0|2,1:0|1:2,0:0:0:0:
285,298,35864,1,2,1:2:0:0:
285,298,35935,1,2,1:2:0:0:
270,197,36076,1,0,1:0:0:0:
174,158,36218,6,0,P|150:120|161:75,1,83.6000025512696,2|0,1:0|0:0,0:0:0:0:
88,38,36501,2,0,P|118:4|164:4,1,83.6000025512696,2|0,1:0|0:0,0:0:0:0:
240,16,36784,2,0,P|281:12|321:0,1,83.6000025512696,0|0,1:0|0:0,0:0:0:0:
261,104,37067,2,0,P|300:91|342:87,1,83.6000025512696,2|2,1:2|0:0,0:0:0:0:
415,46,37279,5,2,0:0:0:0:
415,46,37350,2,0,P|445:75|423:142,1,83.6000025512696,2|2,1:2|0:0,0:0:0:0:
489,201,37633,1,2,1:2:0:0:
395,198,37775,2,0,P|356:185|314:181,1,83.6000025512696,2|0,0:1|1:0,0:0:0:0:
229,229,38058,1,2,0:0:0:0:
229,229,38199,2,0,P|226:208|221:188,3,41.8000012756348,2|2|2|2,1:2|0:0|1:2|0:0,0:0:0:0:
141,271,38482,6,0,B|79:217|79:217|38:290,1,167.200005102539,0|2,1:0|0:3,0:0:0:0:
376,335,39048,6,0,B|438:281|438:281|479:354,1,167.200005102539,2|2,1:0|3:0,0:0:0:0:
247,339,39614,6,0,L|241:386,15,41.8000012756348,0|0|0|0|0|0|0|0|0|0|0|0|0|0|0|0,1:0|1:0|1:0|1:0|1:0|1:0|1:0|1:0|1:0|1:0|1:0|1:0|1:0|1:0|1:0|1:0,0:0:0:0:
252,254,40746,6,0,B|274:162|203:181|235:82,1,167.200005102539,10|2,0:1|0:0,0:0:0:0:
429,286,41312,1,8,0:0:0:0:
429,286,41454,2,0,P|453:265|445:296,2,83.6000025512696,2|2|2,0:1|0:1|0:1,0:0:0:0:
491,188,41878,5,0,1:0:0:0:
491,188,41949,1,0,1:0:0:0:
491,188,42020,2,0,P|477:148|469:106,1,83.6000025512696,0|2,1:0|0:3,0:0:0:0:
469,107,42303,1,0,1:0:0:0:
344,238,42444,1,8,0:0:0:0:
344,238,42586,2,0,P|336:197|322:157,2,83.6000025512696,0|2|2,0:0|0:0|0:0,0:0:0:0:
145,311,43010,5,0,1:0:0:0:
145,311,43152,2,0,B|72:309|114:368|-5:357,1,125.400003826904
33,358,43435,1,0,1:0:0:0:
12,185,43576,2,0,P|22:225|28:266,1,83.6000025512696,8|0,0:0|0:0,0:0:0:0:
198,231,43859,2,0,P|187:191|182:150,1,83.6000025512696,2|0,1:2|0:0,0:0:0:0:
106,216,44142,5,2,1:2:0:0:
359,41,44567,5,2,1:2:0:0:
359,41,44708,2,0,B|439:43|397:102|516:91,1,136.799995825195,10|0,0:0|0:0,0:0:0:0:
489,101,44991,2,0,P|476:139|471:188,1,83.6000025512696,2|0,1:2|0:0,0:0:0:0:
512,10,45275,5,0,1:0:0:0:
228,92,45558,2,0,B|170:46|170:46|173:40|173:40|77:84,1,171.000006523133,10|0,0:1|0:0,0:0:0:0:
143,137,45841,2,0,B|167:170|167:170|154:128,1,76,8|2,0:0|0:0,0:0:0:0:
6,229,46124,2,0,L|17:172,3,38,0|0|0|0,1:0|1:0|1:0|1:0,0:0:0:0:
70,281,46407,6,0,P|112:288|152:299,1,83.6000025512696,6|2,1:2|1:2,0:0:0:0:
216,239,46690,1,10,0:2:0:0:
300,356,46831,2,0,P|243:367|169:386,1,125.400003826904,2|0,1:2|0:0,0:0:0:0:
178,384,47114,1,2,1:2:0:0:
376,203,47256,2,0,P|334:195|294:184,1,83.6000025512696,10|0,0:0|0:0,0:0:0:0:
328,278,47539,5,8,0:0:0:0:
144,146,47822,1,0,1:0:0:0:
144,146,47963,1,8,0:0:0:0:
41,177,48105,2,0,B|10:147|10:147|31:93,1,83.6000025512696,0|0,1:0|1:0,0:0:0:0:
240,205,48388,2,0,B|270:175|270:175|249:121,1,83.6000025512696,8|0,0:0|1:0,0:0:0:0:
89,36,48671,6,0,P|93:56|97:76,3,41.8000012756348,8|8|8|8,0:0|0:0|0:0|0:0,0:0:0:0:
237,16,48954,2,0,P|232:36|228:56,3,41.8000012756348,8|8|8|8,0:0|0:0|0:0|0:0,0:0:0:0:
161,16,49237,5,0,1:0:0:0:
481,1,49520,1,0,1:0:0:0:
481,1,49803,6,0,B|493:81|434:59|450:148,1,152,2|2,1:0|0:0,0:0:0:0:
449,144,50227,1,2,0:0:0:0:
399,21,50369,1,10,0:0:0:0:
454,246,50652,6,0,B|417:238|417:238|373:278,1,76,6|2,1:2|0:0,0:0:0:0:
400,349,50864,1,2,0:0:0:0:
400,349,50935,2,0,P|362:339|325:331,1,76,2|2,0:0|0:0,0:0:0:0:
232,303,51218,1,2,1:2:0:0:
232,303,51359,1,2,0:0:0:0:
177,384,51501,1,10,0:0:0:0:
89,351,51642,2,0,P|51:359|15:368,1,76,2|2,0:0|0:0,0:0:0:0:
136,269,51925,1,2,1:2:0:0:
17,212,52067,6,0,B|94:217|58:266|156:271,1,136.799995825195,6|0,0:0|0:0,0:0:0:0:
147,263,52350,2,0,B|156:234|156:234|158:246|158:246|168:214,1,74.0999966079713,2|0,0:3|0:0,0:0:0:0:
201,138,52633,1,8,0:0:0:0:
426,71,52916,6,0,B|455:91|455:91|449:131,1,76,2|0,1:0|0:0,0:0:0:0:
322,67,53199,2,0,B|324:31|324:31|362:16,1,76,2|0,0:1|3:0,0:0:0:0:
369,160,53482,2,0,B|337:175|337:175|304:150,1,76,2|0,0:1|3:0,0:0:0:0:
448,225,53765,1,8,0:3:0:0:
448,225,54048,2,0,B|479:240|479:240|512:215,1,76,2|2,0:3|0:0,0:0:0:0:
220,176,54331,6,0,B|130:158|159:212|68:190,1,152,6|0,1:2|1:0,0:0:0:0:
72,191,54756,1,0,3:0:0:0:
0,342,54897,2,0,P|36:330|73:321,1,76,8|0,0:0|3:0,0:0:0:0:
154,277,55180,1,0,1:0:0:0:
210,350,55322,1,0,3:0:0:0:
289,303,55463,6,0,P|325:314|362:323,1,76,0|0,1:0|3:0,0:0:0:0:
506,268,55746,2,0,P|469:259|432:247,1,76,0|0,1:0|3:0,0:0:0:0:
407,164,56029,1,8,0:0:0:0:
475,102,56171,1,0,3:0:0:0:
430,21,56312,2,0,P|393:32|356:41,1,76,0|0,1:0|3:0,0:0:0:0:
232,124,56595,6,0,P|214:116|196:109,3,38,8|0|0|0,0:0|1:0|1:0|1:0,0:0:0:0:
137,7,56878,2,0,P|138:25|142:44,3,38,8|0|0|0,0:0|1:0|1:0|1:0,0:0:0:0:
83,147,57161,2,0,P|98:135|112:123,3,38,8|0|0|0,0:0|1:0|1:0|1:0,0:0:0:0:
166,182,57444,1,8,0:0:0:0:
170,204,57515,1,0,1:0:0:0:
174,226,57586,1,0,1:0:0:0:
177,248,57657,2,0,L|185:302,1,38,0|2,1:0|1:2,0:0:0:0:
486,122,58859,6,0,B|450:115|450:115|441:15|441:15|407:10,1,167.200005102539,6|2,1:2|0:0,0:0:0:0:
298,137,59284,2,0,B|258:160|258:160|299:124,1,83.6000025512696,2|0,1:2|0:0,0:0:0:0:
363,78,59567,1,2,0:0:0:0:
443,195,59708,2,0,B|382:177|382:177|327:216,1,125.400003826904,10|0,0:1|0:0,0:0:0:0:
293,281,59991,6,0,B|222:296|269:339|180:356,1,125.400003826904,2|0,1:0|0:0,0:0:0:0:
184,350,60275,2,0,B|149:370|149:370|113:332,1,83.6000025512696,10|2,0:0|0:0,0:0:0:0:
37,269,60558,1,2,1:2:0:0:
37,269,60699,1,2,0:0:0:0:
124,189,60841,1,2,0:0:0:0:
124,189,60982,1,2,0:0:0:0:
35,111,61124,6,0,P|30:70|23:29,2,83.6000025512696,6|0|2,1:2|0:0|0:0,0:0:0:0:
203,0,61548,2,0,P|191:61|184:123,1,125.400003826904,2|0,1:2|0:0,0:0:0:0:
183,123,61831,1,2,0:0:0:0:
343,42,61973,2,0,P|351:83|356:124,1,83.6000025512696,2|0,1:2|0:0,0:0:0:0:
248,316,62256,5,10,0:0:0:0:
248,316,62539,6,0,P|268:280|308:271,1,83.6000025512696,0|0,1:0|0:0,0:0:0:0:
360,219,62751,1,2,0:0:0:0:
360,219,62822,2,0,P|398:230|417:265,1,83.6000025512696,2|2,0:0|0:0,0:0:0:0:
512,384,63105,2,0,P|504:342|500:301,1,83.6000025512696,2|0,1:3|0:0,0:0:0:0:
482,159,63388,6,0,B|488:76|417:108|429:-3,1,167.200005102539,6|2,1:2|0:0,0:0:0:0:
363,124,63812,1,2,1:2:0:0:
227,33,63954,2,0,P|268:39|309:42,1,83.6000025512696
280,173,64237,2,0,P|239:176|198:184,1,83.6000025512696,4|0,1:2|0:0,0:0:0:0:
61,64,64520,6,0,B|134:108|134:108|100:182,1,167.200005102539,6|2,1:2|0:0,0:0:0:0:
99,182,64944,1,2,1:2:0:0:
48,340,65086,1,8,0:0:0:0:
0,275,65227,2,0,B|31:245|31:245|69:259,1,83.6000025512696,2|0,1:2|0:0,0:0:0:0:
48,340,65510,1,2,0:0:0:0:
211,377,65652,6,0,P|216:335|226:287,2,83.6000025512696,4|0|2,1:2|0:0|0:0,0:0:0:0:
133,318,66076,1,2,1:2:0:0:
305,351,66218,2,0,P|320:312|370:291,1,83.6000025512696
236,169,66501,2,0,P|251:208|301:229,1,83.6000025512696,2|2,1:2|0:0,0:0:0:0:
444,316,66784,6,0,B|455:222|386:257|399:156,1,167.200005102539,10|2,0:0|3:2,0:0:0:0:
398,162,67208,1,2,1:2:0:0:
309,79,67350,2,0,P|315:98|319:119,2,41.8000012756348,2|0|2,3:2|0:0|3:2,0:0:0:0:
490,184,67633,2,0,P|499:143|512:103,1,83.6000025512696,4|0,1:2|0:0,0:0:0:0:
412,73,67916,6,0,B|401:29|336:21|355:-53|481:-34|472:82|403:68,3,212.79999350586,0|0|0|0,1:0|1:0|1:0|1:0,0:0:0:0:
219,194,70180,6,0,P|210:219|202:244,1,53.1999983764649,0|0,1:0|0:0,0:0:0:0:
196,384,70463,2,0,P|188:358|179:333,1,53.1999983764649,0|0,1:0|0:0,0:0:0:0:
278,295,70746,2,0,P|274:308|270:320,3,26.5999991882324,0|0|0|0,1:0|1:0|1:0|1:0,0:0:0:0:
91,308,71029,2,0,P|87:321|83:333,3,26.5999991882324,0|0|0|0,1:0|1:0|1:0|1:0,0:0:0:0:
179,333,71312,5,0,1:0:0:0:
12,57,72444,6,0,B|105:26|105:26|107:20|107:20|156:90,1,167.200005102539,6|2,1:2|0:0,0:0:0:0:
143,71,72869,1,2,0:0:0:0:
49,195,73010,2,0,B|19:232|19:232|41:182,1,83.6000025512696,8|2,0:0|0:0,0:0:0:0:
79,120,73293,1,2,0:0:0:0:
163,151,73435,1,2,0:0:0:0:
237,23,73576,1,2,1:0:0:0:
454,124,73859,6,0,P|460:105|467:85,1,41.8000012756348,0|0,3:0|0:0,0:0:0:0:
464,141,74001,2,0,P|470:122|477:102,1,41.8000012756348,0|0,3:0|0:0,0:0:0:0:
420,18,74142,2,0,P|375:16|351:68,1,83.6000025512696,8|2,0:0|0:0,0:0:0:0:
473,220,74425,2,0,P|428:221|404:170,1,83.6000025512696,0|0,1:0|0:0,0:0:0:0:
509,16,74708,5,0,1:0:0:0:
263,182,74991,1,2,1:2:0:0:
263,182,75133,1,2,0:0:0:0:
172,130,75275,2,0,P|169:171|161:212,1,83.6000025512696,8|2,0:0|0:0,0:0:0:0:
79,140,75558,1,2,0:0:0:0:
79,140,75699,1,2,0:0:0:0:
0,271,75841,6,0,B|67:234|110:306|93:308|93:308|87:323|127:389|198:353,1,250.800007653809,2|0,1:3|0:0,0:0:0:0:
275,289,76407,2,0,P|281:263|285:236,1,41.8000012756348,8|0,0:0|0:0,0:0:0:0:
288,301,76548,2,0,P|294:275|298:248,1,41.8000012756348,0|0,3:0|0:0,0:0:0:0:
414,343,76690,2,0,P|408:317|404:290,2,41.8000012756348,0|0|0,1:0|0:0|3:0,0:0:0:0:
510,158,76973,6,0,B|416:128|444:200|343:169,1,167.200005102539,0|0,1:0|0:0,0:0:0:0:
350,172,77397,1,2,0:0:0:0:
287,106,77539,1,10,0:0:0:0:
309,22,77680,1,2,0:0:0:0:
195,109,77822,2,0,P|153:115|112:123,1,83.6000025512696,2|0,0:0|0:0,0:0:0:0:
208,328,78105,6,0,B|249:282|249:282|308:310,1,125.400003826904,2|0,1:3|0:0,0:0:0:0:
306,309,78388,2,0,P|300:329|296:349,2,41.8000012756348,2|2|2,0:0|0:0|0:0,0:0:0:0:
118,264,78671,2,0,B|77:218|77:218|17:246,1,125.400003826904,10|0,0:0|0:0,0:0:0:0:
19,244,78954,2,0,P|30:284|34:325,1,83.6000025512696,2|2,1:2|0:0,0:0:0:0:
235,196,79237,6,0,B|277:185|277:185|303:63|303:63|342:53,1,209.000006378174,2|0,1:0|0:0,0:0:0:0:
342,52,79661,1,0,1:0:0:0:
428,223,79803,2,0,B|475:246|475:246|437:214,1,83.6000025512696,10|2,0:0|0:0,0:0:0:0:
367,173,80015,1,0,0:0:0:0:
367,173,80086,2,0,L|376:126,2,41.8000012756348,0|0|2,0:0|0:0|0:0,0:0:0:0:
230,191,80369,6,0,B|195:181|195:181|173:81|173:81|141:73,1,167.200005102539,0|2,1:0|0:0,0:0:0:0:
53,134,80793,1,2,0:0:0:0:
11,3,80935,2,0,P|18:22|24:42,1,41.8000012756348,10|2,0:0|0:0,0:0:0:0:
1,16,81076,2,0,P|8:35|14:55,1,41.8000012756348,10|0,0:0|0:0,0:0:0:0:
145,74,81218,2,0,P|138:93|132:113,1,41.8000012756348,10|0,0:0|0:0,0:0:0:0:
155,87,81359,2,0,P|148:106|142:126,1,41.8000012756348,10|0,0:0|0:0,0:0:0:0:
52,224,81501,6,0,P|91:212|150:319,1,167.200005102539,4|2,1:2|0:0,0:0:0:0:
122,381,81925,1,2,0:0:0:0:
247,306,82067,1,10,0:0:0:0:
297,376,82208,2,0,P|332:359|334:308,1,83.6000025512696,2|0,0:0|0:0,0:0:0:0:
247,306,82491,1,2,1:2:0:0:
297,148,82633,6,0,B|366:136|333:99|424:84,1,125.400003826904,2|0,1:0|0:0,0:0:0:0:
403,75,82916,2,0,B|472:87|439:124|530:139,1,125.400003826904,2|0,3:0|0:0,0:0:0:0:
510,134,83199,1,10,0:0:0:0:
427,198,83341,1,2,0:0:0:0:
480,273,83482,2,0,P|470:308|461:370,1,83.6000025512696,2|0,0:3|1:0,0:0:0:0:
462,354,83694,5,0,1:0:0:0:
462,354,83765,1,4,1:2:0:0:
297,239,84048,1,2,1:2:0:0:
109,348,84331,6,0,P|102:306|91:266,1,83.6000025512696,8|2,0:0|0:0,0:0:0:0:
224,384,84614,2,0,P|212:343|206:302,1,83.6000025512696,2|2,1:2|0:0,0:0:0:0:
148,205,84897,6,0,B|83:151|169:18|275:141|217:206,1,250.800007653809,2|2,1:0|0:0,0:0:0:0:
47,177,85463,2,0,P|37:137|58:103,1,83.6000025512696,10|2,0:0|0:0,0:0:0:0:
24,28,85746,2,0,P|59:8|98:20,1,83.6000025512696,2|0,1:2|0:0,0:0:0:0:
166,110,86029,6,0,B|265:98|223:165|330:159,1,167.200005102539,0|2,1:0|0:0,0:0:0:0:
318,159,86454,1,2,0:0:0:0:
379,98,86595,1,10,0:0:0:0:
343,17,86737,1,2,0:0:0:0:
459,125,86878,2,0,B|445:171|456:165|445:207,1,83.6000025512696,2|2,0:0|0:0,0:0:0:0:
472,40,87161,6,0,B|488:-1|488:-1|486:52,1,91.199997216797,2|2,1:0|0:0,0:0:0:0:
430,304,87727,5,10,0:0:0:0:
430,304,87869,1,10,0:0:0:0:
327,281,88010,1,8,0:0:0:0:
327,281,88152,1,8,0:0:0:0:
124,230,88293,6,0,B|88:214|77:180|77:180|13:176|-8:243,1,167.200005102539,4|2,1:2|0:0,0:0:0:0:
0,224,88718,1,0,1:0:0:0:
158,151,88859,2,0,P|161:109|170:68,1,83.6000025512696,2|2,1:2|3:2,0:0:0:0:
67,297,89142,2,0,P|75:337|79:379,1,83.6000025512696,10|2,3:2|3:2,0:0:0:0:
130,235,89425,5,8,0:0:0:0:
203,336,89567,1,8,0:0:0:0:
203,336,89638,1,0,3:0:0:0:
203,336,89708,2,0,P|243:326|285:324,1,83.6000025512696,8|8,0:0|0:0,0:0:0:0:
352,280,89921,1,8,0:0:0:0:
352,280,89991,2,0,P|371:286|392:291,1,41.8000012756348,8|8,0:0|0:0,0:0:0:0:
335,384,90133,2,0,P|354:377|375:372,1,41.8000012756348,8|8,0:0|0:0,0:0:0:0:
463,355,90275,2,0,P|464:344|467:325,6,20.9000006378174,8|8|8|8|8|8|8,0:0|0:0|0:0|0:0|0:0|0:0|0:0,0:0:0:0:
512,260,90558,6,0,B|525:222|525:222|502:194,1,76,4|2,1:2|0:0,0:0:0:0:
364,69,90841,2,0,B|351:31|351:31|373:4,1,76,2|0,1:2|0:0,0:0:0:0:
437,131,91124,1,2,1:2:0:0:
437,131,91265,1,2,1:2:0:0:
298,130,91407,1,0,1:0:0:0:
280,122,91477,1,0,1:0:0:0:
262,114,91548,1,0,1:0:0:0:
244,107,91619,1,0,1:0:0:0:
226,99,91690,6,0,P|240:174|258:248,1,152,0|0,1:0|1:0,0:0:0:0:
257,247,92114,1,0,0:0:0:0:
191,321,92256,1,0,1:0:0:0:
116,273,92397,1,0,1:0:0:0:
21,325,92539,2,0,P|30:288|36:250,1,76,0|0,1:0|1:0,0:0:0:0:
103,192,92751,5,0,1:0:0:0:
103,192,92822,2,0,P|93:155|87:117,1,76,8|0,0:0|1:0,0:0:0:0:
87,117,93105,1,0,1:0:0:0:
266,74,93246,2,0,P|272:36|281:0,1,76,8|0,0:0|1:0,0:0:0:0:
281,0,93529,1,0,1:0:0:0:
182,115,93671,1,8,0:0:0:0:
182,115,93741,1,8,0:0:0:0:
182,115,93812,2,0,P|178:94|174:77,2,38,8|8|8,0:0|0:0|0:0,0:0:0:0:
446,158,94095,6,0,P|441:176|438:195,1,38,2|0,0:3|0:0,0:0:0:0:
447,204,94237,2,0,P|438:241|431:279,1,76,0|0,1:0|1:0,0:0:0:0:
431,278,94520,1,0,1:0:0:0:
319,187,94661,2,0,P|315:166|311:149,2,38,8|8|0,0:0|0:0|3:0,0:0:0:0:
319,187,94944,1,0,1:0:0:0:
223,311,95086,6,0,B|139:318|170:366|90:374,2,152,12|8|8,0:1|0:0|0:0,0:0:0:0:
223,311,95793,1,0,0:0:0:0:
383,358,95935,1,8,0:0:0:0:
365,354,96006,1,0,1:0:0:0:
347,350,96076,1,0,1:0:0:0:
329,346,96147,1,0,1:0:0:0:
311,341,96218,6,0,P|307:301|297:253,1,76,8|0,0:0|1:0,0:0:0:0:
402,108,96501,2,0,P|398:51|307:30,1,152,8|8,0:0|0:0,0:0:0:0:
317,24,96925,1,8,0:0:0:0:
255,106,97067,1,0,1:0:0:0:
179,34,97208,1,0,1:0:0:0:
179,34,97279,1,0,1:0:0:0:
179,34,97350,6,0,P|141:40|103:45,1,76,8|0,0:0|1:0,0:0:0:0:
60,116,97633,1,0,1:0:0:0:
205,192,97775,2,0,P|167:185|129:180,1,76,8|0,0:0|1:0,0:0:0:0:
60,116,98058,1,0,1:0:0:0:
7,39,98199,2,0,P|4:20|0:1,3,38,8|8|0|8,0:0|0:0|1:0|0:0,0:0:0:0:
1,39,98482,1,0,1:0:0:0:
44,241,98624,6,0,P|25:236|6:234,2,38,2|0|8,0:3|0:0|0:0,0:0:0:0:
113,301,98907,1,0,1:0:0:0:
203,286,99048,1,0,1:0:0:0:
356,334,99190,2,0,P|374:330|393:327,1,38,0|8,0:0|0:0,0:0:0:0:
385,319,99331,2,0,P|430:308|476:300,1,76,8|0,0:0|1:0,0:0:0:0:
272,355,99614,5,12,0:1:0:0:
272,355,99756,1,0,1:0:0:0:
299,255,99897,2,0,P|290:219|283:181,1,76,8|0,0:0|1:0,0:0:0:0:
83,80,100180,1,8,0:0:0:0:
83,80,100322,2,0,P|92:43|99:5,2,76,0|8|0,1:0|0:0|1:0,0:0:0:0:
123,166,100746,5,8,0:0:0:0:
183,53,100888,2,0,P|220:44|255:32,1,76,0|8,1:0|0:0,0:0:0:0:
255,31,101171,1,0,1:0:0:0:
336,114,101312,1,8,0:0:0:0:
336,114,101454,1,0,1:0:0:0:
399,33,101595,1,8,0:0:0:0:
491,71,101737,1,0,1:0:0:0:
416,150,101878,6,0,P|458:146|500:206,1,114,8|0,0:0|0:0,0:0:0:0:
511,186,102161,2,0,P|525:225|478:281,1,114,8|0,0:0|1:0,0:0:0:0:
494,292,102444,2,0,P|456:295|418:302,1,76,8|0,0:0|1:0,0:0:0:0:
294,189,102727,2,0,P|256:195|218:199,1,76,8|0,0:0|1:0,0:0:0:0:
218,198,102940,5,0,0:0:0:0:
218,198,103010,1,8,0:0:0:0:
320,308,103152,2,0,P|322:289|325:270,2,38,0|0|8,1:0|1:0|0:0,0:0:0:0:
163,318,103435,2,0,P|160:299|157:280,2,38,0|0|8,1:0|0:0|0:0,0:0:0:0:
242,293,103718,1,0,1:0:0:0:
74,310,103859,2,0,P|66:347|60:384,1,76,8|0,0:0|0:0,0:0:0:0:
9,206,104142,6,0,P|5:187|1:168,3,38,4|0|0|0,1:2|1:0|1:0|1:0,0:0:0:0:
57,71,104425,2,0,P|53:89|49:108,3,38,0|0|0|0,1:0|1:0|1:0|1:0,0:0:0:0:
128,181,104708,2,0,P|124:162|120:143,3,38,0|0|0|0,1:0|1:0|1:0|0:0,0:0:0:0:
187,56,104991,2,0,P|183:74|179:93,3,38,0|0|0|0,1:0|1:0|1:0|1:0,0:0:0:0:
260,113,105275,5,0,1:0:0:0:
371,6,105416,1,0,1:0:0:0:
371,6,105487,1,0,1:0:0:0:
371,6,105558,2,0,P|374:24|378:43,3,38,0|0|0|0,1:0|1:0|1:0|1:0,0:0:0:0:
462,44,105841,2,0,P|458:62|454:81,1,38,0|0,1:0|0:0,0:0:0:0:
466,85,105982,2,0,P|462:103|458:122,1,38,0|0,1:0|1:0,0:0:0:0:
421,228,106124,2,0,P|417:209|413:190,3,38,0|0|0|0,1:0|1:0|1:0|1:0,0:0:0:0:
441,338,106407,6,0,P|443:347|445:356,4,19,8|0|8|0|4,0:3|0:0|0:3|0:0|0:3,0:0:0:0:
380,291,106619,1,4,0:3:0:0:
380,291,106690,2,0,P|342:284|305:277,1,76,4|0,0:3|1:0,0:0:0:0:
220,253,106973,2,0,P|222:263|225:271,4,19,8|0|8|0|0,0:3|0:0|0:3|0:0|1:0,0:0:0:0:
139,238,107185,1,0,1:0:0:0:
139,238,107256,1,0,1:0:0:0:
139,238,107326,1,0,1:0:0:0:
139,238,107397,2,0,P|121:235|102:231,2,38,0|0|4,1:0|1:0|1:2,0:0:0:0:
433,51,108671,6,0,B|407:87|407:87|411:86|411:86|427:173,1,114,6|0,1:0|0:0,0:0:0:0:
436,168,108954,2,0,B|465:178|465:178|435:176,3,38,2|2|2|2,0:0|0:0|0:0|0:0,0:0:0:0:
363,237,109237,2,0,B|429:200|429:200|481:255,1,152,8|2,0:0|0:0,0:0:0:0:
230,330,109661,6,0,B|179:302|179:302|140:344,1,114,2|2,1:2|0:0,0:0:0:0:
141,342,109944,1,2,0:0:0:0:
306,384,110086,2,0,P|309:346|316:308,1,76,2|2,1:2|0:0,0:0:0:0:
487,261,110369,2,0,P|480:298|476:336,1,76,10|2,0:0|0:0,0:0:0:0:
381,238,110652,2,0,B|402:184|366:179|386:125,1,114,2|0,0:3|0:0,0:0:0:0:
385,126,110935,5,2,0:1:0:0:
257,243,111076,2,0,P|255:224|253:205,1,38,2|0,0:1|0:0,0:0:0:0:
264,210,111218,2,0,P|260:169|256:128,1,76,2|0,0:1|1:0,0:0:0:0:
135,185,111501,2,0,P|150:150|166:115,1,76,8|0,0:0|3:0,0:0:0:0:
32,71,111784,2,0,P|67:56|103:44,1,76,2|2,1:2|0:0,0:0:0:0:
102,44,111996,5,2,0:0:0:0:
102,44,112067,1,2,1:2:0:0:
43,176,112208,2,0,B|53:145|53:145|51:171,3,50.6666666666667,2|2|2|2,0:0|0:0|0:0|1:2,0:0:0:0:
30,181,112633,2,0,P|37:218|42:259,1,76,8|0,0:0|0:0,0:0:0:0:
131,326,112916,2,0,P|76:331|53:381,1,114,2|0,1:3|0:0,0:0:0:0:
52,379,113199,5,0,1:0:0:0:
285,231,113482,2,0,P|339:236|362:286,1,114
362,285,113765,1,2,1:3:0:0:
443,322,113907,1,2,0:0:0:0:
505,253,114048,2,0,P|507:234|512:215,3,38,2|2|2|2,1:2|0:0|0:0|0:0,0:0:0:0:
364,160,114331,6,0,P|360:132|353:106,3,50.6666666666667,2|2|2|2,1:2|0:0|0:0|0:0,0:0:0:0:
411,54,114756,1,0,0:0:0:0:
492,120,114897,2,0,B|477:82|505:86|490:41,1,76,8|0,0:0|0:0,0:0:0:0:
263,157,115180,6,0,B|285:82|227:91|256:7,1,152,2|0,1:2|1:2,0:0:0:0:
176,120,115605,2,0,P|174:140|171:158,1,38,2|2,0:0|0:0,0:0:0:0:
160,160,115746,2,0,P|156:197|151:236,1,76,2|2,0:0|1:2,0:0:0:0:
0,371,116029,2,0,P|7:317|58:299,1,114,8|0,0:0|3:0,0:0:0:0:
69,288,116312,2,0,P|101:305|111:341,1,76,0|2,1:0|0:3,0:0:0:0:
298,378,116595,6,0,P|295:359|293:340,3,38,2|2|2|2,0:0|0:0|0:0|0:0,0:0:0:0:
308,381,116878,2,0,B|351:345|351:345|405:363,1,114,2|0,1:2|0:0,0:0:0:0:
405,363,117161,1,10,0:0:0:0:
205,304,117267,6,0,L|199:327,1,19,0|0,1:0|0:0,0:0:0:0:
208,328,117444,6,0,L|202:351,1,19,0|0,1:0|0:0,0:0:0:0:
296,204,117657,5,0,0:0:0:0:
296,204,117727,2,0,B|326:199|326:199|352:112|352:112|387:108,1,152,2|2,1:3|0:1,0:0:0:0:
496,28,118152,2,0,P|491:46|487:65,1,38
473,66,118293,2,0,P|463:105|455:145,1,76,12|0,0:0|3:0,0:0:0:0:
441,252,118576,2,0,P|469:277|497:304,1,76,0|0,1:2|0:0,0:0:0:0:
350,189,118859,6,0,P|313:201|277:211,1,76,0|0,1:0|3:0,0:0:0:0:
191,231,119142,1,0,1:0:0:0:
79,367,119284,2,0,P|92:311|105:256,1,114,0|0,1:0|0:0,0:0:0:0:
104,256,119567,1,0,3:0:0:0:
40,195,119708,1,0,1:0:0:0:
87,123,119850,1,0,1:0:0:0:
6,65,119991,6,0,P|41:21|110:36,1,114,2|0,1:3|0:0,0:0:0:0:
104,10,120275,2,0,P|154:32|158:102,1,114,0|0,1:0|0:0,0:0:0:0:
165,86,120558,1,0,1:0:0:0:
334,52,120699,1,0,3:0:0:0:
334,52,120770,1,0,3:0:0:0:
334,52,120841,2,0,P|336:33|340:14,3,38,0|0|0|0,1:0|0:0|3:0|0:0,0:0:0:0:
258,76,121124,6,0,B|242:107|242:107|274:134,1,76,0|0,1:0|3:0,0:0:0:0:
415,171,121407,2,0,B|394:141|394:141|355:154,1,76,0|0,1:0|3:0,0:0:0:0:
251,260,121690,2,0,B|286:255|286:255|294:215,1,76,0|0,1:0|3:0,0:0:0:0:
484,357,121973,2,0,B|449:352|449:352|441:312,1,76,0|0,1:0|0:0,0:0:0:0:
376,250,122256,5,8,0:0:0:0:
376,250,122397,1,8,0:0:0:0:
292,354,122539,2,0,L|192:334,1,76,8|2,0:0|0:3,0:0:0:0:
38,208,122822,5,8,0:0:0:0:
38,208,122963,1,8,0:0:0:0:
89,288,123105,2,0,L|189:268,1,76,8|2,0:0|0:3,0:0:0:0:
337,54,123388,6,0,L|322:153,1,76,8|8,0:0|0:0,0:0:0:0:
292,354,123671,1,8,0:0:0:0:
217,20,123954,6,0,L|232:119,1,76,10|10,0:0|0:0,0:0:0:0:
253,270,124237,1,8,0:0:0:0:
358,194,124520,6,0,P|355:212|353:231,3,38,8|8|8|8,0:0|0:0|0:0|0:0,0:0:0:0:
253,270,124803,2,0,P|255:251|257:232,3,38,8|8|8|8,0:0|0:0|0:0|0:0,0:0:0:0:
181,159,125086,2,0,P|178:177|176:196,3,38,8|8|8|8,0:0|0:0|0:0|0:0,0:0:0:0:
98,225,125369,1,8,0:0:0:0:
103,247,125440,1,8,0:0:0:0:
108,268,125510,1,8,0:0:0:0:
113,290,125581,2,0,P|117:313|122:338,1,38,8|0,0:0|1:0,0:0:0:0:
257,40,126784,5,4,0:0:0:0:
339,20,134921,5,0,0:0:0:0:
339,20,134991,2,0,P|352:22|367:24,1,28.5000010871888
166,67,135275,2,0,P|138:74|111:82,1,57.0000021743775
255,41,135558,1,0,0:0:0:0:
415,127,135841,6,0,B|411:83|445:49|499:50|523:78|523:78|508:102,2,182.399994433594,2|0|2,1:3|0:0|0:0,0:0:0:0:
510,337,137256,6,0,P|467:323|423:310,1,91.199997216797,2|0,1:2|0:0,0:0:0:0:
422,309,137680,1,2,1:3:0:0:
239,356,138105,6,0,B|178:369|166:307|169:302|175:300|165:238|94:258,1,182.399994433594,2|0,1:2|0:0,0:0:0:0:
335,380,139237,5,2,1:2:0:0:
335,380,139378,2,0,P|331:334|326:289,1,91.199997216797,2|2,0:0|0:0,0:0:0:0:
442,201,139944,1,2,1:2:0:0:
442,201,140086,2,0,P|423:214|401:230,1,45.5999986083985
326,289,140369,6,0,B|292:287|292:287|265:177|265:177|230:174,2,182.399994433594,2|0|0,1:2|0:0|0:0,0:0:0:0:
96,367,141784,6,0,B|60:339|60:339|19:360,1,91.199997216797,2|2,1:2|0:0,0:0:0:0:
19,361,142208,1,2,1:2:0:0:
0,136,142633,6,0,P|24:218|110:225,2,182.399994433594,2|2|2,1:2|0:0|1:2,0:0:0:0:
183,43,144331,6,0,L|191:12,2,22.7999993041992,0|0|0,1:0|3:0|1:0,0:0:0:0:
264,87,144614,2,0,L|260:71,6,11.3999996520996,0|0|0|0|0|0|0,1:0|0:0|1:0|0:0|1:0|0:0|1:0,0:0:0:0:
198,130,144897,6,0,P|274:113|346:99,1,152,6|0,1:2|0:0,0:0:0:0:
346,99,145322,1,0,1:0:0:0:
417,0,145463,1,8,0:0:0:0:
417,0,145605,2,0,B|424:88|479:47|486:154,1,152
512,281,146029,6,0,P|463:228|389:259,1,152,0|0,1:0|0:0,0:0:0:0:
394,250,146454,1,0,1:0:0:0:
291,195,146595,2,0,P|297:232|302:270,1,76,8|0,0:0|0:0,0:0:0:0:
315,360,146879,2,0,B|351:368|351:368|307:345,1,79.7999975646973,0|0,1:0|0:0,0:0:0:0:
300,351,147162,6,0,B|213:336|235:400|143:381,1,152,0|0,1:0|0:0,0:0:0:0:
156,383,147586,1,0,1:0:0:0:
13,297,147727,1,8,0:0:0:0:
13,297,147869,2,0,B|44:365|44:365|102:314,1,152
39,93,148294,6,0,P|93:32|119:109,1,197.59999095459,0|0,1:0|0:0,0:0:0:0:
118,109,148718,1,0,1:0:0:0:
196,234,148859,6,0,P|198:280|179:237,1,129.200002464294,8|0,0:0|0:0,0:0:0:0:
320,139,149143,6,0,P|324:111|310:135,1,76,0|0,1:0|0:0,0:0:0:0:
321,150,149425,6,0,B|337:230|282:217|300:296,1,152,8|0,0:0|3:0,0:0:0:0:
300,296,149850,1,0,1:0:0:0:
437,384,149992,1,8,0:0:0:0:
473,314,150133,2,0,B|415:266|415:266|374:336,1,152
175,381,150558,6,0,B|122:324|122:324|36:377,1,152,8|0,0:0|3:0,0:0:0:0:
58,362,150982,1,0,1:0:0:0:
216,305,151124,2,0,P|209:267|205:229,1,76,8|0,0:0|0:0,0:0:0:0:
48,278,151407,2,0,P|62:242|73:206,1,76,0|0,1:0|0:0,0:0:0:0:
252,54,151690,6,0,P|245:91|238:128,1,76,8|0,0:0|0:0,0:0:0:0:
167,68,151973,2,0,P|160:105|153:142,1,76,8|0,0:0|1:0,0:0:0:0:
407,29,152256,2,0,P|413:66|420:103,1,76,8|0,0:0|0:0,0:0:0:0:
323,0,152539,2,0,P|329:37|336:74,1,76,8|0,0:0|0:0,0:0:0:0:
378,270,152822,5,8,0:0:0:0:
378,270,152963,1,8,0:0:0:0:
279,226,153105,1,8,0:0:0:0:
279,226,153246,1,8,0:0:0:0:
192,322,153388,6,0,P|195:302|199:280,3,38,8|8|8|8,0:0|0:0|0:0|0:0,0:0:0:0:
346,373,153671,2,0,P|342:353|339:331,3,38,8|8|8|8,0:0|0:0|0:0|0:0,0:0:0:0:
258,384,153954,5,4,1:2:0:0:
258,384,154520,1,10,0:0:0:0:
421,319,155086,5,2,1:2:0:0:
421,319,155652,1,10,0:0:0:0:
209,30,156218,5,2,1:2:0:0:
209,30,156784,1,10,0:0:0:0:
99,55,157350,5,2,1:2:0:0:
99,55,157916,1,10,0:0:0:0:
45,208,158482,6,0,P|74:214|104:221,1,60.8,0|0,1:0|0:0,0:0:0:0:
160,147,158765,2,0,P|189:153|219:160,1,60.8,0|0,1:0|0:0,0:0:0:0:
45,208,159048,2,0,P|74:214|104:221,1,60.8,8|0,0:0|0:0,0:0:0:0:
160,147,159331,2,0,P|189:153|219:160,1,60.8,0|0,1:0|0:0,0:0:0:0:
509,257,159614,6,0,P|470:265|432:274,1,76,0|0,1:0|0:0,0:0:0:0:
349,200,159897,2,0,P|310:208|272:217,1,76,0|0,1:0|0:0,0:0:0:0:
509,257,160180,2,0,P|470:265|432:274,1,76,8|0,0:0|0:0,0:0:0:0:
349,200,160463,2,0,P|310:208|272:217,1,76,0|0,1:0|0:0,0:0:0:0:
188,368,160746,5,0,1:0:0:0:
188,368,160888,1,0,1:0:0:0:
306,327,161029,1,0,1:0:0:0:
306,327,161171,1,0,1:0:0:0:
388,384,161312,6,0,P|383:356|381:326,2,38,0|0|8,1:0|1:0|0:0,0:0:0:0:
125,319,161595,2,0,P|135:292|143:263,4,38,0|0|0|0|2,1:0|1:0|1:0|1:0|0:0,0:0:0:0:
316,14,162444,6,0,L|311:51,1,38,8|0,0:0|0:0,0:0:0:0:
304,23,162586,2,0,L|299:60,1,38,8|0,0:0|0:0,0:0:0:0:
99,65,162727,2,0,L|105:102,1,38,8|0,0:0|0:0,0:0:0:0:
111,74,162869,2,0,L|117:111,1,38,8|0,0:0|0:0,0:0:0:0:
198,148,163010,6,0,B|230:124|230:124|218:83,1,83.6000025512696,6|0,1:0|0:0,0:0:0:0:
50,182,163293,1,0,1:0:0:0:
50,182,163364,1,0,0:0:0:0:
50,182,163435,2,0,B|-12:137|-12:137|16:35,1,167.200005102539,0|0,0:0|3:0,0:0:0:0:
119,128,163859,2,0,P|126:169|130:210,1,83.6000025512696,0|0,1:0|3:0,0:0:0:0:
302,286,164142,5,0,1:0:0:0:
302,286,164213,1,0,0:0:0:0:
302,286,164284,2,0,P|304:258|309:231,2,41.8000012756348,0|0|0,0:0|3:0|1:0,0:0:0:0:
204,301,164567,2,0,P|211:260|215:219,1,83.6000025512696,2|0,3:0|1:0,0:0:0:0:
302,367,164850,1,0,3:0:0:0:
380,338,164991,2,0,P|384:296|391:255,1,83.6000025512696,0|0,1:0|0:0,0:0:0:0:
512,101,165275,6,0,P|501:165|410:168,1,167.200005102539,0|0,1:0|1:0,0:0:0:0:
329,78,165699,1,0,3:0:0:0:
329,78,165770,1,0,3:0:0:0:
329,78,165841,2,0,P|288:87|247:96,1,83.6000025512696,0|0,1:0|3:0,0:0:0:0:
383,4,166124,2,0,P|423:13|464:22,1,83.6000025512696,0|0,1:0|3:0,0:0:0:0:
328,169,166407,6,0,P|244:186|161:206,1,167.200005102539,0|0,1:0|1:0,0:0:0:0:
14,269,166831,2,0,B|-15:241|-15:241|0:198,1,83.6000025512696,0|0,3:0|1:0,0:0:0:0:
82,221,167114,1,0,1:0:0:0:
82,221,167184,1,0,1:0:0:0:
82,221,167255,1,0,1:0:0:0:
170,116,167397,1,0,1:0:0:0:
216,188,167539,6,0,B|268:139|268:139|228:46,1,167.200005102539,0|0,1:0|1:0,0:0:0:0:
75,124,167963,1,0,3:0:0:0:
75,124,168034,1,0,3:0:0:0:
75,124,168105,2,0,P|92:86|108:47,1,83.6000025512696,0|0,1:0|3:0,0:0:0:0:
82,221,168388,2,0,P|99:258|115:297,1,83.6000025512696,0|0,1:0|1:0,0:0:0:0:
132,383,168671,6,0,P|111:377|91:371,2,41.8000012756348,0|0|0,1:0|3:0|3:0,0:0:0:0:
196,264,168954,2,0,P|236:275|276:286,1,83.6000025512696,0|0,1:0|0:0,0:0:0:0:
416,333,169237,2,0,P|375:343|335:355,1,83.6000025512696,0|0,1:0|1:0,0:0:0:0:
336,356,169449,1,0,1:0:0:0:
336,356,169520,1,0,1:0:0:0:
276,286,169661,1,0,0:0:0:0:
363,197,169803,6,0,B|385:116|320:126|342:35,1,167.200005102539,4|0,1:2|1:0,0:0:0:0:
455,134,170227,1,0,0:0:0:0:
455,134,170298,1,0,2:0:0:0:
455,134,170369,2,0,P|474:126|494:119,2,41.8000012756348,0|0|0,1:0|0:0|3:0,0:0:0:0:
512,11,170652,2,0,P|472:24|432:36,1,83.6000025512696,0|0,1:0|3:0,0:0:0:0:
288,132,170935,6,0,P|246:120|208:106,1,83.6000025512696,0|0,1:0|0:0,0:0:0:0:
0,25,171218,2,0,P|42:13|79:0,1,83.6000025512696,0|2,1:0|0:0,0:0:0:0:
125,95,171501,1,8,0:0:0:0:
125,95,171572,1,8,0:0:0:0:
125,95,171642,1,8,0:0:0:0:
125,95,171713,1,8,0:0:0:0:
125,95,171784,2,0,P|131:75|137:55,3,41.8000012756348,8|0|0|0,0:0|0:0|1:0|0:0,0:0:0:0:
40,108,172067,6,0,P|54:147|65:187,1,83.6000025512696,4|0,1:0|0:0,0:0:0:0:
99,357,172350,1,0,1:0:0:0:
43,291,172491,2,0,B|111:249|111:249|189:325,1,167.200005102539,0|0,3:0|3:0,0:0:0:0:
400,368,172916,2,0,B|365:347|365:347|334:377,1,83.6000025512696,0|0,1:0|3:0,0:0:0:0:
257,340,173199,5,0,1:0:0:0:
257,340,173270,1,0,0:0:0:0:
257,339,173341,2,0,P|254:318|251:297,2,41.8000012756348,0|0|0,0:0|3:0|1:0,0:0:0:0:
343,244,173624,2,0,P|346:199|302:164,1,83.6000025512696,0|0,3:0|1:0,0:0:0:0:
173,106,173907,2,0,P|153:110|133:114,1,41.8000012756348,0|0,3:0|3:0,0:0:0:0:
122,104,174048,2,0,P|119:59|163:24,1,83.6000025512696,0|2,1:0|3:0,0:0:0:0:
303,96,174332,6,0,B|260:104|260:104|238:180|238:180|194:187,1,167.200005102539,0|0,1:0|1:0,0:0:0:0:
189,317,174756,1,0,3:0:0:0:
189,317,174826,1,0,3:0:0:0:
189,317,174897,2,0,P|148:327|108:337,1,83.6000025512696,0|0,1:0|3:0,0:0:0:0:
25,254,175180,2,0,P|65:244|106:233,1,83.6000025512696,0|0,1:0|3:0,0:0:0:0:
264,384,175464,6,0,B|269:295|315:326|313:223,1,167.200005102539,0|0,1:0|1:0,0:0:0:0:
430,317,175888,1,0,3:0:0:0:
430,317,175958,1,0,3:0:0:0:
430,317,176029,2,0,P|426:293|423:270,3,41.8000012756348,0|0|0|0,1:0|3:0|3:0|3:0,0:0:0:0:
404,274,176312,2,0,P|413:219|420:166,1,83.6000025512696,0|0,1:2|0:0,0:0:0:0:
512,48,176596,6,0,B|461:113|461:113|381:83,1,167.200005102539,8|0,0:0|1:2,0:0:0:0:
267,82,177020,1,0,1:0:0:0:
267,82,177091,1,0,0:0:0:0:
267,82,177162,2,0,P|257:41|250:0,1,83.6000025512696,0|0,1:0|1:0,0:0:0:0:
83,131,177444,2,0,P|92:90|99:49,1,83.6000025512696,0|0,1:0|3:0,0:0:0:0:
191,132,177727,6,0,P|187:111|183:90,2,41.8000012756348,0|0|0,1:0|0:0|0:0,0:0:0:0:
239,203,178010,2,0,B|210:233|210:233|172:215,1,83.6000025512696,0|0,1:0|3:0,0:0:0:0:
86,287,178293,2,0,P|90:266|94:245,2,41.8000012756348,0|0|0,1:0|0:0|1:0,0:0:0:0:
71,367,178576,1,4,1:2:0:0:
334,384,178860,6,0,P|374:374|416:368,1,83.6000025512696,0|0,1:0|0:0,0:0:0:0:
281,173,179142,2,0,P|321:182|363:188,1,83.6000025512696,0|0,1:0|1:0,0:0:0:0:
248,323,179425,2,0,P|227:326|206:329,2,41.8000012756348,0|0|0,1:0|0:0|1:0,0:0:0:0:
403,287,179708,2,0,P|444:279|486:273,1,83.6000025512696,0|0,1:0|1:0,0:0:0:0:
329,306,179991,6,0,P|321:287|316:267,3,41.8000012756348,0|0|0|0,1:0|1:0|1:0|1:0,0:0:0:0:
196,242,180275,2,0,P|203:222|209:202,3,41.8000012756348,0|0|0|0,1:0|1:0|1:0|1:0,0:0:0:0:
279,156,180558,1,0,1:0:0:0:
282,131,180628,1,0,1:0:0:0:
285,106,180699,1,0,1:0:0:0:
288,81,180770,1,0,1:0:0:0:
291,56,180841,2,0,B|255:73|255:73|295:46,1,83.6000025512696,2|0,0:0|0:0,0:0:0:0:
251,330,181124,6,0,P|189:343|129:359,1,125.400003826904,2|0,1:0|0:0,0:0:0:0:
118,357,181407,2,0,B|125:310|125:310|109:353,1,83.6000025512696,2|0,1:2|3:0,0:0:0:0:
6,358,181690,1,0,1:0:0:0:
48,272,181831,1,0,3:0:0:0:
48,272,181902,1,0,3:0:0:0:
48,272,181973,2,0,B|56:225|56:225|39:268,1,83.6000025512696,2|0,1:2|3:0,0:0:0:0:
0,93,182256,6,0,P|61:106|121:122,1,125.400003826904,0|0,1:0|3:0,0:0:0:0:
133,120,182539,2,0,B|125:73|125:73|142:116,1,83.6000025512696,2|0,1:2|3:0,0:0:0:0:
238,193,182822,1,0,1:0:0:0:
238,193,182892,1,0,3:0:0:0:
238,193,182963,2,0,P|197:201|156:213,1,83.6000025512696,0|2,3:0|1:2,0:0:0:0:
329,96,183246,5,0,1:0:0:0:
329,96,183317,1,0,1:0:0:0:
329,96,183388,2,0,B|374:54|374:54|405:109,1,125.400003826904,4|0,1:2|3:0,0:0:0:0:
418,110,183671,2,0,B|465:102|465:102|422:119,1,83.6000025512696,2|0,1:2|3:0,0:0:0:0:
348,175,183954,1,0,1:0:0:0:
415,257,184095,1,0,3:0:0:0:
415,257,184166,1,0,3:0:0:0:
415,257,184237,2,0,B|462:265|462:265|419:248,1,83.6000025512696,2|0,1:2|0:0,0:0:0:0:
250,272,184520,6,0,B|205:230|205:230|174:285,1,125.400003826904,2|0,3:0|3:0,0:0:0:0:
161,286,184803,2,0,B|114:278|114:278|157:295,1,83.6000025512696,2|0,1:2|1:0,0:0:0:0:
229,356,185086,1,0,1:0:0:0:
316,325,185227,1,0,1:0:0:0:
316,325,185369,1,2,1:2:0:0:
387,380,185510,1,0,1:0:0:0:
327,233,185652,6,0,P|315:171|307:109,1,125.400003826904,4|0,1:2|3:0,0:0:0:0:
295,115,185935,2,0,B|279:70|279:70|286:116,1,83.6000025512696,2|0,1:2|3:0,0:0:0:0:
195,23,186218,1,0,1:2:0:0:
214,154,186359,1,0,3:0:0:0:
214,154,186430,1,0,3:0:0:0:
214,154,186501,2,0,B|198:109|198:109|205:155,1,83.6000025512696,2|0,1:2|3:0,0:0:0:0:
0,263,186784,6,0,P|11:201|19:139,1,125.400003826904,0|0,1:0|3:0,0:0:0:0:
32,145,187067,2,0,B|48:100|48:100|41:146,1,83.6000025512696,2|0,1:2|3:0,0:0:0:0:
4,29,187350,1,0,1:0:0:0:
114,191,187491,1,0,3:0:0:0:
114,191,187562,1,0,3:0:0:0:
114,191,187633,2,0,B|130:146|130:146|123:192,1,83.6000025512696,2|0,1:2|3:0,0:0:0:0:
150,61,187916,5,4,1:2:0:0:
295,0,188128,1,0,1:0:0:0:
397,142,188341,1,0,1:0:0:0:
474,113,188482,2,0,P|466:71|462:30,1,83.6000025512696,0|0,1:0|1:0,0:0:0:0:
463,31,188694,1,0,1:0:0:0:
463,31,188765,1,0,1:0:0:0:
397,142,188907,1,0,1:0:0:0:
318,243,189048,6,0,P|282:214|229:239,1,83.6000025512696,0|0,1:0|0:0,0:0:0:0:
243,208,189260,2,0,P|206:233|216:292,1,83.6000025512696,0|0,1:0|0:0,0:0:0:0:
203,270,189473,1,0,1:0:0:0:
287,342,189614,1,0,1:0:0:0:
287,342,189685,1,0,1:0:0:0:
287,342,189756,1,0,1:0:0:0:
287,342,189826,2,0,P|290:362|292:383,1,41.8000012756348,0|2,1:0|1:3,0:0:0:0:
129,33,190180,6,0,P|125:18|124:6,6,20.9000006378174,0|0|0|0|0|0|0,1:0|0:0|1:0|0:0|1:0|0:0|1:0,0:0:0:0:
117,43,190463,2,0,P|75:37|34:29,1,83.6000025512696,0|0,1:0|1:0,0:0:0:0:
158,149,190746,2,0,P|116:154|75:162,1,83.6000025512696,0|0,1:0|1:0,0:0:0:0:
0,111,191029,1,0,1:0:0:0:
47,255,191171,5,0,1:0:0:0:
47,255,191241,1,0,1:0:0:0:
47,255,191312,2,0,P|44:263|39:277,4,20.9000006378174,0|0|0|0|0,1:0|0:0|1:0|0:0|1:0,0:0:0:0:
107,352,191595,2,0,P|133:320|188:322,1,83.6000025512696,0|0,1:0|1:0,0:0:0:0:
244,377,191879,1,0,1:0:0:0:
244,377,191950,1,0,1:0:0:0:
244,377,192020,1,0,1:0:0:0:
334,339,192161,2,0,P|337:329|341:319,4,20.9000006378174,0|0|0|0|0,1:0|0:0|1:0|0:0|1:0,0:0:0:0:
481,307,192444,6,0,P|477:297|473:287,4,20.9000006378174,0|0|0|0|0,1:0|0:0|1:0|0:0|1:0,0:0:0:0:
394,248,192657,1,0,1:0:0:0:
394,248,192727,2,0,P|401:228|408:208,3,41.8000012756348,0|0|0|0,1:0|1:0|1:0|1:0,0:0:0:0:
445,131,193010,2,0,P|452:111|459:91,3,41.8000012756348,0|0|0|0,1:0|1:0|1:0|1:0,0:0:0:0:
512,0,193293,2,0,P|471:8|429:13,1,83.6000025512696,0|0,1:0|1:0,0:0:0:0:
332,133,193576,6,0,P|312:126|292:119,3,41.8000012756348,0|0|0|0,1:0|1:0|1:0|1:0,0:0:0:0:
238,7,193859,2,0,P|241:27|245:48,3,41.8000012756348,0|0|0|0,1:0|1:0|1:0|1:0,0:0:0:0:
178,145,194142,2,0,P|194:131|210:117,3,41.8000012756348,0|0|0|0,1:0|1:0|1:0|1:0,0:0:0:0:
250,102,194425,2,0,P|248:91|246:81,4,20.9000006378174,2|0|0|0|0,1:0|0:0|0:0|0:0|0:0,0:0:0:0:
258,197,194708,6,0,B|279:265|235:257|253:319,1,125.400003826904,4|0,1:2|1:0,0:0:0:0:
262,327,194991,2,0,P|302:335|343:344,1,83.6000025512696,0|2,1:0|0:0,0:0:0:0:
160,285,195275,1,8,0:0:0:0:
160,285,195416,2,0,P|119:293|78:302,1,83.6000025512696,0|0,1:0|1:0,0:0:0:0:
137,373,195699,1,0,1:0:0:0:
14,227,195841,6,0,B|-15:195|-15:195|0:157,2,83.6000025512696,4|0|0,1:2|3:0|1:0,0:0:0:0:
82,178,196265,1,8,0:0:0:0:
167,203,196407,2,0,P|208:211|249:220,1,83.6000025512696,8|0,0:0|3:0,0:0:0:0:
345,243,196690,1,0,1:0:0:0:
407,44,196973,6,0,B|433:14|475:5|511:34|523:69|523:69|470:81,1,167.200005102539,6|0,1:2|0:0,0:0:0:0:
369,158,197539,2,0,P|359:131|363:159,2,83.6000025512696,2|0|0,1:2|0:0|0:0,0:0:0:0:
257,51,198105,5,2,1:2:0:0:
257,51,198246,1,2,1:2:0:0:
152,128,198388,1,2,1:2:0:0:
152,128,198529,1,2,1:2:0:0:
26,128,198671,1,2,1:2:0:0:
26,128,198741,1,0,1:0:0:0:
26,128,198812,2,0,L|40:183,1,56.9999982604981
32,198,199237,6,0,B|64:144|153:165|179:253|103:262|196:340|298:313|282:228,2,334.400010205078,6|2|2,1:2|1:2|1:2,0:0:0:0:
75,294,200652,2,0,B|77:262|77:262|86:298,2,55.7333350341797,2|2|2,1:2|1:2|1:2,0:0:0:0:
98,281,200935,2,0,B|138:265|138:265|138:257|138:257|186:238,2,83.6000025512696,2|0|2,0:3|0:0|0:3,0:0:0:0:
423,383,201501,6,0,B|464:350|464:350|439:297,1,111.466670068359,6|0,1:2|1:0,0:0:0:0:
508,251,201784,2,0,B|487:202|487:202|429:212,1,111.466670068359,2|0,1:2|0:0,0:0:0:0:
362,263,202067,1,10,0:0:0:0:
409,133,202256,1,0,1:0:0:0:
409,133,202350,1,2,1:2:0:0:
297,31,202539,1,0,0:0:0:0:
297,31,202633,6,0,P|242:42|187:52,1,111.466670068359,2|2,0:0|0:2,0:0:0:0:
51,74,202916,2,0,B|7:73|7:73|47:65,1,83.6000025512696,10|0,0:2|0:0,0:0:0:0:
105,14,203199,2,0,B|142:55|142:55|118:105,1,111.466670068359,2|0,1:3|0:0,0:0:0:0:
59,163,203482,1,2,0:0:0:0:
70,384,203671,1,2,0:0:0:0:
70,384,203765,6,0,B|55:325|97:327|76:262,1,125.400003826904,2|0,1:0|0:0,0:0:0:0:
87,253,204048,2,0,P|128:261|169:272,1,83.6000025512696,10|0,0:0|0:0,0:0:0:0:
258,290,204331,1,2,1:2:0:0:
318,159,204473,1,2,1:2:0:0:
389,200,204614,2,0,P|429:191|470:180,1,83.6000025512696,10|0,0:0|0:0,0:0:0:0:
274,292,204897,6,0,P|246:261|246:221,1,83.6000025512696,6|0,1:2|0:0,0:0:0:0:
355,301,205180,1,10,0:0:0:0:
421,349,205322,2,0,P|504:300|489:215,1,167.200005102539,2|2,1:2|0:0,0:0:0:0:
333,381,205746,2,0,P|342:340|354:300,1,83.6000025512696,10|2,0:0|0:0,0:0:0:0:
388,206,206029,5,2,1:3:0:0:
122,346,206312,2,0,P|108:284|91:224,1,125.400003826904,2|2,0:0|0:0,0:0:0:0:
90,224,206595,1,0,1:0:0:0:
253,333,206878,2,0,P|251:291|250:333,1,125.400003826904,2|0,1:3|0:0,0:0:0:0:
246,339,207161,6,0,P|243:361|240:394,14,41.8000012756348,12|8|8|8|8|8|8|8|8|8|8|8|8|8|8,0:0|0:0|0:0|0:0|0:0|0:0|0:0|0:0|0:0|0:0|0:0|0:0|0:0|0:0|0:0,0:0:0:0:
260,258,208293,6,0,B|269:178|322:213|328:111,1,152,6|2,1:2|0:0,0:0:0:0:
211,23,208718,2,0,B|254:1|254:1|205:37,1,85.5000032615663,2|0,1:2|0:0,0:0:0:0:
193,25,209001,2,0,B|200:86|241:59|246:134,1,114,2|0,0:0|0:0,0:0:0:0:
244,122,209284,1,0,0:0:0:0:
356,270,209425,6,0,B|402:211|402:211|469:249,1,152,2|2,1:2|0:0,0:0:0:0:
319,371,209850,2,0,B|283:326|283:326|232:355,1,114,2|0,1:2|0:0,0:0:0:0:
234,354,210133,1,2,0:0:0:0:
68,333,210275,2,0,B|19:322|19:322|63:343,1,79.7999975646973,10|0,0:0|0:0,0:0:0:0:
80,338,210558,6,0,P|64:263|44:190,1,152,2|2,1:2|0:0,0:0:0:0:
195,264,210982,2,0,B|236:248|236:248|201:276,1,85.5000032615663,2|0,1:2|0:0,0:0:0:0:
184,272,211265,2,0,P|196:215|211:160,1,114,2|0,0:0|0:0,0:0:0:0:
210,161,211548,1,0,0:0:0:0:
284,46,211690,6,0,P|221:4|235:55,1,182.399994433594,2|2,1:2|0:0,0:0:0:0:
480,192,212114,2,0,P|422:230|435:183,1,167.200005102539,2|2,1:2|0:0,0:0:0:0:
354,137,212539,6,0,P|363:112|355:137,1,76,2|0,1:2|0:0,0:0:0:0:
277,344,212822,6,0,B|223:289|223:289|156:324,1,152,6|2,1:2|0:0,0:0:0:0:
156,323,213246,1,2,1:2:0:0:
38,193,213388,1,10,0:0:0:0:
0,266,213529,2,0,B|57:313|57:313|103:244,1,152
206,64,213954,6,0,P|279:81|354:95,1,152,2|2,1:2|0:0,0:0:0:0:
354,95,214378,1,2,1:2:0:0:
416,164,214520,1,8,0:0:0:0:
485,109,214661,2,0,P|508:137|507:174,1,76,0|2,0:0|1:2,0:0:0:0:
416,164,214944,1,0,0:0:0:0:
512,283,215086,6,0,B|429:287|464:345|372:345,1,152,2|2,1:2|0:0,0:0:0:0:
379,344,215510,1,2,1:2:0:0:
179,308,215652,1,8,0:0:0:0:
231,373,215793,2,0,B|293:326|293:326|249:266,1,152
61,97,216218,6,0,B|144:101|109:159|201:159,1,152,2|2,1:2|0:0,0:0:0:0:
193,158,216642,1,2,1:2:0:0:
356,115,216784,1,10,0:0:0:0:
279,170,216925,2,0,P|272:132|263:95,1,76,0|2,0:0|1:2,0:0:0:0:
356,115,217208,1,0,0:0:0:0:
241,5,217350,5,6,1:2:0:0:
241,5,217916,1,8,0:0:0:0:
111,44,218482,5,0,1:0:0:0:
111,44,219048,1,8,0:0:0:0:
346,209,219614,5,0,1:0:0:0:
346,209,220180,1,8,0:0:0:0:
491,259,220746,5,2,1:2:0:0:
491,259,221312,1,8,0:0:0:0:
188,324,221878,6,0,P|186:361|182:399,1,60.8,8|0,0:0|0:0,0:0:0:0:
334,287,222161,2,0,P|329:324|328:362,1,60.8,0|0,1:0|0:0,0:0:0:0:
188,324,222444,2,0,P|186:361|182:399,1,60.8,8|0,0:0|0:0,0:0:0:0:
334,287,222727,2,0,P|329:324|328:362,1,60.8,0|0,1:0|0:0,0:0:0:0:
274,95,223010,6,0,P|311:99|349:100,1,76,8|0,0:0|0:0,0:0:0:0:
161,235,223293,2,0,P|198:235|236:239,1,76,0|0,1:0|0:0,0:0:0:0:
274,95,223576,2,0,P|311:99|349:100,1,76,8|0,0:0|0:0,0:0:0:0:
161,235,223859,2,0,P|198:235|236:239,1,76,0|0,1:0|0:0,0:0:0:0:
191,92,224142,5,8,0:0:0:0:
191,92,224284,1,8,0:0:0:0:
315,21,224425,1,8,0:0:0:0:
315,21,224567,1,8,0:0:0:0:
388,71,224708,6,0,P|390:52|394:33,2,38,0|0|0,1:0|1:0|1:0,0:0:0:0:
132,37,224992,2,0,P|129:18|125:0,2,38,0|0|0,1:0|1:0|1:0,0:0:0:0:
177,275,225841,6,0,L|182:312,1,38,8|0,0:0|0:0,0:0:0:0:
189,284,225982,2,0,L|194:321,1,38,8|0,0:0|0:0,0:0:0:0:
350,247,226124,2,0,L|344:284,1,38,10|0,0:0|0:0,0:0:0:0:
338,256,226265,2,0,L|332:293,1,38,8|0,0:0|0:0,0:0:0:0:
271,374,226407,5,2,0:3:0:0:
