osu file format v14

[General]
AudioFilename: audio.mp3
AudioLeadIn: 0
PreviewTime: 12993
Countdown: 0
SampleSet: Soft
StackLeniency: 0.4
Mode: 0
LetterboxInBreaks: 0
WidescreenStoryboard: 1

[Editor]
Bookmarks: 108671,135841,226407
DistanceSpacing: 0.9
BeatDivisor: 4
GridSize: 32
TimelineZoom: 2.899999

[Metadata]
Title:1000000% CAFFEINE
TitleUnicode:1000000% CAFFEINE
Artist:Catsprite overdoses on Coffee
ArtistUnicode:Catsprite overdoses on Coffee
Creator:Ryuusei Aika
Version:Down's Extra
Source:Coffee Hispanic: Mocha
Tags:Shunao ShogunMoon LeCandy Down るーく rook osu! tournament tourney ro16 fm1 Tycani Fuiba Fuyu beasttrollmc electronic btmc instrumental edward
BeatmapID:3542365
BeatmapSetID:1571087

[Difficulty]
HPDrainRate:5
CircleSize:3.5
OverallDifficulty:8.6
ApproachRate:9.3
SliderMultiplier:1.8
SliderTickRate:1

[Events]
//Background and Video events
0,0,"90133021_p0.jpg",0,0
//Break Periods
2,126984,135287
//Storyboard Layer 0 (Background)
//Storyboard Layer 1 (Fail)
//Storyboard Layer 2 (Pass)
//Storyboard Layer 3 (Foreground)
//Storyboard Layer 4 (Overlay)
//Storyboard Sound Samples

[TimingPoints]
-8,283.018867924528,4,2,1,80,1,0
13576,-133.333333333333,4,2,1,80,0,0
14001,-100,4,2,1,80,0,0
14708,-133.333333333333,4,2,1,80,0,0
15133,-100,4,2,1,80,0,0
15841,-133.333333333333,4,2,1,80,0,0
16265,-100,4,2,1,80,0,0
16973,-133.333333333333,4,2,1,80,0,0
17397,-100,4,2,1,80,0,0
18105,-133.333333333333,4,2,1,80,0,0
18529,-100,4,2,1,80,0,0
19237,-133.333333333333,4,2,1,80,0,0
19661,-100,4,2,1,80,0,0
20369,-133.333333333333,4,2,1,80,0,0
20793,-100,4,2,1,80,0,0
21501,-133.333333333333,4,2,1,80,0,0
21925,-100,4,2,1,80,0,0
22633,-133.333333333333,4,2,1,70,0,0
29991,-100,4,2,1,70,0,0
30558,-133.333333333333,4,2,1,70,0,0
31124,-100,4,2,1,70,0,0
31690,-133.333333333333,4,2,1,80,0,0
32256,-100,4,2,1,80,0,0
40746,-66.6666666666667,4,2,1,80,0,0
41029,-100,4,2,1,80,0,0
43010,-66.6666666666667,4,2,1,80,0,0
43293,-100,4,2,1,80,0,0
45275,-200,4,2,1,80,0,0
45558,-100,4,2,1,80,0,0
49520,-133.333333333333,4,2,1,80,0,0
49803,-133.333333333333,4,2,1,60,0,0
50652,-100,4,2,1,60,0,0
52067,-133.333333333333,4,2,1,60,0,0
52350,-100,4,2,1,60,0,0
57727,-100,4,2,1,80,0,0
58859,-83.3333333333333,4,2,1,80,0,0
59991,-100,4,2,1,80,0,0
61124,-83.3333333333333,4,2,1,80,0,0
62256,-100,4,2,1,80,0,0
63388,-83.3333333333333,4,2,1,80,0,0
64520,-100,4,2,1,80,0,0
65652,-83.3333333333333,4,2,1,80,0,0
66784,-100,4,2,1,80,0,0
67916,-100,4,2,1,60,0,0
71029,-100,4,2,1,70,0,0
72444,-66.6666666666667,4,2,1,85,0,0
72727,-100,4,2,1,85,0,0
74708,-66.6666666666667,4,2,1,85,0,0
74991,-100,4,2,1,85,0,0
76973,-66.6666666666667,4,2,1,85,0,0
77256,-100,4,2,1,85,0,0
79237,-66.6666666666667,4,2,1,85,0,0
79520,-100,4,2,1,85,0,0
81501,-66.6666666666667,4,2,1,85,0,0
81784,-100,4,2,1,85,0,0
83765,-66.6666666666667,4,2,1,85,0,0
84048,-100,4,2,1,85,0,0
86029,-66.6666666666667,4,2,1,85,0,0
86312,-100,4,2,1,85,0,0
88293,-66.6666666666667,4,2,1,85,0,0
88576,-100,4,2,1,85,0,0
90558,-100,4,2,1,70,0,0
107539,-133.333333333333,4,2,1,70,0,0
108105,-100,4,2,1,70,0,0
108671,-100,4,2,1,80,0,0
117727,-66.6666666666667,4,2,1,80,0,0
118293,-100,4,2,1,80,0,0
126784,-100,4,2,1,55,0,0
135841,-133.333333333333,4,2,1,65,0,0
139237,-133.333333333333,4,2,1,70,0,0
144897,-133.333333333333,4,2,1,80,0,0
145322,-100,4,2,1,80,0,0
146029,-133.333333333333,4,2,1,80,0,0
146454,-100,4,2,1,80,0,0
147161,-133.333333333333,4,2,1,80,0,0
147586,-100,4,2,1,80,0,0
148293,-133.333333333333,4,2,1,80,0,0
148718,-100,4,2,1,80,0,0
153954,-100,4,2,1,70,0,0
161878,-133.333333333333,4,2,1,70,0,0
162444,-100,4,2,1,80,0,0
163010,-83.3333333333333,4,2,1,85,0,1
199237,-66.6666666666667,4,2,1,80,0,0
199520,-100,4,2,1,80,0,0
203765,-66.6666666666667,4,2,1,80,0,0
204048,-100,4,2,1,80,0,0
208293,-133.333333333333,4,2,1,80,0,0
208718,-100,4,2,1,80,0,0
209425,-133.333333333333,4,2,1,80,0,0
209850,-100,4,2,1,80,0,0
210558,-133.333333333333,4,2,1,80,0,0
210982,-100,4,2,1,80,0,0
211690,-133.333333333333,4,2,1,80,0,0
212114,-100,4,2,1,80,0,0
212822,-133.333333333333,4,2,1,80,0,0
213246,-100,4,2,1,80,0,0
213954,-133.333333333333,4,2,1,80,0,0
214378,-100,4,2,1,80,0,0
215086,-133.333333333333,4,2,1,80,0,0
215510,-100,4,2,1,80,0,0
216218,-133.333333333333,4,2,1,80,0,0
216642,-100,4,2,1,80,0,0
217350,-133.333333333333,4,2,1,70,0,0
224708,-100,4,2,1,70,0,0
225275,-133.333333333333,4,2,1,70,0,0
225841,-100,4,2,1,80,0,0
226407,-100,4,2,1,60,0,0

[Colours]
Combo1 : 242,255,168
Combo2 : 255,184,125

[HitObjects]
230,47,2256,6,0,B|295:74|298:136|298:136|306:149|306:149|282:117|228:126,1,180,2|2,1:0|0:0,0:0:0:0:
267,125,3388,6,0,P|342:111|436:95,1,135,2|0,1:0|0:0,0:0:0:0:
411,112,3671,2,0,P|400:163|393:219,1,90,0|0,3:0|3:0,0:0:0:0:
283,293,3954,2,0,B|247:279|247:279|228:211,1,90,8|0,0:0|0:0,0:0:0:0:
310,196,4237,2,0,L|321:228,6,22.5,4|0|0|0|0|0|0,1:0|0:0|0:0|0:0|0:0|0:0|0:0,0:0:0:0:
317,183,4520,6,0,P|305:134|293:90,1,90,12|0,0:0|0:0,0:0:0:0:
306,2,4803,2,0,P|268:24|216:47,1,90,8|0,0:0|3:0,0:0:0:0:
212,54,5015,1,0,3:0:0:0:
195,58,5086,2,0,P|185:108|181:157,1,90,8|0,0:0|0:0,0:0:0:0:
227,241,5369,1,8,0:0:0:0:
151,313,5510,1,8,0:0:0:0:
59,227,5652,6,0,B|37:194|37:194|60:138,1,90,8|0,0:0|3:0,0:0:0:0:
181,146,5935,2,0,P|67:104|59:18,2,180,8|8|8,0:0|0:0|0:0,0:0:0:0:
252,53,6642,1,8,0:0:0:0:
356,90,6784,6,0,P|344:137|340:190,1,90,8|0,0:0|3:0,0:0:0:0:
301,279,7067,2,0,P|343:261|398:250,1,90,8|0,0:0|3:0,0:0:0:0:
403,252,7279,1,0,0:0:0:0:
417,262,7350,1,8,0:0:0:0:
498,206,7491,1,0,0:0:0:0:
356,90,7633,1,8,0:0:0:0:
461,131,7775,1,8,0:0:0:0:
290,149,7916,6,0,P|273:94|258:47,1,90,8|0,0:0|3:0,0:0:0:0:
398,24,8199,1,8,0:0:0:0:
377,180,8341,1,0,3:0:0:0:
377,180,8411,1,0,3:0:0:0:
377,180,8482,2,0,P|366:231|358:296,1,90,8|0,0:0|3:0,0:0:0:0:
277,328,8765,1,8,0:0:0:0:
181,281,8907,1,8,0:0:0:0:
203,174,9048,6,0,P|266:155|306:144,1,90,8|0,1:2|0:0,0:0:0:0:
95,92,9331,2,0,P|88:136|79:190,1,90,8|0,0:0|3:0,0:0:0:0:
92,194,9543,1,0,3:0:0:0:
108,202,9614,2,0,P|65:223|9:259,1,90,8|0,0:0|3:0,0:0:0:0:
0,159,9897,1,8,0:0:0:0:
99,301,10039,1,8,0:0:0:0:
191,212,10180,6,0,P|196:166|213:99,1,90,8|0,0:0|3:0,0:0:0:0:
294,60,10463,2,0,P|221:85|110:113,2,180,8|8|8,0:0|0:0|0:0,0:0:0:0:
400,133,11171,1,8,0:0:0:0:
502,33,11312,6,0,P|491:78|478:149,1,90,8|0,0:0|3:0,0:0:0:0:
356,202,11595,2,0,P|318:189|260:173,1,90,8|0,0:0|0:0,0:0:0:0:
253,180,11808,1,2,0:0:0:0:
238,189,11878,1,8,0:0:0:0:
279,277,12020,1,0,3:0:0:0:
150,178,12161,1,8,0:0:0:0:
293,108,12303,1,8,0:0:0:0:
185,249,12444,6,0,P|145:266|80:292,1,90,2|0,1:2|0:0,0:0:0:0:
7,358,12727,2,0,P|55:373|124:384,1,90,2|0,1:2|0:0,0:0:0:0:
242,356,13010,6,0,B|247:333|247:333|219:294,1,45,8|0,0:0|0:0,0:0:0:0:
185,249,13152,2,0,P|152:243|121:240,1,45,8|0,0:0|0:0,0:0:0:0:
58,178,13293,6,0,B|49:161|49:161|69:111,1,45,8|0,0:0|0:0,0:0:0:0:
125,90,13435,2,0,P|158:84|189:81,1,45,8|0,0:0|0:0,0:0:0:0:
270,1,13576,6,0,P|247:91|249:125,1,101.250003862381,6|0,1:2|0:0,0:0:0:0:
258,114,13859,1,2,0:0:0:0:
248,203,14001,6,0,B|308:184|308:184|343:133|343:133|425:156,1,180,2|2,1:2|0:0,0:0:0:0:
396,147,14708,6,0,B|436:166|436:166|417:240,1,101.250003862381,2|0,1:2|0:0,0:0:0:0:
405,232,14991,1,2,0:0:0:0:
295,329,15133,6,0,P|308:279|334:180,1,135,2|0,1:2|0:0,0:0:0:0:
316,184,15416,1,2,0:0:0:0:
396,147,15558,2,0,B|323:93|323:93|319:43,1,135,2|0,1:2|0:0,0:0:0:0:
326,33,15841,6,0,P|277:49|209:68,1,101.250003862381,2|0,1:2|0:0,0:0:0:0:
211,58,16124,1,2,0:0:0:0:
75,95,16265,2,0,B|102:181|102:181|186:122,1,180,2|2,1:2|0:0,0:0:0:0:
175,129,16973,6,0,P|191:186|205:240,1,101.250003862381,2|0,1:2|0:0,0:0:0:0:
218,238,17256,1,2,0:0:0:0:
320,372,17397,6,0,B|334:327|377:310|377:310|324:275,1,135,2|0,1:2|0:0,0:0:0:0:
333,266,17680,1,2,0:0:0:0:
201,226,17822,2,0,P|288:196|354:166,1,135,2|0,1:2|0:0,0:0:0:0:
344,185,18105,6,0,B|353:152|353:152|312:83,1,101.250003862381,2|0,1:2|0:0,0:0:0:0:
301,86,18388,1,2,0:0:0:0:
201,226,18529,6,0,P|171:268|165:291,1,45,2|0,1:2|0:0,0:0:0:0:
212,330,18671,2,0,P|205:297|171:152,1,180,10|0,0:2|0:0,0:0:0:0:
171,154,19237,6,0,P|143:125|107:61,1,101.250003862381,2|0,1:2|0:0,0:0:0:0:
120,59,19520,1,2,0:0:0:0:
276,159,19661,6,0,P|249:178|240:192,1,45,2|0,1:2|0:0,0:0:0:0:
171,154,19803,2,0,P|207:198|236:272,1,135,8|0,0:0|0:0,0:0:0:0:
231,288,20086,2,0,B|280:293|321:256|321:256|308:289|316:316,1,135,2|0,1:2|0:0,0:0:0:0:
394,285,20369,6,0,B|412:253|412:253|383:188,1,101.250003862381,2|0,1:2|0:0,0:0:0:0:
369,184,20652,1,2,0:0:0:0:
328,82,20793,6,0,P|285:111|262:117,1,45,2|0,1:2|0:0,0:0:0:0:
224,71,20935,2,0,P|256:77|402:112,1,180,10|0,0:0|0:0,0:0:0:0:
399,111,21501,6,0,P|367:153|382:200,1,101.250003862381,2|0,1:2|0:0,0:0:0:0:
395,204,21784,1,2,0:0:0:0:
263,327,21925,6,0,P|269:287|286:252,1,45,2|0,1:2|0:0,0:0:0:0:
351,271,22067,2,0,P|290:244|206:194,1,135,10|0,0:0|0:0,0:0:0:0:
212,219,22350,1,2,1:2:0:0:
153,95,22491,1,0,0:0:0:0:
37,143,22633,6,0,P|29:188|7:281,1,135.000005149842,4|0,1:0|0:0,0:0:0:0:
83,353,23058,1,0,0:0:0:0:
153,269,23199,1,8,0:0:0:0:
248,326,23341,1,2,0:0:0:0:
248,326,23411,1,2,0:0:0:0:
248,326,23482,2,0,P|298:312|334:302,1,67.5000025749208
163,380,23765,5,0,1:0:0:0:
153,269,23907,2,0,L|184:116,1,135.000005149842
156,16,24331,5,8,0:0:0:0:
259,106,24473,2,0,P|303:92|345:80,2,67.5000025749208,0|0|0,3:0|0:0|0:0,0:0:0:0:
156,16,24897,6,0,P|91:37|18:57,1,135.000005149842,0|0,1:0|0:0,0:0:0:0:
179,136,25322,1,0,0:0:0:0:
97,199,25463,1,8,0:0:0:0:
214,270,25605,1,2,0:0:0:0:
214,270,25675,1,2,0:0:0:0:
214,270,25746,2,0,P|223:227|231:193,1,67.5000025749208
97,199,26029,5,0,1:0:0:0:
179,136,26171,2,0,P|249:164|320:185,1,135.000005149842
275,326,26595,5,8,0:0:0:0:
375,232,26737,2,0,P|387:204|406:156,2,67.5000025749208
275,326,27161,5,0,1:0:0:0:
237,58,27444,5,0,1:0:0:0:
275,326,27727,5,8,0:0:0:0:
237,58,28010,5,0,1:0:0:0:
275,326,28293,5,0,1:0:0:0:
237,58,28576,5,0,1:0:0:0:
275,326,28859,5,8,0:0:0:0:
237,58,29142,5,0,1:0:0:0:
262,248,29425,5,0,1:0:0:0:
250,136,29567,1,0,1:0:0:0:
200,198,29708,5,0,1:0:0:0:
312,186,29850,1,0,1:0:0:0:
250,136,29991,6,0,L|265:74,1,45,8|8,0:0|0:0,0:0:0:0:
312,186,30133,2,0,L|374:201,1,45,8|0,0:0|1:0,0:0:0:0:
262,248,30275,2,0,L|247:310,1,45,0|0,1:0|1:0,0:0:0:0:
200,198,30416,2,0,L|138:183,1,45,0|0,1:0|1:0,0:0:0:0:
340,111,30558,6,0,P|374:215|406:319,1,202.500007724762,2|0,0:0|0:0,0:0:0:0:
401,303,31124,6,0,P|374:298|323:292,1,45,8|0,0:0|0:0,0:0:0:0:
296,242,31265,2,0,B|282:230|282:230|282:193,1,45,8|0,0:0|0:0,0:0:0:0:
216,134,31407,6,0,P|189:139|138:145,1,45,8|0,0:0|0:0,0:0:0:0:
111,195,31548,2,0,B|97:207|97:207|97:244,1,45,8|0,0:0|0:0,0:0:0:0:
175,380,31690,6,0,B|144:369|144:369|116:312|116:312|165:288|165:288|182:229,1,202.500007724762,6|0,1:0|0:0,0:0:0:0:
97,233,32256,6,0,B|76:219|76:219|75:170,2,45,2|2|2,1:2|0:0|0:0,0:0:0:0:
235,177,32539,1,2,0:0:0:0:
113,125,32680,1,2,0:0:0:0:
189,35,32822,6,0,P|218:30|248:23,1,45,0|0,1:0|0:0,0:0:0:0:
336,134,32963,1,2,0:0:0:0:
336,134,33034,1,2,0:0:0:0:
336,134,33105,2,0,P|321:185|312:256,1,90,2|2,0:0|0:0,0:0:0:0:
241,346,33388,5,2,1:2:0:0:
185,344,33482,5,2,0:0:0:0:
154,296,33576,5,2,0:0:0:0:
173,222,33671,6,0,P|141:214|118:202,1,45,2|2,1:2|0:0,0:0:0:0:
319,299,33812,2,0,P|351:291|374:279,1,45,2|2,1:2|1:2,0:0:0:0:
240,179,33954,6,0,B|264:130|264:130|200:107|205:35,1,135,6|0,1:2|0:0,0:0:0:0:
284,53,34237,2,0,B|332:36|368:5|368:5|358:36|367:69,1,135,2|0,1:2|0:0,0:0:0:0:
441,37,34520,6,0,B|456:48|456:48|457:94,1,45,2|2,1:2|0:0,0:0:0:0:
471,183,34661,2,0,P|446:173|406:164,1,45,2|0,0:0|0:0,0:0:0:0:
343,119,34803,5,2,1:2:0:0:
240,179,34944,1,2,0:0:0:0:
331,255,35086,6,0,P|362:242|388:234,1,45,2|0,1:2|0:0,0:0:0:0:
211,255,35227,1,2,0:0:0:0:
211,255,35298,1,2,0:0:0:0:
211,255,35369,2,0,P|200:306|187:329,1,45,2|0,1:2|0:0,0:0:0:0:
324,334,35510,2,0,B|341:349|341:349|342:398,1,45,2|0,0:0|0:0,0:0:0:0:
228,371,35652,5,0,1:0:0:0:
119,288,35793,1,2,1:2:0:0:
119,288,35864,1,2,1:2:0:0:
119,288,35935,2,0,P|79:300|47:317,1,45,2|0,1:2|0:0,0:0:0:0:
14,222,36076,1,0,1:0:0:0:
14,222,36147,1,0,1:0:0:0:
14,222,36218,6,0,P|93:183|78:110,1,135,2|0,1:0|0:0,0:0:0:0:
20,122,36501,2,0,B|-10:112|-10:112|41:90|100:42,1,135,2|0,1:0|0:0,0:0:0:0:
148,1,36784,6,0,P|163:65|204:158,1,135,0|0,1:0|0:0,0:0:0:0:
243,187,37067,2,0,B|258:180|258:180|271:142,1,45,2|2,1:2|0:0,0:0:0:0:
382,51,37208,2,0,P|352:43|320:32,1,45,2|2,0:0|0:0,0:0:0:0:
346,189,37350,5,2,1:2:0:0:
353,180,37420,1,2,0:0:0:0:
362,174,37491,1,2,0:0:0:0:
372,169,37562,1,2,0:0:0:0:
383,167,37633,1,2,1:2:0:0:
267,74,37775,1,2,0:1:0:0:
382,51,37916,6,0,P|387:28|403:-17,1,45,0|0,1:0|0:0,0:0:0:0:
267,153,38058,2,0,B|243:165|243:165|231:203,1,45,2|2,0:0|0:0,0:0:0:0:
227,54,38199,6,0,P|250:68|293:76,1,45,2|2,1:2|0:0,0:0:0:0:
308,264,38341,2,0,B|314:237|314:237|295:196,1,45,2|2,1:2|0:0,0:0:0:0:
446,208,38482,6,0,P|462:136|486:48,1,135,0|0,1:0|0:0,0:0:0:0:
466,61,38765,1,2,0:3:0:0:
446,208,39048,6,0,P|390:224|293:257,1,135,2|0,1:0|0:0,0:0:0:0:
311,263,39331,2,0,B|295:296|295:296|290:268|255:246,1,90,2|0,3:0|0:0,0:0:0:0:
446,208,39614,6,0,P|388:175|331:134,1,135,0|0,1:0|0:0,0:0:0:0:
330,119,39897,1,0,1:0:0:0:
320,124,39967,1,0,1:0:0:0:
310,129,40038,1,0,1:0:0:0:
300,135,40109,1,0,1:0:0:0:
290,140,40180,5,0,1:0:0:0:
267,141,40250,1,0,1:0:0:0:
245,136,40321,1,0,1:0:0:0:
225,126,40392,1,0,1:0:0:0:
208,111,40463,6,0,P|203:144|195:185,1,45,0|0,1:0|1:0,0:0:0:0:
100,257,40605,2,0,P|83:224|62:200,1,45,0|0,1:0|1:0,0:0:0:0:
57,68,40746,6,0,B|51:50|38:39|38:39|130:72|130:72|133:123|58:163,1,202.500007724762,10|0,0:1|0:0,0:0:0:0:
78,217,41029,6,0,P|152:204|230:189,1,135,2|0,0:0|0:0,0:0:0:0:
230,205,41312,1,8,0:0:0:0:
331,150,41454,1,2,0:1:0:0:
390,254,41595,6,0,P|386:276|386:310,1,45,2|0,0:1|0:0,0:0:0:0:
470,265,41737,2,0,P|466:287|466:321,1,45,2|0,0:1|0:0,0:0:0:0:
492,125,41878,5,0,1:0:0:0:
492,125,41949,1,0,1:0:0:0:
492,125,42020,1,0,1:0:0:0:
345,71,42161,2,0,P|419:56|454:45,1,90,2|0,0:3|1:0,0:0:0:0:
431,190,42444,2,0,P|403:232|373:354,1,135,8|0,0:0|0:0,0:0:0:0:
328,370,42727,2,0,B|307:357|307:357|289:311,1,45,2|0,0:0|0:0,0:0:0:0:
187,250,42869,2,0,P|220:242|240:235,1,45,2|0,0:0|0:0,0:0:0:0:
332,186,43010,6,0,B|303:167|260:164|260:164|305:119|337:41,1,202.500007724762,0|0,1:0|3:0,0:0:0:0:
263,14,43293,6,0,B|214:44|214:44|233:106,1,90,2|0,3:0|1:0,0:0:0:0:
390,127,43576,2,0,P|437:118|508:103,1,90,8|0,0:0|0:0,0:0:0:0:
230,238,43859,2,0,P|179:209|108:160,1,135,2|0,1:2|0:0,0:0:0:0:
96,172,44142,5,2,1:2:0:0:
34,103,44284,1,2,0:0:0:0:
109,18,44425,2,0,P|152:29|212:38,1,90,0|2,0:0|1:2,0:0:0:0:
251,139,44708,5,10,0:0:0:0:
356,101,44850,1,2,0:0:0:0:
356,101,44921,1,2,0:0:0:0:
356,101,44991,2,0,P|365:55|383:-2,1,90,2|0,1:2|0:0,0:0:0:0:
192,193,45275,6,0,B|185:228|185:228|194:233|194:233|187:269,1,67.5,0|0,1:0|0:0,0:0:0:0:
184,270,45558,6,0,P|250:246|322:229,1,135,10|0,0:1|0:0,0:0:0:0:
389,257,45841,2,0,B|403:229|403:229|369:169,1,90,8|2,0:0|0:0,0:0:0:0:
239,117,46124,1,0,1:0:0:0:
228,112,46194,1,0,1:0:0:0:
219,105,46265,1,0,1:0:0:0:
212,97,46336,1,0,1:0:0:0:
206,87,46407,5,6,1:2:0:0:
281,21,46548,1,2,1:2:0:0:
130,48,46690,2,0,P|124:79|117:116,1,45,10|0,0:2|0:0,0:0:0:0:
181,208,46831,2,0,P|213:199|251:189,1,45,2|0,1:2|0:0,0:0:0:0:
310,127,46973,5,0,0:0:0:0:
206,87,47114,1,2,1:2:0:0:
342,201,47256,2,0,P|328:250|322:306,1,90,10|0,0:0|0:0,0:0:0:0:
220,345,47539,5,8,0:0:0:0:
122,267,47680,1,0,1:0:0:0:
122,267,47822,1,0,1:0:0:0:
142,372,47963,5,8,0:0:0:0:
194,225,48105,1,0,1:0:0:0:
194,225,48246,1,0,1:0:0:0:
34,261,48388,6,0,B|12:240|12:240|22:162,1,90,8|0,0:0|1:0,0:0:0:0:
125,99,48671,5,8,0:0:0:0:
135,103,48741,1,8,0:0:0:0:
146,106,48812,1,8,0:0:0:0:
157,109,48883,1,8,0:0:0:0:
168,113,48954,5,8,0:0:0:0:
190,112,49024,1,8,0:0:0:0:
211,105,49095,1,8,0:0:0:0:
230,92,49166,1,8,0:0:0:0:
243,75,49237,6,0,P|227:172|224:221,1,135,0|0,1:0|0:0,0:0:0:0:
144,209,49520,6,0,P|154:240|173:317,1,101.250003862381,0|0,1:0|0:0,0:0:0:0:
166,321,49803,6,0,P|235:301|283:289,1,101.250003862381,2|0,1:0|0:0,0:0:0:0:
279,306,50086,1,2,0:0:0:0:
361,256,50227,1,2,0:0:0:0:
304,166,50369,6,0,P|306:184|310:210,1,33.7500012874604,10|0,0:0|0:0,0:0:0:0:
225,154,50510,2,0,P|227:172|231:198,1,33.7500012874604,2|0,0:0|0:0,0:0:0:0:
161,79,50652,5,6,1:2:0:0:
162,67,50722,1,2,0:0:0:0:
164,56,50793,1,2,0:0:0:0:
169,46,50864,1,2,0:0:0:0:
176,37,50935,6,0,P|210:51|243:52,1,45,2|0,0:0|0:0,0:0:0:0:
291,92,51076,2,0,B|307:72|307:72|310:32,1,45,2|0,0:0|0:0,0:0:0:0:
397,85,51218,1,2,1:2:0:0:
397,85,51289,1,2,0:0:0:0:
397,85,51359,2,0,P|437:68|469:63,1,45,2|2,0:0|0:0,0:0:0:0:
473,227,51501,6,0,P|453:221|411:208,1,45,10|0,0:0|0:0,0:0:0:0:
308,199,51642,2,0,P|351:239|344:293,1,90,2|2,0:0|0:0,0:0:0:0:
346,283,51855,1,0,0:0:0:0:
336,297,51925,2,0,P|308:304|289:312,1,45,2|0,1:2|0:0,0:0:0:0:
175,369,52067,6,0,B|137:348|137:348|159:283,1,101.250003862381,6|0,0:0|0:0,0:0:0:0:
144,283,52350,6,0,L|169:218,1,45,2|0,0:3|0:0,0:0:0:0:
77,240,52491,2,0,L|102:175,1,45,2|0,0:3|0:0,0:0:0:0:
225,124,52633,1,8,0:0:0:0:
225,124,52916,6,0,P|160:105|85:80,1,135,2|0,1:0|0:0,0:0:0:0:
83,98,53199,6,0,B|73:85|73:85|79:45,1,45,2|0,0:1|0:0,0:0:0:0:
22,184,53341,2,0,P|56:179|79:173,1,45,0|0,3:0|3:0,0:0:0:0:
225,124,53482,2,0,P|205:166|188:241,1,90,2|0,0:1|3:0,0:0:0:0:
67,260,53765,6,0,P|118:287|169:378,1,135,8|0,0:3|0:0,0:0:0:0:
174,360,54048,1,2,0:3:0:0:
185,358,54118,1,2,0:0:0:0:
194,353,54189,1,2,0:0:0:0:
202,344,54260,1,2,0:0:0:0:
205,334,54331,6,0,P|266:318|315:304,1,90,6|0,1:2|3:0,0:0:0:0:
419,239,54614,1,0,1:0:0:0:
359,361,54756,1,0,3:0:0:0:
350,200,54897,6,0,P|361:156|369:95,1,90,8|0,0:0|3:0,0:0:0:0:
376,100,55109,1,2,0:0:0:0:
374,86,55180,2,0,P|327:103|270:120,1,90,0|0,1:0|3:0,0:0:0:0:
270,236,55463,5,0,1:0:0:0:
170,178,55605,1,2,3:0:0:0:
170,178,55675,1,2,0:0:0:0:
170,178,55746,2,0,P|179:132|183:70,1,90,0|0,1:0|3:0,0:0:0:0:
23,244,56029,6,0,P|60:259|125:276,1,90,8|0,0:0|3:0,0:0:0:0:
224,369,56312,1,0,1:0:0:0:
187,257,56454,1,0,3:0:0:0:
82,348,56595,5,8,0:0:0:0:
92,351,56665,1,0,1:0:0:0:
102,356,56736,1,0,1:0:0:0:
111,362,56807,1,0,1:0:0:0:
119,370,56878,5,8,0:0:0:0:
135,355,56948,1,0,1:0:0:0:
146,335,57019,1,0,1:0:0:0:
150,313,57090,1,0,1:0:0:0:
145,291,57161,5,8,0:0:0:0:
115,274,57231,1,0,1:0:0:0:
97,247,57302,1,0,1:0:0:0:
93,213,57373,1,0,1:0:0:0:
104,182,57444,6,0,P|132:176|167:168,1,45,8|0,0:0|1:0,0:0:0:0:
287,274,57586,2,0,P|259:268|224:260,1,45,0|0,1:0|1:0,0:0:0:0:
212,125,57727,5,2,1:2:0:0:
253,83,57822,5,2,0:0:0:0:
308,99,57916,5,2,0:0:0:0:
329,151,58010,5,2,0:0:0:0:
370,193,58105,5,2,0:0:0:0:
425,177,58199,5,2,0:0:0:0:
455,108,58293,6,0,P|445:79|425:22,1,90,0|8,0:0|0:3,0:0:0:0:
317,17,58576,1,4,0:3:0:0:
264,126,58718,1,4,0:3:0:0:
122,125,58859,6,0,B|35:109|35:109|88:22,1,161.999995056153,6|0,1:2|0:0,0:0:0:0:
150,28,59142,2,0,B|175:42|175:42|175:95,1,53.9999983520508,2|0,0:0|0:0,0:0:0:0:
122,125,59284,6,0,B|117:189|96:238|96:238|120:215|156:201,1,161.999995056153,2|0,1:2|0:0,0:0:0:0:
210,232,59567,2,0,B|220:207|220:207|204:175,1,53.9999983520508,2|0,0:0|0:0,0:0:0:0:
122,125,59708,6,0,P|178:101|223:60,1,107.999996704102,10|0,0:1|0:0,0:0:0:0:
363,4,59991,6,0,P|351:52|337:121,1,90,2|0,1:0|0:0,0:0:0:0:
374,221,60275,1,10,0:0:0:0:
269,132,60416,1,2,0:0:0:0:
406,144,60558,6,0,B|451:127|451:127|470:70,1,90,2|2,1:2|0:0,0:0:0:0:
277,209,60841,2,0,P|294:255|305:314,1,90,2|2,0:0|0:0,0:0:0:0:
407,368,61124,6,0,P|420:291|453:200,1,161.999995056153,6|0,1:2|0:0,0:0:0:0:
406,144,61407,2,0,P|382:136|350:123,1,53.9999983520508,2|0,0:0|0:0,0:0:0:0:
311,58,61548,6,0,B|241:79|241:79|295:175,1,161.999995056153,2|0,1:2|0:0,0:0:0:0:
269,235,61831,2,0,B|236:233|236:233|210:166,1,53.9999983520508,2|0,0:0|0:0,0:0:0:0:
162,85,61973,6,0,P|112:107|35:124,1,107.999996704102,2|0,1:2|0:0,0:0:0:0:
57,232,62256,6,0,P|71:232|131:308,1,90,10|0,0:0|0:0,0:0:0:0:
206,345,62539,2,0,P|212:269|238:187,1,135,0|2,1:0|0:0,0:0:0:0:
244,209,62822,6,0,P|230:159|213:104,1,90,2|2,0:0|0:0,0:0:0:0:
392,31,63105,2,0,P|370:99|360:190,1,135,2|0,1:3|0:0,0:0:0:0:
392,232,63388,6,0,P|429:241|445:146,1,161.999995056153,6|0,1:2|0:0,0:0:0:0:
360,161,63671,2,0,B|333:150|333:150|332:98,1,53.9999983520508,2|0,0:0|0:0,0:0:0:0:
392,232,63812,6,0,P|326:243|220:269,1,161.999995056153,2|0,1:2|0:0,0:0:0:0:
167,305,64095,2,0,B|149:289|149:289|156:240,1,53.9999983520508
163,93,64237,6,0,P|183:156|206:209,1,107.999996704102,4|0,1:2|0:0,0:0:0:0:
67,303,64520,6,0,B|8:273|11:204|11:204|48:189|58:142,1,180,6|2,1:2|0:0,0:0:0:0:
153,259,64944,1,2,1:2:0:0:
73,384,65086,2,0,P|100:378|121:368,1,45,8|0,0:0|0:0,0:0:0:0:
230,303,65227,2,0,P|248:227|272:159,1,135,2|0,1:2|0:0,0:0:0:0:
259,155,65510,1,2,0:0:0:0:
386,235,65652,6,0,B|432:244|476:301|476:301|461:275|471:222,1,161.999995056153,4|0,1:2|0:0,0:0:0:0:
473,131,65935,2,0,B|454:153|454:153|465:211,1,53.9999983520508,2|0,0:0|0:0,0:0:0:0:
386,235,66076,6,0,L|216:266,1,161.999995056153,2|0,1:2|0:0,0:0:0:0:
156,298,66359,2,0,B|140:279|140:279|156:238,1,53.9999983520508
288,172,66501,6,0,P|297:123|313:27,1,107.999996704102,2|2,1:2|0:0,0:0:0:0:
66,21,66784,6,0,P|94:77|100:180,1,135,10|0,0:0|0:0,0:0:0:0:
93,165,67067,1,2,3:2:0:0:
218,84,67208,2,0,P|265:74|311:64,1,90,2|2,1:2|3:2,0:0:0:0:
185,205,67491,1,2,3:2:0:0:
185,205,67562,1,2,0:0:0:0:
185,205,67633,2,0,P|171:253|161:318,1,90,4|0,1:2|0:0,0:0:0:0:
297,182,67916,5,0,1:0:0:0:
256,192,67987,12,0,69614,0:0:0:0:
298,184,70180,6,0,P|305:124|314:89,1,90,0|0,1:0|0:0,0:0:0:0:
139,7,70463,2,0,P|146:20|173:109,1,90,0|0,1:0|0:0,0:0:0:0:
242,247,70746,5,0,1:0:0:0:
230,245,70816,1,0,1:0:0:0:
220,241,70887,1,0,1:0:0:0:
210,235,70958,1,0,1:0:0:0:
202,228,71029,5,0,1:0:0:0:
180,233,71099,1,0,1:0:0:0:
160,244,71170,1,0,1:0:0:0:
143,259,71241,1,0,1:0:0:0:
130,277,71312,5,0,1:0:0:0:
29,230,71454,2,0,P|21:179|8:111,1,90,0|10,1:0|0:0,0:0:0:0:
41,50,71737,1,8,0:0:0:0:
41,50,71808,1,8,0:0:0:0:
145,88,71949,1,8,0:0:0:0:
145,88,72020,1,8,0:0:0:0:
229,8,72161,1,0,1:0:0:0:
239,11,72231,1,0,0:0:0:0:
249,17,72302,1,2,0:3:0:0:
257,25,72373,1,0,0:0:0:0:
264,33,72444,6,0,B|292:99|292:99|255:147|255:147|263:191|303:200,1,202.500007724762,6|0,1:2|0:0,0:0:0:0:
371,226,72727,6,0,B|380:203|380:203|372:174,1,45,2|0,0:0|0:0,0:0:0:0:
416,93,72869,2,0,P|381:84|357:77,1,45,2|0,0:0|0:0,0:0:0:0:
201,86,73010,6,0,B|159:95|159:95|132:165,1,90,8|2,0:0|0:0,0:0:0:0:
107,229,73293,1,2,0:0:0:0:
197,293,73435,1,2,0:0:0:0:
289,295,73576,6,0,P|199:318|105:342,1,180,2|0,1:0|3:0,0:0:0:0:
13,292,74001,1,0,3:0:0:0:
60,176,74142,2,0,P|116:183|171:189,1,90,8|2,0:0|0:0,0:0:0:0:
162,199,74355,1,2,0:0:0:0:
174,211,74425,2,0,P|210:164|179:73,1,135,0|0,1:0|0:0,0:0:0:0:
138,43,74708,6,0,B|151:24|173:18|173:18|104:0|60:73|87:130,1,202.500007724762,0|0,1:0|0:0,0:0:0:0:
83,194,74991,6,0,P|55:185|3:176,1,45,2|0,1:2|0:0,0:0:0:0:
18,284,75133,2,0,B|13:303|13:303|43:334,1,45,2|0,0:0|0:0,0:0:0:0:
219,356,75275,6,0,P|225:308|238:251,1,90,8|2,0:0|0:0,0:0:0:0:
317,192,75558,1,2,0:0:0:0:
263,104,75699,1,2,0:0:0:0:
350,29,75841,6,0,B|406:51|406:51|442:128|442:128|401:106,1,180,2|0,1:3|0:0,0:0:0:0:
317,192,76265,1,2,0:0:0:0:
317,192,76336,1,2,0:0:0:0:
317,192,76407,2,0,P|357:176|375:171,1,45,8|0,0:0|0:0,0:0:0:0:
446,245,76548,2,0,P|438:273|435:308,1,45,0|0,3:0|0:0,0:0:0:0:
318,273,76690,5,0,1:0:0:0:
410,365,76831,1,0,3:0:0:0:
317,192,76973,6,0,B|285:141|209:133|209:133|253:124|274:67,1,202.500007724762,0|0,1:0|0:0,0:0:0:0:
208,22,77256,6,0,B|189:39|189:39|194:95,1,45
158,191,77397,2,0,P|135:181|89:170,1,45,2|0,0:0|0:0,0:0:0:0:
24,75,77539,6,0,P|82:65|117:55,1,90,10|2,0:0|0:0,0:0:0:0:
158,191,77822,2,0,P|131:236|107:323,1,135,2|0,0:0|0:0,0:0:0:0:
44,368,78105,6,0,P|149:346|247:322,1,180,2|2,1:3|0:0,0:0:0:0:
235,333,78458,1,2,0:0:0:0:
243,341,78528,1,2,0:0:0:0:
250,349,78599,1,2,0:0:0:0:
256,359,78670,5,10,0:0:0:0:
347,294,78812,1,2,0:0:0:0:
284,194,78954,2,0,P|242:190|191:178,1,90,2|2,1:2|0:0,0:0:0:0:
429,151,79237,6,0,B|473:158|496:178|496:178|460:123|441:30,1,202.500007724762,2|0,1:0|0:0,0:0:0:0:
387,6,79520,6,0,P|372:31|352:77,1,45,2|0,0:0|0:0,0:0:0:0:
398,220,79661,2,0,B|374:214|374:214|345:174,1,45,0|0,1:0|0:0,0:0:0:0:
289,81,79803,6,0,P|241:75|180:55,1,90,10|2,0:0|0:0,0:0:0:0:
189,75,80015,1,2,0:0:0:0:
180,90,80086,1,2,0:0:0:0:
278,202,80227,1,2,0:0:0:0:
141,267,80369,6,0,P|123:195|83:79,1,180,0|2,1:0|0:0,0:0:0:0:
207,166,80793,1,2,0:0:0:0:
313,229,80935,6,0,P|304:253|296:288,1,45,10|2,0:0|0:0,0:0:0:0:
136,349,81076,2,0,P|167:343|203:338,1,45,10|0,0:0|0:0,0:0:0:0:
341,344,81218,5,10,0:0:0:0:
218,271,81359,1,10,0:0:0:0:
388,271,81501,6,0,B|465:215|460:178|460:178|418:158|418:158|409:123,1,202.500007724762,4|0,1:2|0:0,0:0:0:0:
473,54,81784,6,0,L|485:107,1,45,2|0,0:0|0:0,0:0:0:0:
350,198,81925,2,0,B|331:183|331:183|324:146,1,45,2|0,0:0|0:0,0:0:0:0:
345,43,82067,5,10,0:0:0:0:
258,120,82208,2,0,P|206:114|148:98,1,90,2|0,0:0|0:0,0:0:0:0:
135,18,82491,1,2,1:2:0:0:
258,120,82633,6,0,P|224:171|208:274,1,135,2|0,1:0|0:0,0:0:0:0:
195,251,82916,2,0,B|145:235|145:235|125:182,1,90,2|0,3:0|3:0,0:0:0:0:
251,363,83199,6,0,P|295:349|351:344,1,90,10|2,0:0|0:0,0:0:0:0:
293,216,83482,1,2,0:3:0:0:
410,294,83624,1,0,1:0:0:0:
410,294,83694,1,0,1:0:0:0:
410,294,83765,6,0,B|418:246|453:224|453:224|439:204|439:204|474:156|439:112,1,202.500007724762,4|0,1:2|0:0,0:0:0:0:
377,156,84048,6,0,B|356:146|356:146|343:100,1,45,2|0,1:2|0:0,0:0:0:0:
413,30,84190,2,0,P|438:37|474:39,1,45,2|0,0:0|0:0,0:0:0:0:
290,71,84331,6,0,P|242:61|194:49,1,90,8|2,0:0|0:0,0:0:0:0:
118,110,84614,1,2,1:2:0:0:
155,205,84756,1,2,0:0:0:0:
33,161,84897,6,0,B|3:205|3:205|33:284,1,135,2|0,1:0|0:0,0:0:0:0:
24,296,85180,2,0,P|81:278|129:268,1,90,2|2,0:0|0:0,0:0:0:0:
214,312,85463,1,10,0:0:0:0:
214,312,85534,1,2,0:0:0:0:
214,312,85605,1,2,0:0:0:0:
301,218,85746,2,0,P|315:164|326:108,1,90,2|0,1:2|0:0,0:0:0:0:
479,257,86029,6,0,B|426:273|395:355|395:355|383:295|312:287,1,202.500007724762,0|0,1:0|0:0,0:0:0:0:
280,294,86312,6,0,P|247:290|200:278,1,45,2|0,0:0|0:0,0:0:0:0:
384,227,86454,2,0,P|391:205|406:154,1,45,2|0,0:0|0:0,0:0:0:0:
201,96,86595,6,0,P|215:149|224:189,1,90,10|2,0:0|0:0,0:0:0:0:
216,199,86808,1,2,0:0:0:0:
204,211,86878,2,0,P|161:220|86:238,1,90,2|2,0:0|0:0,0:0:0:0:
290,347,87161,6,0,P|378:297|377:210,1,180,2|2,1:0|0:0,0:0:0:0:
383,226,87727,6,0,P|388:191|400:148,1,45,10|0,0:0|0:0,0:0:0:0:
498,128,87869,2,0,P|477:123|444:105,1,45,10|0,0:0|0:0,0:0:0:0:
336,30,88010,6,0,P|343:54|345:90,1,45,8|0,0:0|0:0,0:0:0:0:
308,181,88152,2,0,P|270:165|235:157,1,45,8|0,0:0|0:0,0:0:0:0:
197,68,88293,6,0,P|114:101|128:222,1,202.500007724762,4|0,1:2|0:0,0:0:0:0:
179,246,88576,6,0,P|217:233|236:228,1,45,2|0,0:0|0:0,0:0:0:0:
70,356,88718,2,0,B|54:343|54:343|58:308,1,45,0|0,1:0|0:0,0:0:0:0:
170,323,88859,5,2,1:2:0:0:
181,324,88930,1,0,3:0:0:0:
191,329,89000,1,2,3:2:0:0:
199,336,89071,1,0,3:0:0:0:
206,345,89142,2,0,P|262:325|304:312,1,90,10|2,3:2|3:2,0:0:0:0:
426,243,89425,6,0,P|417:271|414:309,1,45,8|0,0:0|3:0,0:0:0:0:
306,238,89567,1,8,0:0:0:0:
306,238,89638,1,0,3:0:0:0:
306,238,89708,2,0,P|286:214|293:176,1,45,8|0,0:0|0:0,0:0:0:0:
348,112,89850,2,0,P|366:120|414:135,1,45,8|8,0:0|0:0,0:0:0:0:
202,199,89991,5,8,0:0:0:0:
191,196,90061,1,8,0:0:0:0:
180,192,90132,1,8,0:0:0:0:
172,184,90203,1,8,0:0:0:0:
165,175,90275,6,0,L|158:140,6,22.5,8|8|8|8|8|8|8,0:0|0:0|0:0|0:0|0:0|0:0|0:0,0:0:0:0:
167,139,90558,6,0,P|117:134|46:123,1,90,4|2,1:2|0:0,0:0:0:0:
13,228,90841,2,0,P|35:271|53:315,1,90,2|0,1:2|0:0,0:0:0:0:
135,377,91124,1,2,1:2:0:0:
200,301,91265,1,2,1:2:0:0:
296,343,91407,1,0,1:0:0:0:
307,342,91477,1,0,1:0:0:0:
318,340,91548,1,0,1:0:0:0:
328,335,91619,1,0,1:0:0:0:
336,328,91690,6,0,P|315:241|305:191,1,135,0|0,1:0|0:0,0:0:0:0:
292,187,91973,2,0,P|348:173|389:161,1,90,0|0,1:0|0:0,0:0:0:0:
481,97,92256,1,0,1:0:0:0:
384,67,92397,1,0,1:0:0:0:
457,191,92539,2,0,P|468:234|486:300,1,90,0|0,1:0|1:0,0:0:0:0:
468,290,92751,1,0,1:0:0:0:
463,306,92822,6,0,P|392:331|340:351,1,90,8|0,0:0|1:0,0:0:0:0:
255,265,93105,1,0,1:0:0:0:
384,91,93246,6,0,P|371:133|374:178,1,90,8|0,0:0|1:0,0:0:0:0:
255,265,93529,1,0,1:0:0:0:
150,177,93671,5,8,0:0:0:0:
140,170,93741,1,8,0:0:0:0:
133,162,93812,1,8,0:0:0:0:
130,151,93883,1,8,0:0:0:0:
130,140,93954,5,8,0:0:0:0:
210,55,94095,1,2,0:3:0:0:
81,77,94237,5,0,1:0:0:0:
212,150,94378,1,0,1:0:0:0:
93,236,94520,2,0,P|56:244|-5:266,1,90,0|8,1:0|0:0,0:0:0:0:
22,269,94732,1,8,0:0:0:0:
35,281,94803,2,0,P|22:321|8:378,1,90,0|0,3:0|1:0,0:0:0:0:
200,371,95086,6,0,P|171:336|155:294,1,90,12|0,0:1|1:0,0:0:0:0:
133,167,95369,2,0,P|204:186|281:198,1,135,8|0,0:0|0:0,0:0:0:0:
282,186,95652,1,8,0:0:0:0:
369,274,95793,1,0,0:0:0:0:
466,209,95935,1,8,0:0:0:0:
468,198,96005,1,0,1:0:0:0:
471,187,96076,1,0,1:0:0:0:
475,176,96147,1,0,1:0:0:0:
478,165,96218,6,0,P|424:152|391:143,1,90,8|0,0:0|1:0,0:0:0:0:
286,26,96501,2,0,P|297:67|318:129,1,90,8|0,0:0|0:0,0:0:0:0:
348,212,96784,1,8,0:0:0:0:
235,188,96925,1,8,0:0:0:0:
322,297,97067,2,0,P|361:292|415:280,1,90,0|0,1:0|1:0,0:0:0:0:
422,293,97279,1,0,1:0:0:0:
432,307,97350,5,8,0:0:0:0:
489,198,97491,1,0,1:0:0:0:
489,198,97633,1,0,1:0:0:0:
367,105,97775,6,0,P|385:140|403:203,1,90,8|0,0:0|1:0,0:0:0:0:
494,111,98058,1,0,1:0:0:0:
299,62,98199,5,8,0:0:0:0:
288,56,98269,1,8,0:0:0:0:
280,49,98340,1,8,0:0:0:0:
274,40,98411,1,8,0:0:0:0:
271,29,98482,5,0,1:0:0:0:
181,96,98624,1,2,0:3:0:0:
265,184,98765,2,0,P|314:190|360:199,1,90,8|0,0:0|1:0,0:0:0:0:
173,250,99048,5,0,1:0:0:0:
119,154,99190,1,0,0:0:0:0:
119,154,99260,1,8,0:0:0:0:
119,154,99331,2,0,P|63:162|26:172,1,90,8|0,0:0|1:0,0:0:0:0:
173,250,99614,5,12,0:1:0:0:
68,334,99756,1,0,1:0:0:0:
248,296,99897,2,0,P|257:248|270:185,1,90,8|0,0:0|1:0,0:0:0:0:
186,40,100180,5,8,0:0:0:0:
302,135,100322,2,0,P|356:128|418:118,1,90,0|8,1:0|0:0,0:0:0:0:
186,180,100605,1,0,1:0:0:0:
186,180,100675,1,0,1:0:0:0:
186,180,100746,6,0,P|140:199|84:214,1,90,8|0,0:0|1:0,0:0:0:0:
87,203,100958,1,0,1:0:0:0:
79,192,101029,1,8,0:0:0:0:
178,273,101171,6,0,P|222:294|276:319,1,90,0|8,1:0|0:0,0:0:0:0:
372,260,101454,1,0,1:0:0:0:
372,260,101525,1,0,1:0:0:0:
372,260,101595,1,8,0:0:0:0:
318,371,101737,1,0,1:0:0:0:
283,231,101878,6,0,P|269:185|250:130,1,90,8|0,0:0|1:0,0:0:0:0:
462,31,102161,2,0,P|445:94|428:180,1,135,8|0,0:0|1:0,0:0:0:0:
444,172,102444,6,0,P|413:185|353:208,1,90,8|0,0:0|1:0,0:0:0:0:
303,78,102727,2,0,P|254:68|193:47,1,90,8|0,0:0|1:0,0:0:0:0:
120,176,103010,5,8,0:0:0:0:
19,88,103152,1,0,1:0:0:0:
19,88,103223,1,0,1:0:0:0:
19,88,103293,2,0,P|36:130|41:179,1,90,8|0,0:0|1:0,0:0:0:0:
163,318,103576,2,0,P|172:271|187:210,1,90,8|0,0:0|1:0,0:0:0:0:
197,222,103789,1,0,1:0:0:0:
212,212,103859,2,0,P|201:170|190:113,1,90,8|0,0:0|0:0,0:0:0:0:
301,27,104142,5,4,1:2:0:0:
312,28,104212,1,0,1:0:0:0:
323,29,104283,1,0,1:0:0:0:
334,32,104354,1,0,1:0:0:0:
345,34,104425,1,0,1:0:0:0:
356,37,104495,1,0,1:0:0:0:
366,40,104566,1,0,1:0:0:0:
377,44,104637,1,0,1:0:0:0:
387,48,104708,2,0,P|395:71|401:96,3,45,0|0|0|0,1:0|1:0|1:0|0:0,0:0:0:0:
323,108,104991,2,0,P|316:131|310:171,3,45,0|0|0|0,1:0|1:0|1:0|1:0,0:0:0:0:
378,195,105275,5,0,1:0:0:0:
398,203,105345,1,0,1:0:0:0:
415,218,105416,1,0,1:0:0:0:
427,237,105487,1,0,1:0:0:0:
432,258,105558,2,0,L|413:317,3,45,0|0|0|0,1:0|1:0|1:0|1:0,0:0:0:0:
342,315,105841,5,0,1:0:0:0:
324,329,105911,1,0,0:0:0:0:
303,336,105982,1,0,1:0:0:0:
280,337,106053,1,0,1:0:0:0:
260,330,106124,2,0,P|253:306|237:275,3,45,0|0|0|0,1:0|1:0|1:0|1:0,0:0:0:0:
310,245,106407,6,0,P|317:210|323:183,1,45,8|8,0:3|0:3,0:0:0:0:
292,127,106548,1,4,0:3:0:0:
292,127,106619,1,4,0:3:0:0:
292,127,106690,1,4,0:3:0:0:
166,274,106831,1,0,1:0:0:0:
118,68,106973,6,0,P|155:79|190:84,1,45,8|8,0:3|0:3,0:0:0:0:
213,150,107114,1,0,1:0:0:0:
198,154,107184,1,0,1:0:0:0:
185,160,107255,1,0,1:0:0:0:
172,168,107326,1,0,1:0:0:0:
160,177,107397,1,0,1:0:0:0:
150,188,107467,1,0,1:0:0:0:
141,200,107539,6,0,P|251:223|319:337,1,236.250009012223,4|0,1:2|0:0,0:0:0:0:
326,332,108105,6,0,P|335:294|342:252,1,45,8|8,0:0|0:0,0:0:0:0:
227,360,108246,2,0,P|236:322|243:280,1,45,8|8,0:0|0:0,0:0:0:0:
135,323,108388,6,0,P|141:301|146:279,1,45,8|8,0:0|0:0,0:0:0:0:
36,351,108529,2,0,P|42:329|47:307,1,45,8|8,0:0|0:0,0:0:0:0:
62,217,108671,6,0,P|48:154|24:66,1,135,6|0,1:0|0:0,0:0:0:0:
38,77,108954,1,2,0:0:0:0:
49,76,109024,1,2,0:0:0:0:
60,77,109095,1,2,0:0:0:0:
70,81,109166,1,2,0:0:0:0:
80,87,109237,2,0,P|119:71|153:58,1,45,8|0,0:0|0:0,0:0:0:0:
178,159,109378,2,0,P|204:167|230:173,1,45,2|0,0:3|0:0,0:0:0:0:
321,100,109520,1,2,0:0:0:0:
318,89,109590,1,2,0:0:0:0:
315,78,109661,1,2,1:2:0:0:
311,67,109732,1,0,0:0:0:0:
306,57,109803,6,0,P|314:23|320:0,3,45,2|2|2|2,0:0|0:0|0:0|0:0,0:0:0:0:
224,63,110086,2,0,P|232:29|238:6,3,45,2|0|2|2,1:2|0:0|0:0|0:0,0:0:0:0:
165,116,110369,2,0,P|178:158|195:222,1,90,10|2,0:0|0:0,0:0:0:0:
184,217,110581,1,2,0:0:0:0:
177,231,110652,2,0,P|258:207|344:190,1,135,2|0,0:3|0:0,0:0:0:0:
388,206,110935,6,0,B|395:191|395:191|370:157,1,45,2|0,0:1|0:0,0:0:0:0:
442,70,111076,2,0,P|420:67|383:57,1,45,2|0,0:1|0:0,0:0:0:0:
275,39,111218,1,2,0:1:0:0:
275,39,111289,1,0,3:0:0:0:
275,39,111359,2,0,P|285:71|295:103,1,45,0|0,1:0|0:0,0:0:0:0:
378,168,111501,6,0,P|361:224|349:277,1,90,8|0,0:0|3:0,0:0:0:0:
346,268,111713,1,0,3:0:0:0:
332,273,111784,2,0,L|268:248,1,45,2|2,1:2|0:0,0:0:0:0:
445,236,111925,2,0,P|449:263|463:303,2,45,2|2|2,0:0|0:0|1:2,0:0:0:0:
390,328,112208,5,2,0:0:0:0:
353,365,112302,5,2,0:0:0:0:
299,362,112397,5,2,0:0:0:0:
246,308,112491,6,0,P|241:280|231:245,1,45,2|0,1:2|0:0,0:0:0:0:
287,158,112633,6,0,P|237:153|145:135,1,135,8|2,0:0|0:0,0:0:0:0:
141,128,112916,2,0,B|72:169|72:169|124:218,1,135,2|0,1:3|0:0,0:0:0:0:
169,258,113199,6,0,B|212:211|212:211|76:83|76:83|155:39,1,315,0|0,1:0|0:0,0:0:0:0:
210,69,113765,6,0,P|218:39|227:6,1,45,2|0,1:3|0:0,0:0:0:0:
305,95,113907,2,0,P|310:115|318:149,1,45,2|0,0:0|0:0,0:0:0:0:
403,46,114048,1,2,1:2:0:0:
412,52,114118,1,2,0:0:0:0:
422,57,114189,1,2,0:0:0:0:
432,62,114260,1,2,0:0:0:0:
443,65,114331,6,0,P|447:24|461:-4,2,60,2|2|2,1:2|0:0|0:0,0:0:0:0:
398,129,114614,5,2,0:0:0:0:
408,142,114685,1,2,0:0:0:0:
422,151,114756,1,2,0:0:0:0:
403,256,114897,6,0,P|337:266|261:284,1,135,8|0,0:0|0:0,0:0:0:0:
260,295,115180,2,0,B|216:261|216:261|231:175,1,135,2|0,1:2|0:0,0:0:0:0:
218,103,115463,6,0,P|198:113|158:126,1,45,0|0,1:2|0:0,0:0:0:0:
110,60,115605,1,2,0:0:0:0:
110,60,115675,1,2,0:0:0:0:
110,60,115746,2,0,P|104:28|101:-27,1,45,2|2,0:0|0:0,0:0:0:0:
214,24,115888,2,0,P|242:30|277:36,1,45,2|2,1:2|0:0,0:0:0:0:
98,136,116029,6,0,P|88:193|74:250,1,90,8|0,0:0|3:0,0:0:0:0:
91,237,116241,1,0,3:0:0:0:
104,247,116312,2,0,P|66:275|39:326,1,90,0|2,1:0|0:3,0:0:0:0:
176,291,116595,5,2,0:0:0:0:
184,299,116665,1,2,0:0:0:0:
194,305,116736,1,2,0:0:0:0:
204,310,116807,1,2,0:0:0:0:
215,313,116878,5,2,1:2:0:0:
228,263,116972,5,2,0:0:0:0:
276,239,117067,5,2,0:0:0:0:
344,282,117161,6,0,B|365:289|365:289|452:252|452:252|474:261,2,135,10|0|0,0:0|0:0|0:0,0:0:0:0:
387,363,117727,6,0,B|392:327|420:309|420:309|329:153,1,202.500007724762,2|0,1:3|0:0,0:0:0:0:
285,144,118010,2,0,B|269:148|255:131|255:131|281:127|286:144,1,67.5000025749208,2|0,0:1|0:0,0:0:0:0:
509,45,118293,6,0,P|448:36|391:14,1,90,12|0,0:0|3:0,0:0:0:0:
441,171,118576,1,0,1:2:0:0:
441,171,118647,1,0,3:0:0:0:
441,171,118718,2,0,P|486:160|507:151,1,45
421,27,118859,6,0,P|413:54|404:94,1,45,0|0,1:0|0:0,0:0:0:0:
337,108,119001,1,0,3:0:0:0:
326,104,119071,1,0,0:0:0:0:
316,99,119142,1,0,1:0:0:0:
308,91,119213,1,0,3:0:0:0:
303,81,119284,1,0,1:0:0:0:
161,31,119425,6,0,P|175:58|188:96,1,45,0|0,1:0|0:0,0:0:0:0:
166,182,119567,2,0,P|138:179|103:176,1,45,0|0,3:0|3:0,0:0:0:0:
49,213,119708,6,0,B|35:199|35:199|42:159,1,45,0|0,1:0|0:0,0:0:0:0:
42,53,119850,2,0,P|72:60|100:64,1,45,0|0,1:0|0:0,0:0:0:0:
166,182,119991,6,0,P|142:280|139:334,1,135,2|0,1:3|0:0,0:0:0:0:
129,330,120275,2,0,P|181:321|229:309,1,90,0|0,1:0|1:0,0:0:0:0:
373,223,120558,6,0,P|363:261|357:292,1,45,0|0,1:0|0:0,0:0:0:0:
292,366,120699,1,0,3:0:0:0:
292,366,120770,1,0,3:0:0:0:
292,366,120841,2,0,P|342:351|403:338,1,90,0|0,1:0|3:0,0:0:0:0:
302,182,121124,6,0,P|270:191|235:196,1,45,0|0,1:0|0:0,0:0:0:0:
457,262,121265,1,0,3:0:0:0:
457,262,121336,1,0,3:0:0:0:
457,262,121407,2,0,P|468:202|482:152,1,90,0|0,1:0|3:0,0:0:0:0:
486,161,121619,1,0,3:0:0:0:
502,156,121690,5,0,1:0:0:0:
388,114,121831,1,0,3:0:0:0:
510,24,121973,2,0,P|465:34|388:45,1,90,0|0,1:0|0:0,0:0:0:0:
315,153,122256,6,0,P|309:183|300:224,1,45,8|0,0:0|0:0,0:0:0:0:
179,108,122397,1,8,0:0:0:0:
179,108,122468,1,0,0:0:0:0:
179,108,122539,2,0,P|218:100|295:80,1,90,8|2,0:0|0:3,0:0:0:0:
257,256,122822,6,0,B|237:245|237:245|228:210,1,45,8|0,0:0|0:0,0:0:0:0:
86,82,122963,1,8,0:0:0:0:
86,82,123034,1,0,0:0:0:0:
86,82,123105,2,0,P|100:144|106:182,1,90,8|2,0:0|0:3,0:0:0:0:
122,322,123388,6,0,P|96:314|41:301,1,45,8|0,0:0|0:0,0:0:0:0:
18,195,123529,1,8,0:0:0:0:
18,195,123600,1,0,0:0:0:0:
18,195,123671,2,0,P|55:187|123:161,1,90,8|2,0:0|0:0,0:0:0:0:
231,223,123954,6,0,P|226:245|215:297,1,45,10|0,0:0|0:0,0:0:0:0:
316,168,124095,2,0,P|311:146|300:94,1,45,10|0,0:0|0:0,0:0:0:0:
138,99,124237,2,0,P|198:113|253:129,1,90,8|0,0:0|1:0,0:0:0:0:
348,241,124520,5,8,0:0:0:0:
358,238,124590,1,8,0:0:0:0:
368,233,124661,1,8,0:0:0:0:
377,225,124732,1,8,0:0:0:0:
383,216,124803,1,8,0:0:0:0:
399,81,124944,5,8,0:0:0:0:
412,85,125014,1,8,0:0:0:0:
424,91,125085,1,8,0:0:0:0:
435,99,125156,1,8,0:0:0:0:
443,109,125227,1,8,0:0:0:0:
506,198,125369,5,8,0:0:0:0:
490,208,125439,1,8,0:0:0:0:
477,222,125510,1,8,0:0:0:0:
469,239,125581,1,8,0:0:0:0:
464,257,125652,5,0,1:0:0:0:
512,347,125793,1,0,1:0:0:0:
512,347,125864,1,0,0:0:0:0:
512,347,125935,2,0,P|483:342|446:341,1,45,0|0,1:0|0:0,0:0:0:0:
384,279,126076,2,0,P|368:287|325:300,1,45,0|0,3:0|3:0,0:0:0:0:
272,358,126218,5,0,3:0:0:0:
166,317,126359,1,0,1:0:0:0:
277,252,126501,5,8,0:0:0:0:
236,86,126784,5,4,0:0:0:0:
236,86,135841,6,0,P|228:134|224:166,2,67.5000025749208,2|0|2,1:3|0:0|0:0,0:0:0:0:
158,54,136265,2,0,P|222:40|301:11,1,135.000005149842,2|2,0:0|0:0,0:0:0:0:
417,59,136690,2,0,P|406:97|392:156,1,67.5000025749208,2|0,0:0|0:0,0:0:0:0:
333,250,136973,6,0,P|304:233|294:189,1,67.5000025749208,2|0,0:0|0:0,0:0:0:0:
318,126,137256,1,2,1:2:0:0:
449,187,137397,2,0,P|418:257|412:327,1,135.000005149842,0|2,0:0|1:3,0:0:0:0:
297,372,137822,2,0,P|281:326|266:288,1,67.5000025749208
162,235,138105,6,0,P|242:215|313:195,1,135.000005149842,2|0,1:2|0:0,0:0:0:0:
194,317,138529,2,0,P|136:311|41:302,1,135.000005149842,2|2,0:0|0:0,0:0:0:0:
89,200,138954,2,0,P|56:170|48:126,1,67.5000025749208,2|0,0:0|0:0,0:0:0:0:
158,48,139237,5,2,1:2:0:0:
60,13,139378,2,0,P|76:54|81:88,1,67.5000025749208,2|0,0:0|0:0,0:0:0:0:
89,200,139661,1,2,0:0:0:0:
196,119,139803,2,0,P|239:106|268:99,2,67.5000025749208,2|2|0,0:0|1:2|0:0,0:0:0:0:
196,119,140369,6,0,P|273:138|332:160,1,135.000005149842,2|2,1:2|0:0,0:0:0:0:
429,236,140793,2,0,P|415:170|388:78,1,135.000005149842,2|2,0:0|0:0,0:0:0:0:
377,20,141218,2,0,P|417:28|456:33,1,67.5000025749208,2|0,0:0|0:0,0:0:0:0:
305,61,141501,5,0,0:0:0:0:
325,157,141642,2,0,P|311:191|293:250,2,67.5000025749208,2|2|2,0:0|1:2|0:0,0:0:0:0:
233,163,142067,1,2,0:0:0:0:
390,215,142208,2,0,P|430:205|467:195,1,67.5000025749208,2|0,1:2|0:0,0:0:0:0:
318,301,142491,1,2,0:0:0:0:
420,358,142633,6,0,P|410:325|400:293,2,67.5000025749208,2|2|2,1:2|0:0|0:0,0:0:0:0:
191,300,143199,2,0,P|196:262|204:221,1,67.5000025749208,2|2,0:0|0:0,0:0:0:0:
141,117,143482,2,0,P|111:126|52:139,1,67.5000025749208,2|2,0:0|0:0,0:0:0:0:
47,253,143765,6,0,P|85:263|125:283,1,67.5000025749208,2|0,1:2|0:0,0:0:0:0:
161,375,144048,1,2,0:0:0:0:
275,297,144190,1,2,0:0:0:0:
201,233,144331,5,0,1:0:0:0:
201,233,144402,1,0,3:0:0:0:
201,233,144473,1,0,1:0:0:0:
355,277,144614,6,0,L|362:256,6,16.8750006437302,0|0|0|0|0|0|0,1:0|0:0|1:0|0:0|1:0|0:0|1:0,0:0:0:0:
344,274,144897,6,0,P|327:209|319:164,1,101.250003862381,6|0,1:2|0:0,0:0:0:0:
330,158,145180,1,0,0:0:0:0:
232,86,145322,6,0,P|252:115|266:158,1,45,0|0,1:0|0:0,0:0:0:0:
280,23,145463,2,0,P|262:65|222:216,1,180,8|0,0:0|0:0,0:0:0:0:
225,194,146029,6,0,B|167:209|167:209|121:183,1,101.250003862381,0|0,1:0|0:0,0:0:0:0:
127,174,146312,1,0,0:0:0:0:
144,62,146454,6,0,P|160:89|181:139,1,45,0|0,1:0|0:0,0:0:0:0:
225,194,146595,2,0,P|252:101|271:59,1,135,8|0,0:0|0:0,0:0:0:0:
263,51,146878,2,0,B|336:96|336:96|351:73|388:65,1,135,0|0,1:0|0:0,0:0:0:0:
399,142,147161,6,0,P|416:200|437:249,1,101.250003862381,0|0,1:0|0:0,0:0:0:0:
447,246,147444,1,0,0:0:0:0:
422,337,147586,6,0,P|405:346|368:358,1,45,0|0,1:0|0:0,0:0:0:0:
307,317,147727,2,0,B|268:281|268:281|321:160,1,180,8|0,0:0|0:0,0:0:0:0:
318,164,148293,6,0,P|262:138|223:86,1,101.250003862381,0|0,1:0|0:0,0:0:0:0:
239,90,148576,1,0,0:0:0:0:
380,61,148718,6,0,P|370:94|365:122,1,45,0|0,1:0|0:0,0:0:0:0:
318,164,148859,2,0,P|272:180|185:212,1,135,8|0,0:0|0:0,0:0:0:0:
186,224,149142,2,0,B|113:175|113:175|133:125,1,135,0|0,1:0|0:0,0:0:0:0:
169,48,149425,6,0,B|110:55|50:23|50:23|80:46|83:82,1,180,8|0,0:0|3:0,0:0:0:0:
259,110,149850,2,0,P|264:83|270:58,1,45,0|0,1:0|0:0,0:0:0:0:
169,48,149991,6,0,P|148:126|123:234,1,180,8|0,0:0|0:0,0:0:0:0:
125,222,150558,6,0,B|154:257|160:312|160:312|176:261|228:251,1,180,8|0,0:0|3:0,0:0:0:0:
0,245,150982,2,0,P|21:250|43:257,1,45,0|0,1:0|0:0,0:0:0:0:
125,222,151124,6,0,P|83:176|100:88,1,135,8|0,0:0|0:0,0:0:0:0:
86,90,151407,2,0,P|144:100|228:112,1,135,0|0,1:0|0:0,0:0:0:0:
291,163,151690,6,0,P|301:107|323:54,1,90,8|0,0:0|0:0,0:0:0:0:
401,85,151973,1,8,0:0:0:0:
476,12,152114,1,0,1:0:0:0:
476,117,152256,6,0,P|489:166|497:208,1,90,8|0,0:0|0:0,0:0:0:0:
403,293,152539,2,0,P|367:279|308:260,1,90,8|0,0:0|0:0,0:0:0:0:
180,215,152822,6,0,P|169:185|159:154,1,45,8|0,0:0|0:0,0:0:0:0:
253,313,152963,2,0,P|247:335|238:364,1,45,8|0,0:0|0:0,0:0:0:0:
258,194,153105,6,0,P|290:189|321:181,1,45,8|0,0:0|0:0,0:0:0:0:
174,293,153246,2,0,P|142:288|111:280,1,45,8|0,0:0|0:0,0:0:0:0:
329,362,153388,5,8,0:0:0:0:
332,351,153458,1,8,0:0:0:0:
336,341,153529,1,8,0:0:0:0:
343,331,153600,1,8,0:0:0:0:
352,322,153671,5,8,0:0:0:0:
373,316,153741,1,8,0:0:0:0:
393,305,153812,1,8,0:0:0:0:
408,288,153883,1,8,0:0:0:0:
418,268,153954,6,0,P|428:303|435:326,2,45,4|0|2,1:2|0:0|0:0,0:0:0:0:
328,199,154237,1,2,0:0:0:0:
425,131,154378,1,2,0:0:0:0:
425,131,154449,1,2,0:0:0:0:
425,131,154520,2,0,P|460:141|487:145,2,45,10|2|0,0:0|0:0|0:0,0:0:0:0:
288,63,154803,1,2,0:0:0:0:
295,71,154873,1,2,0:0:0:0:
301,80,154944,1,2,0:0:0:0:
305,91,155015,1,2,0:0:0:0:
308,102,155086,6,0,L|251:121,2,45,2|2|2,1:2|0:0|0:0,0:0:0:0:
328,199,155369,1,0,0:0:0:0:
233,255,155510,1,0,0:0:0:0:
233,255,155581,1,2,0:0:0:0:
233,255,155652,2,0,P|254:286|258:317,2,45,10|2|0,0:0|0:0|0:0,0:0:0:0:
109,206,155935,1,2,0:0:0:0:
98,202,156005,1,2,0:0:0:0:
89,196,156076,1,2,0:0:0:0:
83,186,156147,1,2,0:0:0:0:
82,175,156218,6,0,P|53:169|29:164,2,45,2|2|2,1:2|0:0|0:0,0:0:0:0:
150,278,156501,1,2,0:0:0:0:
230,168,156642,1,2,0:0:0:0:
230,168,156713,1,2,0:0:0:0:
230,168,156784,2,0,P|237:128|243:107,2,45,10|2|0,0:0|0:0|0:0,0:0:0:0:
99,96,157067,1,2,0:0:0:0:
96,85,157137,1,2,0:0:0:0:
93,74,157208,1,2,0:0:0:0:
89,63,157279,1,2,0:0:0:0:
85,53,157350,6,0,P|55:47|36:39,2,45,2|2|2,1:2|0:0|0:0,0:0:0:0:
197,11,157633,1,2,0:0:0:0:
238,123,157775,2,0,P|272:115|301:109,1,45,2|2,0:0|0:0,0:0:0:0:
371,58,157916,2,0,P|337:50|308:44,1,45,10|2,0:0|0:0,0:0:0:0:
350,155,158058,1,2,0:0:0:0:
488,99,158199,1,2,0:0:0:0:
490,87,158269,1,2,0:0:0:0:
492,77,158340,1,2,0:0:0:0:
496,66,158411,1,2,0:0:0:0:
500,55,158482,5,0,1:0:0:0:
500,329,158765,5,0,1:0:0:0:
500,55,159048,5,8,0:0:0:0:
500,329,159331,5,0,1:0:0:0:
500,55,159614,5,0,1:0:0:0:
500,329,159897,5,0,1:0:0:0:
500,55,160180,5,8,0:0:0:0:
500,329,160463,5,0,1:0:0:0:
504,135,160746,5,0,1:0:0:0:
504,249,160888,1,0,1:0:0:0:
421,146,161029,5,0,1:0:0:0:
421,260,161171,1,0,1:0:0:0:
338,153,161312,6,0,L|349:94,1,45,0|0,1:0|1:0,0:0:0:0:
338,267,161454,2,0,L|329:311,1,45,8|8,0:0|0:0,0:0:0:0:
255,158,161595,6,0,L|266:99,1,45,0|0,1:0|1:0,0:0:0:0:
255,272,161737,2,0,L|246:316,1,45,0|0,1:0|1:0,0:0:0:0:
124,237,161878,6,0,P|96:139|64:43,1,202.500007724762,2|0,0:0|3:0,0:0:0:0:
64,43,162444,6,0,P|95:31|134:20,1,45,8|0,0:0|0:0,0:0:0:0:
216,52,162586,2,0,B|229:76|229:76|215:116,1,45,8|0,0:0|0:0,0:0:0:0:
239,174,162727,6,0,P|209:170|170:162,1,45,8|0,0:0|0:0,0:0:0:0:
124,237,162869,2,0,B|111:261|111:261|125:301,1,45,8|0,0:0|0:0,0:0:0:0:
204,335,163010,6,0,P|134:323|7:309,1,161.999995056153,6|0,1:0|3:0,0:0:0:0:
32,234,163293,2,0,P|50:203|61:171,1,53.9999983520508,0|0,1:0|0:0,0:0:0:0:
10,75,163435,2,0,P|36:80|63:84,1,53.9999983520508,0|0,0:0|3:0,0:0:0:0:
141,181,163576,5,0,1:0:0:0:
154,178,163647,1,0,3:0:0:0:
167,174,163718,1,0,3:0:0:0:
179,170,163789,1,0,3:0:0:0:
192,164,163859,1,0,1:0:0:0:
203,157,163930,1,0,3:0:0:0:
214,150,164000,1,0,3:0:0:0:
225,141,164072,1,0,3:0:0:0:
235,132,164142,6,0,B|211:191|219:228|219:228|266:240|279:285,1,161.999995056153,0|0,1:0|3:0,0:0:0:0:
339,303,164425,2,0,P|359:289|364:250,1,53.9999983520508,0|0,1:0|0:0,0:0:0:0:
500,183,164567,2,0,P|470:176|442:162,1,53.9999983520508,2|0,3:0|0:0,0:0:0:0:
300,82,164708,5,0,1:0:0:0:
369,182,164850,1,0,3:0:0:0:
468,56,164991,2,0,P|413:44|343:26,1,107.999996704102,0|0,1:0|0:0,0:0:0:0:
291,160,165275,6,0,P|275:232|259:335,1,161.999995056153,0|0,1:0|3:0,0:0:0:0:
198,365,165558,2,0,B|179:351|179:351|181:301,1,53.9999983520508,0|0,1:0|0:0,0:0:0:0:
50,268,165699,2,0,P|77:260|105:246,1,53.9999983520508,0|0,3:0|3:0,0:0:0:0:
200,195,165841,1,0,1:0:0:0:
186,193,165911,1,0,3:0:0:0:
173,191,165982,1,0,3:0:0:0:
160,187,166053,1,0,3:0:0:0:
148,181,166124,1,0,1:0:0:0:
136,174,166194,1,0,3:0:0:0:
125,166,166265,1,0,3:0:0:0:
115,157,166336,1,0,3:0:0:0:
106,147,166407,6,0,B|79:73|79:73|176:10,1,161.999995056153,0|0,1:0|3:0,0:0:0:0:
221,57,166690,2,0,P|229:87|238:119,1,53.9999983520508,0|0,1:0|0:0,0:0:0:0:
165,211,166831,2,0,P|134:221|94:235,1,53.9999983520508,0|0,3:0|3:0,0:0:0:0:
25,171,166973,5,0,1:0:0:0:
177,305,167114,1,0,1:0:0:0:
177,305,167185,1,0,1:0:0:0:
177,305,167256,1,0,1:0:0:0:
37,249,167397,1,0,1:0:0:0:
165,211,167539,6,0,P|245:226|338:243,1,161.999995056153,0|0,1:0|3:0,0:0:0:0:
393,278,167822,2,0,B|413:253|413:253|386:163,1,107.999996704102,0|0,1:0|3:0,0:0:0:0:
341,17,168105,2,0,P|330:44|315:92,1,53.9999983520508,0|0,1:0|3:0,0:0:0:0:
254,122,168246,1,0,3:0:0:0:
254,122,168317,1,0,3:0:0:0:
254,122,168388,1,0,1:0:0:0:
407,73,168529,1,0,1:0:0:0:
307,186,168671,6,0,P|326:262|344:358,1,161.999995056153,0|0,1:0|0:0,0:0:0:0:
417,378,168954,2,0,P|470:332|461:283,1,107.999996704102,0|0,1:0|0:0,0:0:0:0:
386,150,169237,6,0,P|416:165|443:171,1,53.9999983520508,0|0,1:0|0:0,0:0:0:0:
475,60,169378,1,0,1:0:0:0:
475,60,169449,1,0,1:0:0:0:
475,60,169520,1,0,1:0:0:0:
334,89,169661,1,0,0:0:0:0:
435,169,169803,6,0,P|373:194|311:281,1,161.999995056153,4|0,1:2|3:0,0:0:0:0:
249,321,170086,2,0,P|241:296|220:249,1,53.9999983520508,0|0,1:0|0:0,0:0:0:0:
238,168,170227,2,0,P|193:153|115:127,1,107.999996704102,0|0,0:0|1:0,0:0:0:0:
34,218,170510,2,0,P|42:242|48:274,1,53.9999983520508,0|0,3:0|3:0,0:0:0:0:
159,319,170652,1,0,1:0:0:0:
159,319,170723,1,2,0:0:0:0:
159,319,170793,1,0,3:0:0:0:
238,168,170935,6,0,P|251:80|269:-1,1,161.999995056153,0|0,1:0|3:0,0:0:0:0:
183,20,171218,2,0,P|154:33|81:42,1,53.9999983520508,0|0,1:0|0:0,0:0:0:0:
330,107,171359,2,0,P|348:124|392:141,1,53.9999983520508,2|0,0:0|0:0,0:0:0:0:
173,218,171501,1,8,0:0:0:0:
170,231,171571,1,8,0:0:0:0:
171,244,171642,1,8,0:0:0:0:
176,257,171713,1,8,0:0:0:0:
185,267,171784,2,0,P|237:244|310:226,1,107.999996704102,8|0,0:0|1:0,0:0:0:0:
383,331,172067,6,0,P|388:298|465:157,1,161.999995056153,4|0,1:0|3:0,0:0:0:0:
373,137,172350,2,0,P|363:111|334:54,1,53.9999983520508,0|0,1:0|0:0,0:0:0:0:
426,19,172491,2,0,P|444:30|481:42,1,53.9999983520508,0|0,3:0|3:0,0:0:0:0:
286,143,172633,1,0,1:0:0:0:
272,142,172703,1,0,3:0:0:0:
259,141,172774,1,0,3:0:0:0:
245,138,172845,1,0,3:0:0:0:
233,133,172916,1,0,1:0:0:0:
221,128,172986,1,0,3:0:0:0:
209,120,173057,1,0,3:0:0:0:
199,112,173128,1,0,3:0:0:0:
189,102,173199,6,0,B|137:126|137:172|137:172|167:206|153:251,1,161.999995056153,0|0,1:0|3:0,0:0:0:0:
88,277,173482,2,0,B|65:274|65:274|38:224,1,53.9999983520508,0|0,1:0|0:0,0:0:0:0:
10,124,173624,2,0,P|30:136|61:144,1,53.9999983520508,0|0,3:0|0:0,0:0:0:0:
229,174,173765,5,0,1:0:0:0:
241,40,173907,1,0,3:0:0:0:
241,40,173977,1,0,3:0:0:0:
241,40,174048,2,0,P|302:24|370:-2,1,107.999996704102,0|2,1:0|3:0,0:0:0:0:
445,143,174331,6,0,P|469:201|492:311,1,161.999995056153,0|0,1:0|3:0,0:0:0:0:
435,351,174614,2,0,B|418:343|418:343|408:292,1,53.9999983520508,0|0,1:0|3:0,0:0:0:0:
290,193,174756,2,0,P|326:203|342:205,1,53.9999983520508,0|0,3:0|0:0,0:0:0:0:
329,319,174897,5,0,1:0:0:0:
316,323,174967,1,0,3:0:0:0:
303,327,175038,1,0,3:0:0:0:
291,333,175109,1,0,3:0:0:0:
279,339,175180,1,0,1:0:0:0:
267,346,175250,1,0,3:0:0:0:
256,353,175321,1,0,3:0:0:0:
245,361,175392,1,0,3:0:0:0:
235,370,175463,6,0,P|200:274|136:214,1,161.999995056153,0|0,1:0|3:0,0:0:0:0:
95,278,175746,2,0,B|77:260|77:260|81:206,1,53.9999983520508,0|0,1:0|0:0,0:0:0:0:
149,128,175888,2,0,P|178:137|211:142,1,53.9999983520508,0|0,3:0|3:0,0:0:0:0:
379,232,176029,6,0,P|387:202|401:162,1,53.9999983520508,0|0,1:0|3:0,0:0:0:0:
320,75,176171,1,0,3:0:0:0:
320,75,176241,1,0,3:0:0:0:
320,75,176312,2,0,P|294:86|243:99,1,53.9999983520508,0|0,1:2|0:0,0:0:0:0:
250,209,176454,2,0,P|278:224|310:251,1,53.9999983520508
464,141,176595,6,0,P|447:84|440:22,1,107.999996704102,8|2,0:0|3:0,0:0:0:0:
427,23,176808,1,0,3:0:0:0:
410,15,176878,2,0,P|363:45|300:88,1,107.999996704102,0|0,1:2|1:0,0:0:0:0:
250,209,177161,6,0,P|233:266|226:328,1,107.999996704102,0|0,1:0|1:0,0:0:0:0:
213,327,177374,1,2,0:0:0:0:
196,335,177444,2,0,P|157:325|138:282,1,53.9999983520508,0|0,1:0|3:0,0:0:0:0:
49,287,177586,2,0,P|43:260|23:220,1,53.9999983520508,0|0,3:0|3:0,0:0:0:0:
59,94,177727,6,0,B|114:88|156:130|156:130|155:169|185:190,1,161.999995056153,0|0,1:0|3:0,0:0:0:0:
250,209,178010,2,0,P|274:189|294:155,1,53.9999983520508,0|0,1:0|0:0,0:0:0:0:
313,62,178152,2,0,P|273:56|243:47,1,53.9999983520508,0|0,3:0|1:0,0:0:0:0:
369,181,178293,6,0,P|380:233|402:292,1,107.999996704102,0|0,1:0|1:0,0:0:0:0:
461,107,178576,2,0,P|471:51|488:3,1,107.999996704102,4|0,1:2|0:0,0:0:0:0:
313,62,178859,6,0,P|222:88|206:181,1,161.999995056153,0|0,1:0|3:0,0:0:0:0:
239,213,179142,2,0,P|272:217|309:232,1,53.9999983520508,0|0,1:0|0:0,0:0:0:0:
158,308,179284,2,0,B|136:296|136:296|127:228,1,53.9999983520508,0|0,1:0|3:0,0:0:0:0:
11,211,179425,5,0,1:0:0:0:
117,132,179567,1,0,1:0:0:0:
117,132,179638,1,2,0:0:0:0:
117,132,179708,1,0,1:0:0:0:
54,282,179850,1,0,1:0:0:0:
242,296,179991,5,0,1:0:0:0:
252,303,180061,1,0,1:0:0:0:
261,313,180132,1,0,1:0:0:0:
268,325,180203,1,0,1:0:0:0:
271,338,180275,5,0,1:0:0:0:
297,336,180345,1,0,1:0:0:0:
323,327,180416,1,0,1:0:0:0:
344,311,180487,1,0,1:0:0:0:
360,289,180558,5,0,1:0:0:0:
366,249,180628,1,0,1:0:0:0:
390,217,180699,1,0,1:0:0:0:
427,201,180770,1,0,1:0:0:0:
466,204,180841,5,2,0:0:0:0:
221,209,181124,6,0,P|202:126|184:36,1,161.999995056153,2|0,1:0|0:0,0:0:0:0:
254,11,181407,2,0,B|302:22|302:22|276:99,1,107.999996704102,2|0,1:2|3:0,0:0:0:0:
306,220,181690,6,0,P|238:239|135:278,1,161.999995056153,0|0,1:0|3:0,0:0:0:0:
91,215,181973,2,0,B|65:184|65:184|118:116,1,107.999996704102,2|0,1:2|3:0,0:0:0:0:
215,127,182256,5,0,1:0:0:0:
80,32,182397,1,0,3:0:0:0:
80,32,182468,1,0,3:0:0:0:
80,32,182539,2,0,P|131:42|210:53,1,107.999996704102,2|0,1:2|3:0,0:0:0:0:
330,8,182822,6,0,P|311:48|294:132,1,107.999996704102,0|0,1:0|3:0,0:0:0:0:
305,124,183034,1,0,3:0:0:0:
318,135,183105,2,0,P|352:120|386:110,1,53.9999983520508,2|0,1:2|0:0,0:0:0:0:
435,194,183246,2,0,P|419:230|405:264,1,53.9999983520508,0|0,1:0|1:0,0:0:0:0:
311,312,183388,6,0,P|229:292|127:273,1,161.999995056153,4|0,1:2|3:0,0:0:0:0:
86,324,183671,2,0,B|43:286|43:286|67:229,1,107.999996704102,2|0,1:2|3:0,0:0:0:0:
227,209,183954,6,0,P|212:129|198:49,1,161.999995056153,0|0,1:0|3:0,0:0:0:0:
125,18,184237,2,0,B|83:41|83:41|98:119,1,107.999996704102,2|0,1:2|0:0,0:0:0:0:
141,199,184520,5,2,3:0:0:0:
299,117,184661,1,0,3:0:0:0:
299,117,184732,1,0,3:0:0:0:
299,117,184803,2,0,P|355:104|417:90,1,107.999996704102,2|0,1:2|1:0,0:0:0:0:
227,209,185086,5,0,1:0:0:0:
176,86,185227,1,0,1:0:0:0:
141,199,185369,5,2,1:2:0:0:
251,52,185510,1,0,1:0:0:0:
81,137,185652,6,0,P|96:188|122:298,1,161.999995056153,4|0,1:2|3:0,0:0:0:0:
186,351,185935,2,0,P|245:306|243:260,1,107.999996704102,2|0,1:2|3:0,0:0:0:0:
397,214,186218,6,0,B|431:159|431:159|342:84,1,161.999995056153,0|0,1:2|3:0,0:0:0:0:
352,14,186501,2,0,P|304:34|224:58,1,107.999996704102,2|0,1:2|3:0,0:0:0:0:
322,172,186784,5,0,1:0:0:0:
186,108,186925,1,0,3:0:0:0:
186,108,186996,1,0,3:0:0:0:
186,108,187067,2,0,P|201:156|217:219,1,107.999996704102,2|0,1:2|3:0,0:0:0:0:
245,359,187350,6,0,P|252:316|301:250,1,107.999996704102,0|0,1:0|3:0,0:0:0:0:
301,254,187562,1,0,3:0:0:0:
316,245,187633,2,0,L|293:184,1,53.9999983520508,2|0,1:2|0:0,0:0:0:0:
127,267,187775,2,0,P|163:280|190:290,1,53.9999983520508,0|0,3:0|0:0,0:0:0:0:
331,344,187916,6,0,P|392:321|445:303,1,107.999996704102,4|0,1:2|0:0,0:0:0:0:
443,227,188128,2,0,B|410:194|410:194|453:126,1,107.999996704102,0|0,1:0|0:0,0:0:0:0:
470,69,188341,2,0,P|437:54|408:36,1,53.9999983520508,0|0,1:0|0:0,0:0:0:0:
298,31,188482,6,0,P|324:19|367:12,1,53.9999983520508,0|0,1:0|0:0,0:0:0:0:
329,187,188624,1,0,1:0:0:0:
329,187,188694,1,0,1:0:0:0:
329,187,188765,2,0,P|288:178|266:175,1,53.9999983520508,0|0,1:0|0:0,0:0:0:0:
200,30,188907,2,0,P|219:59|228:89,1,53.9999983520508,0|0,1:0|0:0,0:0:0:0:
327,108,189048,6,0,P|294:193|281:275,2,161.999995056153,0|0|0,1:0|1:0|1:0,0:0:0:0:
178,144,189614,1,0,1:0:0:0:
151,137,189684,1,0,1:0:0:0:
130,121,189755,1,0,1:0:0:0:
116,98,189826,1,0,1:0:0:0:
113,71,189897,1,2,1:3:0:0:
82,251,190180,5,0,1:0:0:0:
92,259,190250,1,0,1:0:0:0:
100,270,190321,1,0,1:0:0:0:
104,283,190392,1,0,1:0:0:0:
106,296,190463,5,0,1:0:0:0:
177,364,190605,1,0,1:0:0:0:
271,288,190746,2,0,P|281:230|293:156,1,107.999996704102,0|0,1:0|1:0,0:0:0:0:
418,87,191029,1,0,1:0:0:0:
391,80,191099,1,0,1:0:0:0:
368,67,191170,1,0,1:0:0:0:
349,48,191241,1,0,1:0:0:0:
335,25,191312,5,0,1:0:0:0:
329,37,191382,1,0,1:0:0:0:
324,49,191453,1,0,1:0:0:0:
320,62,191524,1,0,1:0:0:0:
317,76,191595,5,0,1:0:0:0:
371,204,191737,1,0,1:0:0:0:
228,129,191878,2,0,P|206:137|167:148,2,53.9999983520508,0|0|0,1:0|1:0|1:0,0:0:0:0:
226,256,192161,1,0,1:0:0:0:
241,278,192231,1,0,1:0:0:0:
253,302,192302,1,0,1:0:0:0:
264,327,192373,1,0,0:0:0:0:
271,352,192444,5,0,1:0:0:0:
284,350,192514,1,0,1:0:0:0:
296,344,192585,1,0,1:0:0:0:
306,334,192656,1,0,1:0:0:0:
311,322,192727,2,0,L|390:297,3,53.9999983520508,0|0|0|0,1:0|1:0|1:0|1:0,0:0:0:0:
235,293,193010,6,0,P|210:283|184:242,1,53.9999983520508,0|0,1:0|1:0,0:0:0:0:
360,183,193152,2,0,P|343:209|339:248,1,53.9999983520508,0|0,1:0|1:0,0:0:0:0:
237,191,193293,2,0,P|177:174|119:141,1,107.999996704102,0|0,1:0|1:0,0:0:0:0:
332,110,193576,5,0,1:0:0:0:
341,100,193646,1,0,1:0:0:0:
348,89,193717,1,0,1:0:0:0:
349,75,193788,1,0,1:0:0:0:
346,62,193859,2,0,P|314:54|291:45,3,53.9999983520508,0|0|0|0,1:0|1:0|1:0|1:0,0:0:0:0:
251,115,194142,5,0,1:0:0:0:
227,127,194212,1,0,1:0:0:0:
207,145,194283,1,0,1:0:0:0:
192,168,194354,1,0,1:0:0:0:
183,193,194425,6,0,L|200:239,6,26.9999991760254,2|0|0|0|0|0|0,1:0|0:0|0:0|0:0|0:0|0:0|0:0,0:0:0:0:
168,187,194708,6,0,P|139:267|135:358,1,161.999995056153,4|0,1:2|1:0,0:0:0:0:
148,353,194991,1,0,1:0:0:0:
49,287,195133,1,2,0:0:0:0:
219,313,195275,2,0,P|278:296|342:279,1,107.999996704102,8|0,0:0|1:0,0:0:0:0:
254,168,195558,1,0,1:0:0:0:
254,168,195699,1,0,1:0:0:0:
382,183,195841,6,0,P|399:243|421:289,1,107.999996704102,4|0,1:2|3:0,0:0:0:0:
435,289,196053,1,0,3:0:0:0:
452,294,196124,2,0,P|399:328|364:358,1,107.999996704102,0|8,1:0|0:0,0:0:0:0:
218,320,196407,2,0,P|182:275|122:229,1,107.999996704102,8|0,0:0|3:0,0:0:0:0:
254,168,196690,2,0,P|265:114|289:34,1,107.999996704102,0|2,1:0|0:3,0:0:0:0:
270,246,196973,5,6,1:2:0:0:
270,246,197539,5,2,1:2:0:0:
270,246,198105,5,2,1:2:0:0:
210,105,198246,1,2,1:2:0:0:
209,187,198388,5,2,1:2:0:0:
269,46,198529,1,2,1:2:0:0:
129,108,198671,5,2,1:2:0:0:
115,104,198741,1,2,1:2:0:0:
103,99,198812,1,2,0:2:0:0:
92,91,198883,1,2,0:2:0:0:
82,82,198954,5,2,0:2:0:0:
66,104,199024,1,2,0:2:0:0:
58,129,199095,1,2,0:2:0:0:
59,156,199166,1,2,0:2:0:0:
67,182,199237,6,0,B|143:187|190:246|190:246|165:213|180:183,1,202.500007724762,6|0,1:2|0:0,0:0:0:0:
254,199,199520,6,0,P|272:134|309:77,1,135,2|0,0:0|0:0,0:0:0:0:
266,13,199803,2,0,P|247:12|192:1,2,45,2|2|2,1:2|0:0|0:0,0:0:0:0:
390,81,200086,2,0,P|412:124|421:175,1,90,2|2,0:0|0:0,0:0:0:0:
442,287,200369,5,2,1:2:0:0:
405,324,200463,5,2,0:0:0:0:
351,321,200558,5,2,0:0:0:0:
308,287,200652,5,2,1:2:0:0:
294,233,200746,5,2,1:2:0:0:
324,189,200841,5,2,1:2:0:0:
403,203,200935,6,0,P|393:146|383:51,1,135,2|0,0:3|0:0,0:0:0:0:
396,56,201218,2,0,P|332:43|300:33,1,90,2|0,0:3|0:0,0:0:0:0:
93,96,201501,6,0,P|146:90|148:159,1,120,6|0,1:2|1:0,0:0:0:0:
137,170,201784,1,2,1:2:0:0:
252,252,201973,1,0,0:0:0:0:
224,267,202067,6,0,P|169:256|96:246,1,120,10|0,0:0|1:0,0:0:0:0:
79,267,202350,1,2,1:2:0:0:
238,173,202539,1,0,0:0:0:0:
218,148,202633,6,0,P|191:140|158:120,2,60,2|2|2,0:0|0:0|0:2,0:0:0:0:
305,129,202916,2,0,P|322:72|363:28,1,120,10|0,0:2|0:0,0:0:0:0:
391,36,203199,5,2,1:3:0:0:
408,161,203388,1,0,0:0:0:0:
429,137,203482,2,0,L|529:134,1,60,2|0,0:0|0:0,0:0:0:0:
348,214,203671,1,2,0:0:0:0:
370,235,203765,6,0,B|312:228|260:306|260:306|276:273|262:225,1,202.500007724762,2|0,1:0|0:0,0:0:0:0:
187,266,204048,6,0,B|144:233|144:233|187:151,1,135,10|0,0:0|0:0,0:0:0:0:
191,82,204331,6,0,P|164:80|127:73,1,45,2|0,1:2|0:0,0:0:0:0:
37,180,204473,2,0,P|64:178|101:171,1,45,2|0,1:2|0:0,0:0:0:0:
41,12,204614,2,0,P|61:70|75:120,1,90,10|0,0:0|0:0,0:0:0:0:
181,161,204897,5,6,1:2:0:0:
272,82,205039,1,0,0:0:0:0:
281,76,205109,1,2,0:0:0:0:
289,68,205180,1,10,0:0:0:0:
294,58,205251,1,2,0:0:0:0:
297,47,205322,1,2,1:2:0:0:
191,82,205463,5,2,0:0:0:0:
282,162,205605,2,0,P|295:187|302:224,1,45,2|0,0:0|0:0,0:0:0:0:
200,264,205746,1,10,0:0:0:0:
188,262,205816,1,0,0:0:0:0:
178,257,205887,1,2,0:0:0:0:
170,249,205958,1,0,0:0:0:0:
165,240,206029,5,2,1:3:0:0:
421,77,206312,2,0,P|392:143|389:225,1,135,2|2,0:0|0:0,0:0:0:0:
399,216,206595,5,0,1:0:0:0:
421,77,206878,2,0,P|357:56|270:20,1,135,2|0,1:3|0:0,0:0:0:0:
226,71,207161,6,0,P|207:77|149:86,1,45,12|8,0:0|0:0,0:0:0:0:
74,67,207303,2,0,B|64:49|64:49|83:7,1,45,8|8,0:0|0:0,0:0:0:0:
154,156,207444,1,8,0:0:0:0:
143,160,207514,1,8,0:0:0:0:
134,166,207585,1,8,0:0:0:0:
126,174,207656,1,8,0:0:0:0:
120,183,207727,5,8,0:0:0:0:
140,192,207797,1,8,0:0:0:0:
158,205,207868,1,8,0:0:0:0:
175,220,207939,1,8,0:0:0:0:
190,237,208010,2,0,P|184:261|181:295,1,45,8|8,0:0|0:0,0:0:0:0:
95,358,208152,2,0,P|89:334|75:301,1,45,8|8,0:0|0:0,0:0:0:0:
263,268,208293,6,0,B|321:299|321:299|326:338,1,101.250003862381,6|0,1:2|0:0,0:0:0:0:
312,347,208576,1,2,0:0:0:0:
382,242,208718,6,0,P|397:162|422:61,1,180,2|2,1:2|0:0,0:0:0:0:
420,66,209425,6,0,P|369:88|313:111,1,101.250003862381,2|0,1:2|0:0,0:0:0:0:
308,101,209708,1,2,0:0:0:0:
297,204,209850,6,0,B|245:198|245:198|218:95,1,135,2|0,1:2|0:0,0:0:0:0:
210,106,210133,1,2,0:0:0:0:
376,171,210275,2,0,P|333:213|315:309,1,135,10|0,0:0|0:0,0:0:0:0:
299,294,210558,6,0,P|352:311|421:333,1,101.250003862381,2|0,1:2|0:0,0:0:0:0:
413,317,210841,1,2,0:0:0:0:
229,334,210982,6,0,B|217:276|155:240|155:240|189:185,1,180,2|2,1:2|0:0,0:0:0:0:
184,191,211690,6,0,P|209:126|223:70,1,101.250003862381,2|0,1:2|0:0,0:0:0:0:
209,78,211973,1,2,0:0:0:0:
86,129,212114,6,0,P|150:110|216:95,1,135,2|0,1:2|0:0,0:0:0:0:
238,103,212397,1,2,0:0:0:0:
333,10,212539,2,0,P|325:66|308:185,1,135,2|0,1:2|0:0,0:0:0:0:
329,153,212822,6,0,P|380:145|432:93,1,101.250003862381,6|0,1:2|0:0,0:0:0:0:
416,99,213105,1,2,0:0:0:0:
381,229,213246,6,0,P|372:260|373:291,1,45,2|0,1:2|0:0,0:0:0:0:
274,332,213388,2,0,B|220:291|220:291|244:165,1,180,10|0,0:0|0:0,0:0:0:0:
240,180,213954,6,0,P|192:191|113:202,1,101.250003862381,2|0,1:2|0:0,0:0:0:0:
123,190,214237,1,2,0:0:0:0:
290,117,214378,6,0,P|303:81|310:52,1,45,2|0,1:2|0:0,0:0:0:0:
240,180,214520,2,0,P|293:237|270:317,1,135,8|0,0:0|0:0,0:0:0:0:
284,306,214803,2,0,P|223:315|175:250,1,135,2|0,1:2|0:0,0:0:0:0:
160,185,215086,6,0,P|107:195|51:208,1,101.250003862381,2|0,1:2|0:0,0:0:0:0:
50,220,215369,1,2,0:0:0:0:
68,100,215510,6,0,P|96:110|139:116,1,45,2|0,1:2|0:0,0:0:0:0:
160,185,215652,2,0,P|146:269|119:379,1,180,8|0,0:0|0:0,0:0:0:0:
124,361,216218,6,0,P|190:339|228:334,1,101.250003862381,2|0,1:2|0:0,0:0:0:0:
238,341,216501,1,2,0:0:0:0:
332,282,216642,6,0,B|344:264|344:264|334:221,1,45,2|0,1:2|0:0,0:0:0:0:
417,210,216784,2,0,P|355:197|266:172,1,135,10|0,0:0|0:0,0:0:0:0:
275,164,217067,2,0,B|205:189|205:189|233:272,1,135,2|0,1:2|0:0,0:0:0:0:
206,324,217350,6,0,P|158:307|74:276,1,135.000005149842,6|0,1:2|0:0,0:0:0:0:
109,181,217775,1,2,0:0:0:0:
33,114,217916,1,8,0:0:0:0:
94,40,218058,1,2,0:0:0:0:
94,40,218128,1,2,0:0:0:0:
94,40,218199,2,0,P|138:34|174:22,1,67.5000025749208,2|0,0:0|0:0,0:0:0:0:
0,23,218482,5,0,1:0:0:0:
152,114,218624,2,0,P|137:181|121:274,1,135.000005149842,2|2,0:0|0:0,0:0:0:0:
264,189,219048,2,0,P|305:183|361:174,2,67.5000025749208,8|2|2,0:0|0:0|0:0,0:0:0:0:
196,286,219473,1,2,0:0:0:0:
27,214,219614,6,0,P|47:291|56:364,1,135.000005149842,0|0,1:0|0:0,0:0:0:0:
125,246,220039,1,2,0:0:0:0:
280,269,220180,1,8,0:0:0:0:
198,352,220322,1,2,0:0:0:0:
198,352,220392,1,2,0:0:0:0:
198,352,220463,2,0,P|164:366|125:382,1,67.5000025749208,2|0,0:0|0:0,0:0:0:0:
328,373,220746,5,2,1:2:0:0:
280,269,220888,2,0,B|265:224|265:224|322:133,1,135.000005149842,2|2,0:0|0:0,0:0:0:0:
433,78,221312,2,0,P|400:68|361:53,2,67.5000025749208,8|2|2,0:0|0:0|0:0,0:0:0:0:
378,199,221737,1,2,0:0:0:0:
287,56,221878,5,8,0:0:0:0:
225,328,222161,5,0,1:0:0:0:
287,56,222444,5,8,0:0:0:0:
225,328,222727,5,0,1:0:0:0:
287,56,223010,5,8,0:0:0:0:
225,328,223293,5,0,1:0:0:0:
287,56,223576,5,8,0:0:0:0:
225,328,223859,5,0,1:0:0:0:
269,132,224142,5,8,0:0:0:0:
241,250,224284,1,8,0:0:0:0:
316,205,224425,5,8,0:0:0:0:
198,177,224567,1,8,0:0:0:0:
269,132,224708,6,0,L|254:71,1,45,0|0,1:0|1:0,0:0:0:0:
198,177,224850,2,0,L|137:191,1,45,0|0,1:0|1:0,0:0:0:0:
241,250,224991,2,0,L|256:311,1,45,0|0,1:0|1:0,0:0:0:0:
316,205,225133,2,0,L|377:190,1,45,0|0,1:0|1:0,0:0:0:0:
173,97,225275,6,0,P|118:230|101:310,1,202.500007724762
104,286,225841,6,0,B|127:296|127:296|149:339,1,45,8|0,0:0|0:0,0:0:0:0:
215,359,225982,2,0,P|221:319|236:279,1,45,8|0,0:0|0:0,0:0:0:0:
287,247,226124,6,0,B|310:237|310:237|332:194,1,45,10|0,0:0|0:0,0:0:0:0:
398,174,226265,2,0,P|404:214|419:254,1,45,8|0,0:0|0:0,0:0:0:0:
467,300,226407,6,0,B|467:278|467:278|402:307|402:307|405:335|405:335|470:308,1,180,2|0,0:3|0:0,0:0:0:0:
