osu file format v14

[General]
AudioFilename: audio.mp3
AudioLeadIn: 0
PreviewTime:12993
Countdown: 0
SampleSet: Soft
StackLeniency: 0.4
Mode: 0
LetterboxInBreaks: 0
WidescreenStoryboard: 0

[Editor]
DistanceSpacing: 0.9
BeatDivisor: 4
GridSize: 4
TimelineZoom: 2

[Metadata]
Title:1000000% CAFFEINE
TitleUnicode:1000000% CAFFEINE
Artist:Catsprite overdoses on Coffee
ArtistUnicode:Catsprite overdoses on Coffee
Creator:Ryuusei Aika
Version:BTMC ACC
Source:Coffee Hispanic: Mocha
Tags:Shunao ShogunMoon LeCandy Down るーく rook osu! tournament tourney ro16 fm1 Tycani Fuiba Fuyu beasttrollmc electronic btmc instrumental edward
BeatmapID:3208192
BeatmapSetID:1571087

[Difficulty]
HPDrainRate:5.3
CircleSize:3.3
OverallDifficulty:9
ApproachRate:9.3
SliderMultiplier:1.8
SliderTickRate:1

[Events]
//Background and Video events
0,0,"90133021_p0.jpg",0,0
//Break Periods
2,127916,130758
//Storyboard Layer 0 (Background)
//Storyboard Layer 1 (Fail)
//Storyboard Layer 2 (Pass)
//Storyboard Layer 3 (Foreground)
//Storyboard Layer 4 (Overlay)
//Storyboard Sound Samples

[TimingPoints]
-8,283.018867924528,4,2,1,80,1,0
4237,-80,4,2,1,80,0,0
4520,-100,4,2,1,80,0,0
13576,-66.6666666666667,4,2,1,80,0,0
22633,-133.333333333333,4,2,1,70,0,0
30133,-100,4,2,1,70,0,0
30416,-133.333333333333,4,2,1,70,0,0
31690,-80,4,2,1,80,0,0
32256,-133.333333333333,4,2,1,80,0,0
33954,-100,4,2,1,80,0,0
38482,-80,4,2,1,80,0,0
39614,-100,4,2,1,80,0,0
41029,-66.6666666666667,4,2,1,80,0,0
41312,-100,4,2,1,80,0,0
41454,-80,4,2,1,80,0,0
42161,-66.6666666666667,4,2,1,80,0,0
42444,-100,4,2,1,80,0,0
42586,-66.6666666666667,4,2,1,80,0,0
43010,-100,4,2,1,80,0,0
44142,-80,4,2,1,80,0,0
45275,-200,4,2,1,80,0,0
45558,-66.6666666666667,4,2,1,80,0,0
46124,-80,4,2,1,80,0,0
49803,-133.333333333333,4,2,1,60,0,0
52350,-80,4,2,1,60,0,0
53341,-133.333333333333,4,2,1,60,0,0
53765,-80,4,2,1,60,0,0
54331,-100,4,2,1,60,0,0
57727,-100,4,2,1,80,0,0
58859,-66.6666666666667,4,2,1,80,0,0
60275,-80,4,2,1,80,0,0
61124,-66.6666666666667,4,2,1,80,0,0
61690,-80,4,2,1,80,0,0
62256,-66.6666666666667,4,2,1,80,0,0
63671,-80,4,2,1,80,0,0
63954,-66.6666666666667,4,2,1,80,0,0
64803,-80,4,2,1,80,0,0
65086,-66.6666666666667,4,2,1,80,0,0
65510,-80,4,2,1,80,0,0
65652,-66.6666666666667,4,2,1,80,0,0
66076,-80,4,2,1,80,0,0
66218,-66.6666666666667,4,2,1,80,0,0
67491,-80,4,2,1,80,0,0
67633,-66.6666666666667,4,2,1,80,0,0
67916,-66.6666666666667,4,2,1,60,0,0
70180,-133.333333333333,4,2,1,60,0,0
71029,-100,4,2,1,70,0,0
71312,-133.333333333333,4,2,1,70,0,0
72303,-80,4,2,1,70,0,0
72444,-100,4,2,1,85,0,0
72727,-66.6666666666667,4,2,1,85,0,0
73293,-100,4,2,1,85,0,0
73576,-80,4,2,1,85,0,0
74418,-66.6666666666667,4,2,1,85,0,0
74991,-80,4,2,1,85,0,0
75133,-66.6666666666667,4,2,1,85,0,0
75416,-80,4,2,1,85,0,0
75558,-66.6666666666667,4,2,1,85,0,0
75841,-50,4,2,1,85,0,0
76407,-66.6666666666667,4,2,1,85,0,0
80369,-100,4,2,1,85,0,0
80652,-66.6666666666667,4,2,1,85,0,0
81501,-80,4,2,1,85,0,0
81784,-66.6666666666667,4,2,1,85,0,0
83765,-80,4,2,1,85,0,0
84048,-66.6666666666667,4,2,1,85,0,0
84897,-80,4,2,1,85,0,0
85180,-66.6666666666667,4,2,1,85,0,0
86029,-80,4,2,1,85,0,0
86312,-66.6666666666667,4,2,1,85,0,0
87444,-100,4,2,1,85,0,0
87727,-66.6666666666667,4,2,1,85,0,0
90558,-100,4,2,1,70,0,0
107539,-133.333333333333,4,2,1,70,0,0
108671,-80,4,2,1,80,0,0
109520,-100,4,2,1,80,0,0
110510,-80,4,2,1,80,0,0
110652,-66.6666666666667,4,2,1,80,0,0
112067,-80,4,2,1,80,0,0
113199,-133.333333333333,4,2,1,80,0,0
113765,-80,4,2,1,80,0,0
115180,-66.6666666666667,4,2,1,80,0,0
115463,-80,4,2,1,80,0,0
117161,-66.6666666666667,4,2,1,80,0,0
117727,-100,4,2,1,80,0,0
118010,-25,4,2,1,80,0,0
118223,-100,4,2,1,80,0,0
126501,-80,4,2,1,80,0,0
126784,-80,4,2,1,55,0,0
131312,-200,4,2,1,55,0,0
134991,-133.333333333333,4,2,1,55,0,0
135558,-100,4,2,1,55,0,0
135841,-100,4,2,1,65,0,0
136124,-133.333333333333,4,2,1,65,0,0
139237,-133.333333333333,4,2,1,70,0,0
144614,-100,4,2,1,70,0,0
144897,-100,4,2,1,80,0,0
153954,-133.333333333333,4,2,1,70,0,0
161454,-100,4,2,1,70,0,0
161737,-133.333333333333,4,2,1,70,0,0
162444,-133.333333333333,4,2,1,80,0,0
163010,-80,4,2,1,85,0,1
181124,-133.333333333333,4,2,1,85,0,1
181407,-80,4,2,1,85,0,1
187916,-66.6666666666667,4,2,1,85,0,1
194708,-80,4,2,1,85,0,1
196973,-100,4,2,1,85,0,1
199237,-66.6666666666667,4,2,1,80,0,0
199803,-100,4,2,1,80,0,0
201076,-66.6666666666667,4,2,1,80,0,0
201218,-133.333333333333,4,2,1,80,0,0
201501,-100,4,2,1,80,0,0
203199,-80,4,2,1,80,0,0
204048,-66.6666666666667,4,2,1,80,0,0
204331,-80,4,2,1,80,0,0
204614,-66.6666666666667,4,2,1,80,0,0
204897,-80,4,2,1,80,0,0
206029,-66.6666666666667,4,2,1,80,0,0
206312,-100,4,2,1,80,0,0
206737,-66.6666666666667,4,2,1,80,0,0
207161,-100,4,2,1,80,0,0
208293,-66.6666666666667,4,2,1,80,0,0
217350,-133.333333333333,4,2,1,70,0,0
225841,-133.333333333333,4,2,1,80,0,0
226407,-80,4,2,1,60,0,0
229803,-99.9999999999998,4,2,1,60,0,0

[Colours]
Combo1 : 88,101,242
Combo2 : 0,191,0
Combo3 : 0,86,191
Combo4 : 181,11,36
Combo5 : 191,143,0

[HitObjects]
69,69,2256,6,0,B|120:114|120:197|120:197|113:175|79:151,1,180,2|2,1:0|0:0,0:0:0:0:
99,167,2609,1,2,0:0:0:0:
99,167,2680,1,2,0:0:0:0:
67,266,3388,6,0,B|82:227|82:227|155:193|155:193|142:214|142:214|173:225,1,180,2|0,1:0|3:0,0:0:0:0:
235,173,3812,1,0,3:0:0:0:
251,89,3954,2,0,P|255:133|235:173,1,90,8|0,0:0|0:0,0:0:0:0:
248,375,4237,2,0,B|255:300|255:300|229:284|229:284|295:295,1,168.75,4|0,1:0|0:0,0:0:0:0:
291,294,4520,6,0,P|320:328|367:356,1,90,12|0,0:0|0:0,0:0:0:0:
461,146,4803,2,0,L|378:200,1,90,8|0,0:0|3:0,0:0:0:0:
404,283,5015,1,0,3:0:0:0:
404,283,5086,2,0,P|448:277|491:290,1,90,8|0,0:0|0:0,0:0:0:0:
461,146,5369,1,8,0:0:0:0:
512,213,5510,1,8,0:0:0:0:
495,69,5652,6,0,L|441:61,2,45,8|0|0,0:0|3:0|3:0,0:0:0:0:
305,77,5935,2,0,P|352:79|386:114,1,90,8|0,0:0|0:0,0:0:0:0:
172,58,6218,1,8,0:0:0:0:
172,58,6289,1,0,3:0:0:0:
172,58,6359,1,0,3:0:0:0:
246,16,6501,1,8,0:0:0:0:
214,132,6642,1,8,0:0:0:0:
98,100,6784,22,0,L|33:111,2,45,8|0|0,0:0|3:0|3:0,0:0:0:0:
176,209,7067,1,8,0:0:0:0:
176,209,7138,1,0,3:0:0:0:
176,209,7208,1,0,3:0:0:0:
49,266,7350,2,0,P|74:228|86:173,1,90,8|0,0:0|0:0,0:0:0:0:
12,342,7633,1,8,0:0:0:0:
141,281,7775,1,8,0:0:0:0:
99,361,7916,6,0,L|173:365,2,45,8|0|0,0:0|3:0|3:0,0:0:0:0:
49,266,8199,1,8,0:0:0:0:
231,348,8341,1,0,3:0:0:0:
231,348,8411,1,0,3:0:0:0:
231,348,8482,2,0,P|277:341|321:308,1,90,8|0,0:0|3:0,0:0:0:0:
323,319,8694,1,0,3:0:0:0:
334,321,8765,2,0,L|352:256,1,45,8|0,0:0|0:0,0:0:0:0:
408,226,8907,2,0,P|428:235|460:241,1,45,8|0,0:0|0:0,0:0:0:0:
450,240,9048,6,0,L|468:146,1,90,8|0,1:2|0:0,0:0:0:0:
402,15,9331,1,8,0:0:0:0:
358,87,9473,1,0,3:0:0:0:
378,96,9543,1,0,3:0:0:0:
400,100,9614,1,8,0:0:0:0:
289,127,9756,1,0,3:0:0:0:
269,136,9826,1,0,3:0:0:0:
247,140,9897,1,8,0:0:0:0:
190,87,10039,2,0,P|163:89|131:105,1,45,8|0,0:0|0:0,0:0:0:0:
146,96,10180,6,0,L|125:163,2,45,8|0|0,0:0|3:0|3:0,0:0:0:0:
32,12,10463,2,0,P|49:54|62:117,1,90,8|0,0:0|0:0,0:0:0:0:
30,254,10746,1,8,0:0:0:0:
30,254,10817,1,0,3:0:0:0:
30,254,10888,1,0,3:0:0:0:
6,168,11029,1,8,0:0:0:0:
108,229,11171,1,8,0:0:0:0:
106,347,11312,22,0,L|39:326,2,45,8|0|0,0:0|3:0|3:0,0:0:0:0:
182,269,11595,1,8,0:0:0:0:
256,309,11737,1,0,0:0:0:0:
333,189,11878,1,8,0:0:0:0:
333,189,11949,1,0,3:0:0:0:
333,189,12020,2,0,P|294:217|242:224,1,90,0|8,3:0|0:0,0:0:0:0:
475,287,12303,1,8,0:0:0:0:
397,323,12444,6,0,B|392:276|392:276|432:158|432:158|440:85|440:85|427:114|427:114|397:145,1,315,2|0,1:2|0:0,0:0:0:0:
416,148,13010,2,0,P|441:146|476:128,1,45,8|0,0:0|0:0,0:0:0:0:
477,55,13152,2,0,B|451:45|451:45|415:49,1,45,8|0,0:0|0:0,0:0:0:0:
356,67,13293,2,0,P|341:87|308:108,1,45,8|0,0:0|0:0,0:0:0:0:
258,140,13435,2,0,B|241:117|241:117|236:81,1,45,8|0,0:0|0:0,0:0:0:0:
292,17,13576,6,0,B|170:32|244:99|104:108,1,202.500007724762,6|0,1:2|0:0,0:0:0:0:
98,98,13859,2,0,B|83:130|83:130|100:171,1,67.5000025749208,2|0,0:0|0:0,0:0:0:0:
170,366,14001,2,0,B|56:319|144:274|11:229,1,202.500007724762,2|0,1:2|0:0,0:0:0:0:
3,237,14284,2,0,B|0:217|0:217|14:197,3,45.0000017166138,2|2|2|2,0:0|0:0|0:0|0:0,0:0:0:0:
184,251,14567,5,2,0:0:0:0:
168,247,14637,1,0,3:0:0:0:
152,243,14709,2,0,P|77:254|-4:375,1,202.500007724762,2|0,1:2|0:0,0:0:0:0:
14,365,14991,2,0,B|49:370|49:370|92:354,1,67.5000025749208,2|0,0:0|0:0,0:0:0:0:
203,184,15133,2,0,P|157:244|186:386,1,202.500007724762,2|0,1:2|0:0,0:0:0:0:
191,366,15416,2,0,B|218:343|218:343|238:302,1,67.5000025749208,2|0,0:0|0:0,0:0:0:0:
282,155,15558,2,0,B|336:103|338:-25|310:172,1,202.500007724762,2|0,1:2|0:0,0:0:0:0:
306,189,15841,22,0,B|343:179|343:179|450:198|450:198|396:166,1,202.500007724762,2|0,1:2|0:0,0:0:0:0:
393,188,16124,2,0,P|394:221|408:251,1,67.5000025749208,2|0,0:0|0:0,0:0:0:0:
388,375,16265,2,0,B|415:347|415:347|517:310|517:310|454:310,1,202.500007724762,2|0,1:2|0:0,0:0:0:0:
463,330,16548,2,0,P|471:344|496:357,3,45.0000017166138,2|2|2|2,0:0|0:0|0:0|0:0,0:0:0:0:
303,379,16831,5,2,0:0:0:0:
305,362,16901,1,0,3:0:0:0:
307,345,16973,2,0,B|290:315|290:315|309:182|309:182|290:152,1,202.500007724762,2|0,1:2|0:0,0:0:0:0:
266,149,17256,2,0,P|229:164|205:188,1,67.5000025749208,2|0,0:0|0:0,0:0:0:0:
99,384,17397,2,0,B|116:354|116:354|241:304|241:304|257:272,1,202.500007724762,2|0,1:2|0:0,0:0:0:0:
248,250,17680,2,0,P|216:225|183:216,1,67.5000025749208,2|0,0:0|0:0,0:0:0:0:
24,352,17822,2,0,B|82:241|82:241|48:244|48:244|71:300,1,202.500007724762,2|0,1:2|0:0,0:0:0:0:
66,269,18105,6,0,B|61:162|123:200|95:65,1,202.500007724762,2|0,1:2|0:0,0:0:0:0:
101,56,18388,2,0,L|191:73,1,67.5000025749208,2|0,0:0|0:0,0:0:0:0:
195,76,18529,1,2,1:2:0:0:
383,163,18671,2,0,P|415:153|442:132,1,67.5000025749208,10|2,0:2|0:0,0:0:0:0:
424,26,18812,2,0,B|396:56|396:56|430:237|430:237|396:268,1,270.000010299683,2|2,0:0|0:0,0:0:0:0:
311,307,19166,1,0,3:0:0:0:
311,307,19237,6,0,B|333:248|304:217|300:213|296:209|263:176|284:110,1,202.500007724762,2|0,1:2|0:0,0:0:0:0:
297,125,19520,2,0,B|269:145|269:145|224:151,1,67.5000025749208,2|0,0:0|0:0,0:0:0:0:
203,154,19661,1,2,1:2:0:0:
52,266,19803,1,8,0:0:0:0:
52,266,19944,2,0,P|84:262|131:284,1,67.5000025749208,2|0,0:0|0:0,0:0:0:0:
220,237,20086,2,0,B|182:244|182:244|95:339|95:339|59:346,1,202.500007724762,2|0,1:2|0:0,0:0:0:0:
43,357,20369,22,0,B|21:298|50:267|54:263|58:259|91:226|70:160,1,202.500007724762,2|0,1:2|0:0,0:0:0:0:
61,145,20652,2,0,B|91:127|91:127|136:134,1,67.5000025749208,2|0,0:0|0:0,0:0:0:0:
155,142,20793,1,2,1:2:0:0:
285,25,20935,2,0,P|297:55|299:89,1,67.5000025749208,10|2,0:0|0:0,0:0:0:0:
199,217,21076,2,0,B|246:163|246:163|308:177|308:177|364:148|364:148|429:180,1,270.000010299683,2|2,0:0|0:0,0:0:0:0:
399,264,21430,1,0,3:0:0:0:
399,264,21501,6,0,P|339:331|254:272,1,202.500007724762,2|0,1:2|0:0,0:0:0:0:
279,261,21784,2,0,B|297:289|297:289|291:323,1,67.5000025749208,2|0,0:0|0:0,0:0:0:0:
280,355,21925,1,2,1:2:0:0:
97,314,22067,1,10,0:0:0:0:
97,314,22208,2,0,P|122:294|174:290,1,67.5000025749208,2|0,0:0|0:0,0:0:0:0:
199,359,22350,2,0,B|164:352|164:352|77:257|77:257|39:250,1,202.500007724762,2|0,1:2|0:0,0:0:0:0:
20,259,22633,5,4,1:0:0:0:
29,168,22775,1,0,0:0:0:0:
33,172,23058,1,0,0:0:0:0:
33,172,23200,2,0,P|68:172|107:139,1,67.5000025749208,8|0,0:0|0:0,0:0:0:0:
95,155,23411,1,0,0:0:0:0:
95,155,23482,1,0,0:0:0:0:
151,93,23624,2,0,L|238:104,1,67.5000025749208,0|0,0:0|1:0,0:0:0:0:
277,47,23907,5,0,0:0:0:0:
277,47,24190,1,0,0:0:0:0:
238,179,24331,2,0,P|258:171|275:158,1,33.7500012874604,8|0,0:0|3:0,0:0:0:0:
277,47,24473,1,0,3:0:0:0:
281,51,24614,2,0,L|368:40,1,67.5000025749208
238,179,24897,21,0,1:0:0:0:
339,127,25039,2,0,P|374:127|413:160,1,67.5000025749208
454,5,25322,2,0,L|445:71,1,67.5000025749208,0|8,0:0|0:0,0:0:0:0:
409,151,25605,1,0,0:0:0:0:
409,151,25675,1,0,0:0:0:0:
409,151,25746,2,0,P|392:179|392:213,1,67.5000025749208
492,378,26029,5,0,1:0:0:0:
492,378,26171,2,0,L|501:312,1,67.5000025749208
318,242,26454,2,0,P|333:270|363:287,1,67.5000025749208,0|8,0:0|0:0,0:0:0:0:
467,239,26737,1,0,0:0:0:0:
410,360,26878,1,0,0:0:0:0:
410,360,27020,1,0,0:0:0:0:
256,384,27161,5,0,1:0:0:0:
256,0,27444,5,0,1:0:0:0:
159,358,27727,21,8,0:0:0:0:
351,25,28010,5,0,1:0:0:0:
70,241,28293,5,0,1:0:0:0:
441,142,28576,5,0,1:0:0:0:
120,56,28859,21,8,0:0:0:0:
391,327,29142,5,0,1:0:0:0:
256,96,29425,5,0,1:0:0:0:
256,288,29567,1,0,1:0:0:0:
352,191,29708,1,0,1:0:0:0:
160,192,29850,1,0,1:0:0:0:
256,138,29991,5,8,0:0:0:0:
256,138,30062,1,8,0:0:0:0:
256,138,30133,2,0,L|256:101,2,22.5,8|0|0,0:0|1:0|1:0,0:0:0:0:
256,246,30275,1,0,1:0:0:0:
256,246,30345,1,0,1:0:0:0:
256,246,30416,2,0,P|251:266|265:290,1,33.7500012874604,0|0,1:0|1:0,0:0:0:0:
352,193,30558,22,0,B|278:158|251:254|156:190,1,202.500007724762,2|0,0:0|0:0,0:0:0:0:
147,205,31124,6,0,L|105:222,1,33.7500012874604,8|0,0:0|0:0,0:0:0:0:
218,127,31265,2,0,P|225:112|228:83,1,33.7500012874604,8|0,0:0|0:0,0:0:0:0:
146,89,31407,2,0,L|125:115,1,33.7500012874604,8|0,0:0|0:0,0:0:0:0:
60,159,31548,2,0,P|44:164|27:166,1,33.7500012874604,8|0,0:0|0:0,0:0:0:0:
83,288,31690,6,0,B|39:244|39:244|195:310|195:310|311:296|311:296|269:278,1,393.75,6|0,1:0|0:0,0:0:0:0:
257,273,32256,1,2,1:2:0:0:
257,251,32326,1,2,0:0:0:0:
257,229,32397,1,2,0:0:0:0:
387,248,32539,2,0,P|390:216|365:227,1,67.5000025749208,2|2,0:0|0:0,0:0:0:0:
366,130,32822,6,0,L|454:144,1,67.5000025749208,0|0,1:0|0:0,0:0:0:0:
432,140,33034,1,2,0:0:0:0:
432,140,33105,1,2,0:0:0:0:
412,57,33246,1,2,0:0:0:0:
280,133,33388,21,2,1:2:0:0:
235,158,33482,5,2,0:0:0:0:
184,149,33576,5,2,0:0:0:0:
153,107,33671,5,2,1:2:0:0:
153,95,33741,1,2,0:0:0:0:
154,84,33812,1,2,1:2:0:0:
155,73,33883,1,2,1:2:0:0:
156,62,33954,1,6,1:2:0:0:
233,33,34095,2,0,P|249:46|217:54,1,45,2|0,0:0|0:0,0:0:0:0:
71,108,34237,2,0,L|77:13,1,90,2|2,1:2|0:0,0:0:0:0:
114,189,34520,21,2,1:2:0:0:
114,189,34591,1,2,0:0:0:0:
114,189,34661,1,2,0:0:0:0:
69,342,34803,1,2,1:2:0:0:
48,252,34944,1,2,0:0:0:0:
159,321,35086,5,2,1:2:0:0:
228,210,35227,1,2,0:0:0:0:
208,221,35298,1,2,0:0:0:0:
187,227,35369,1,2,1:2:0:0:
289,270,35510,2,0,P|311:227|303:168,1,90,2|0,0:0|1:0,0:0:0:0:
237,337,35793,1,2,1:2:0:0:
257,347,35864,1,2,1:2:0:0:
278,353,35935,2,0,L|373:347,1,90,2|0,1:2|1:0,0:0:0:0:
390,107,36218,6,0,P|379:128|383:158,1,45,2|0,1:0|0:0,0:0:0:0:
441,199,36359,2,0,L|444:246,1,45,2|0,0:1|0:0,0:0:0:0:
453,322,36501,1,2,1:0:0:0:
400,226,36642,2,0,B|444:237|488:216,1,90,2|0,0:1|1:0,0:0:0:0:
462,36,36925,2,0,B|472:80|472:80|449:123,1,90,2|2,0:0|1:2,0:0:0:0:
435,116,37138,1,2,0:0:0:0:
420,113,37208,1,2,0:0:0:0:
405,110,37279,1,2,0:0:0:0:
390,107,37350,2,0,P|364:113|338:136,1,45,2|2,1:2|0:0,0:0:0:0:
267,102,37491,5,2,0:0:0:0:
252,85,37561,1,2,0:0:0:0:
243,64,37632,1,2,1:2:0:0:
330,0,37775,2,0,L|321:54,1,45,2|0,0:1|0:0,0:0:0:0:
267,102,37916,1,0,1:0:0:0:
133,41,38058,2,0,P|133:64|140:85,1,45,2|2,0:0|0:0,0:0:0:0:
196,143,38199,1,2,1:2:0:0:
195,170,38270,1,2,0:0:0:0:
207,194,38341,1,2,1:2:0:0:
206,221,38412,1,2,0:0:0:0:
218,245,38482,22,0,B|161:245|161:245|112:221|112:221|54:221,1,168.75,0|0,1:0|0:0,0:0:0:0:
55,203,38765,1,2,0:3:0:0:
55,315,39048,2,0,P|93:352|147:318,1,112.5,2|0,1:0|0:0,0:0:0:0:
155,328,39260,1,0,0:0:0:0:
168,325,39331,2,0,L|289:345,1,112.5,2|0,3:0|0:0,0:0:0:0:
512,192,39614,6,0,B|466:211|438:191|426:176|380:191,1,135,0|0,1:0|0:0,0:0:0:0:
364,200,39897,1,0,1:0:0:0:
355,184,39968,1,0,1:0:0:0:
346,200,40039,1,0,1:0:0:0:
337,184,40109,1,0,1:0:0:0:
328,200,40180,5,0,1:0:0:0:
314,176,40251,1,0,1:0:0:0:
301,200,40322,1,0,1:0:0:0:
287,176,40392,1,0,1:0:0:0:
274,200,40463,5,0,1:0:0:0:
253,164,40534,1,0,1:0:0:0:
233,200,40605,1,0,1:0:0:0:
212,164,40675,1,0,1:0:0:0:
192,200,40746,22,0,L|132:200,1,45,10|0,0:1|0:0,0:0:0:0:
0,200,40888,1,2,0:1:0:0:
117,105,41029,2,0,P|144:118|134:123,2,67.5000025749208,2|2|2,0:0|0:0|1:2,0:0:0:0:
136,10,41241,1,0,0:0:0:0:
136,10,41312,2,0,L|65:28,1,45,8|0,0:0|0:0,0:0:0:0:
15,120,41454,6,0,P|28:98|31:65,1,56.25,2|0,0:1|0:0,0:0:0:0:
76,177,41595,2,0,L|82:249,1,56.25,2|0,0:1|0:0,0:0:0:0:
0,294,41737,2,0,P|27:296|52:310,1,56.25,2|0,0:1|0:0,0:0:0:0:
129,362,41878,1,0,1:0:0:0:
131,334,41948,1,0,1:0:0:0:
134,306,42019,1,0,1:0:0:0:
138,310,42161,6,0,L|213:293,2,67.5000025749208,2|0|0,0:3|0:0|1:0,0:0:0:0:
413,141,42444,2,0,P|394:153|412:173,1,45,8|0,0:0|0:0,0:0:0:0:
451,238,42586,2,0,B|424:244|424:244|350:201|350:201|324:208,2,135.000005149842,2|2|2,0:0|0:0|0:0,0:0:0:0:
237,92,43010,6,0,P|276:105|240:128,1,90,0|0,1:0|3:0,0:0:0:0:
253,132,43223,1,0,3:0:0:0:
253,132,43293,2,0,L|232:245,1,90,2|0,3:0|1:0,0:0:0:0:
158,42,43576,2,0,P|192:9|238:1,1,90,8|0,0:0|0:0,0:0:0:0:
313,25,43789,1,0,0:0:0:0:
313,25,43859,2,0,B|356:42|356:42|417:33,1,90,2|0,1:2|0:0,0:0:0:0:
185,291,44142,21,2,1:2:0:0:
92,179,44284,2,0,P|185:195|191:326,1,225,2|2,0:0|1:2,0:0:0:0:
96,183,44708,2,0,B|181:178|181:178|226:101,1,168.75,10|0,0:0|0:0,0:0:0:0:
179,38,44991,2,0,P|87:45|62:120,1,168.75,2|0,1:2|0:0,0:0:0:0:
292,167,45275,6,0,B|321:185|321:185|367:187,1,67.5,0|0,1:0|0:0,0:0:0:0:
432,149,45558,6,0,B|391:158|391:158|378:278|378:278|325:296,1,202.500007724762,10|0,0:1|0:0,0:0:0:0:
184,326,45841,2,0,P|165:347|197:338,1,67.5000025749208,8|0,0:0|0:0,0:0:0:0:
265,315,45982,1,2,0:0:0:0:
265,315,46124,5,0,1:0:0:0:
249,276,46194,1,0,1:0:0:0:
217,249,46265,1,0,1:0:0:0:
176,241,46336,1,0,1:0:0:0:
137,255,46407,1,6,1:2:0:0:
213,161,46548,22,0,L|227:84,1,56.25,2|0,1:2|0:0,0:0:0:0:
223,105,46690,1,10,0:2:0:0:
120,111,46831,1,2,1:2:0:0:
137,116,46973,2,0,P|123:134|120:112,1,56.25
45,81,47114,2,0,L|31:158,1,56.25,2|0,1:2|0:0,0:0:0:0:
19,215,47256,2,0,B|37:260|23:295|18:295|12:295|-11:335|6:377,1,168.75,10|0,0:0|0:0,0:0:0:0:
28,376,47539,5,8,0:0:0:0:
161,357,47680,1,0,1:0:0:0:
244,345,47822,1,0,1:0:0:0:
399,281,47963,5,8,0:0:0:0:
265,262,48104,1,0,1:0:0:0:
182,250,48246,1,0,1:0:0:0:
254,66,48388,6,0,L|244:138,1,56.25,8|0,0:0|0:0,0:0:0:0:
265,262,48529,1,0,1:0:0:0:
326,137,48671,21,8,0:0:0:0:
364,140,48741,1,8,0:0:0:0:
403,145,48812,1,8,0:0:0:0:
442,149,48883,1,8,0:0:0:0:
481,154,48954,1,8,0:0:0:0:
446,170,49025,1,8,0:0:0:0:
409,185,49095,1,8,0:0:0:0:
372,201,49167,1,8,0:0:0:0:
337,217,49237,1,0,1:0:0:0:
265,249,49520,5,0,1:0:0:0:
193,281,49803,6,0,P|139:284|98:246,1,101.250003862381,2|0,1:0|0:0,0:0:0:0:
103,256,50086,2,0,L|96:314,1,33.7500012874604,2|0,0:0|0:0,0:0:0:0:
97,310,50227,1,2,0:0:0:0:
22,266,50369,1,10,0:0:0:0:
24,252,50510,2,0,P|11:258|26:266,1,33.7500012874604,2|0,0:0|0:0,0:0:0:0:
68,187,50652,5,6,1:2:0:0:
69,178,50722,1,2,0:0:0:0:
70,170,50793,1,2,0:0:0:0:
71,161,50864,1,2,0:0:0:0:
72,153,50935,2,0,L|76:119,1,33.7500012874604,2|0,0:0|0:0,0:0:0:0:
11,76,51076,2,0,P|9:61|18:40,1,33.7500012874604,2|0,0:0|0:0,0:0:0:0:
84,4,51218,21,2,1:2:0:0:
93,4,51288,1,2,0:0:0:0:
101,5,51359,1,2,0:0:0:0:
110,5,51430,1,2,0:0:0:0:
118,6,51501,1,10,0:0:0:0:
182,50,51642,1,2,0:0:0:0:
246,94,51784,2,0,L|241:127,1,33.7500012874604,2|0,0:0|0:0,0:0:0:0:
307,171,51925,2,0,P|309:186|300:207,1,33.7500012874604,2|0,1:2|0:0,0:0:0:0:
228,226,52067,5,6,0:0:0:0:
384,105,52208,1,2,0:0:0:0:
367,249,52350,2,0,B|393:238|393:238|420:242,1,56.25,2|0,0:3|0:0,0:0:0:0:
384,105,52491,2,0,P|381:127|394:158,1,56.25,2|0,0:3|0:0,0:0:0:0:
420,242,52633,1,8,0:0:0:0:
206,317,52916,6,0,B|287:298|287:298|361:341,1,168.75,2|0,1:0|0:0,0:0:0:0:
446,325,53199,1,2,0:1:0:0:
361,341,53341,1,0,3:0:0:0:
361,341,53411,1,0,3:0:0:0:
361,341,53482,1,2,0:1:0:0:
279,351,53624,5,0,3:0:0:0:
275,367,53694,1,0,3:0:0:0:
272,384,53765,2,0,P|220:305|232:206,1,168.75,8|0,0:3|0:0,0:0:0:0:
262,155,54048,2,0,B|233:150|233:150|194:184|194:184|164:178,1,112.5,2|2,0:3|0:0,0:0:0:0:
93,138,54260,1,2,0:0:0:0:
93,138,54331,22,0,P|58:175|55:232,1,90,6|0,1:2|3:0,0:0:0:0:
113,272,54543,1,0,0:0:0:0:
113,272,54614,1,0,1:0:0:0:
82,242,54685,1,0,0:0:0:0:
51,212,54756,1,0,3:0:0:0:
31,78,54897,5,8,0:0:0:0:
135,64,55039,1,0,3:0:0:0:
93,138,55180,1,0,1:0:0:0:
73,4,55322,1,0,3:0:0:0:
239,50,55463,5,0,1:0:0:0:
281,60,55534,1,0,3:0:0:0:
323,70,55605,1,0,3:0:0:0:
405,46,55746,1,0,1:0:0:0:
347,152,55888,1,0,3:0:0:0:
453,210,56029,5,8,0:0:0:0:
412,222,56100,1,0,3:0:0:0:
371,234,56170,1,0,3:0:0:0:
429,128,56312,1,0,1:0:0:0:
347,152,56453,1,0,3:0:0:0:
477,292,56595,21,8,0:0:0:0:
436,304,56666,1,0,1:0:0:0:
395,316,56736,1,0,1:0:0:0:
389,336,56808,1,0,1:0:0:0:
384,357,56878,5,8,0:0:0:0:
343,345,56949,1,0,1:0:0:0:
302,333,57019,1,0,1:0:0:0:
296,353,57091,1,0,1:0:0:0:
291,374,57161,5,8,0:0:0:0:
280,332,57232,1,0,1:0:0:0:
270,290,57302,1,0,1:0:0:0:
264,310,57374,1,0,1:0:0:0:
259,331,57444,5,8,0:0:0:0:
217,320,57515,1,0,1:0:0:0:
175,310,57585,1,0,1:0:0:0:
159,255,57657,1,0,1:0:0:0:
105,242,57727,21,2,1:2:0:0:
46,187,57822,5,2,0:0:0:0:
31,135,57916,5,2,0:0:0:0:
37,96,58010,5,2,0:0:0:0:
58,82,58105,21,2,0:0:0:0:
76,77,58199,6,0,B|106:68|106:68|176:105|176:105|213:93,1,150,2|8,0:0|0:3,0:0:0:0:
286,48,58576,1,4,0:3:0:0:
278,155,58717,1,4,0:3:0:0:
278,155,58859,6,0,P|379:133|468:197,1,202.500007724762,6|0,1:2|0:0,0:0:0:0:
470,201,59142,1,2,0:0:0:0:
278,240,59284,2,0,B|180:211|180:211|88:282,1,202.500007724762,2|0,1:2|0:0,0:0:0:0:
97,293,59567,1,2,0:0:0:0:
108,161,59708,2,0,B|169:145|196:196|195:203|194:209|229:261|286:238,1,202.500007724762,10|0,0:1|0:0,0:0:0:0:
106,28,59991,2,0,B|72:49|72:49|63:170|63:170|29:193,1,202.500007724762,2|0,1:0|0:0,0:0:0:0:
22,221,60275,6,0,P|6:202|29:193,1,56.25,10|0,0:0|0:0,0:0:0:0:
108,161,60416,2,0,B|133:152|133:152|112:132,1,56.25,2|0,0:0|0:0,0:0:0:0:
46,84,60558,1,2,1:2:0:0:
180,62,60699,2,0,P|206:54|239:67,1,56.25,2|0,0:0|0:0,0:0:0:0:
282,123,60841,2,0,L|337:113,1,56.25,2|0,0:0|0:0,0:0:0:0:
415,98,60982,1,2,0:0:0:0:
192,312,61124,22,0,P|219:256|218:178,2,135.000005149842,6|2|2,1:2|0:0|0:0,0:0:0:0:
192,312,61548,2,0,B|223:296|223:296|259:301,1,67.5000025749208,2|0,1:2|0:0,0:0:0:0:
356,265,61690,2,0,P|350:292|335:316,1,56.25,8|0,0:0|0:0,0:0:0:0:
241,380,61831,1,2,0:0:0:0:
124,265,61973,2,0,B|76:236|76:236|19:248,1,112.5,2|0,1:2|0:0,0:0:0:0:
53,350,62256,6,0,B|21:278|74:226|74:226|124:178|89:85,1,270.000010299683,10|0,0:0|1:0,0:0:0:0:
67,13,62609,1,2,0:0:0:0:
111,22,62680,2,0,B|144:31|144:31|167:68,2,67.5000025749208,2|2|2,0:0|0:0|0:0,0:0:0:0:
39,47,62963,1,2,0:0:0:0:
39,47,63105,6,0,P|22:58|2:61,1,33.7500012874604,2|0,1:3|0:0,0:0:0:0:
279,118,63388,6,0,B|335:82|335:82|401:101,2,135.000005149842,6|2|2,1:2|0:0|0:0,0:0:0:0:
481,86,63812,2,0,P|481:117|467:146,1,56.25,2|0,1:2|0:0,0:0:0:0:
341,182,63954,2,0,B|295:169|295:169|262:64|262:64|210:51,1,202.500007724762,10|0,0:0|0:0,0:0:0:0:
146,91,64237,2,0,P|100:101|141:80,1,135.000005149842,4|0,1:2|0:0,0:0:0:0:
214,33,64449,1,0,3:0:0:0:
214,33,64520,22,0,B|314:18|314:18|219:53,1,202.500007724762,6|0,1:2|0:0,0:0:0:0:
208,151,64803,2,0,P|186:177|150:192,1,56.25,2|0,0:0|0:0,0:0:0:0:
88,194,64944,1,2,1:2:0:0:
249,229,65086,2,0,B|290:283|290:283|270:359,1,135.000005149842,8|2,0:0|1:2,0:0:0:0:
263,355,65369,6,0,P|281:336|269:359,1,67.5000025749208,2|0,0:0|0:0,0:0:0:0:
126,364,65510,2,0,L|202:355,1,56.25,2|0,0:0|0:0,0:0:0:0:
374,335,65652,6,0,B|332:279|353:205,2,135.000005149842,4|2|2,1:2|0:0|0:0,0:0:0:0:
452,375,66076,2,0,L|463:311,1,56.25,2|0,1:2|0:0,0:0:0:0:
497,187,66218,2,0,B|419:157|371:207|371:207|319:260|247:228,1,270.000010299683,10|2,0:0|1:2,0:0:0:0:
184,180,66642,1,2,0:0:0:0:
501,191,66784,6,0,B|448:170|448:170|378:225|378:225|324:203,1,202.500007724762,10|0,0:0|0:0,0:0:0:0:
326,204,67067,2,0,P|309:171|316:126,1,67.5000025749208,2|0,3:2|3:0,0:0:0:0:
354,75,67208,1,2,1:2:0:0:
488,81,67350,1,2,3:2:0:0:
488,81,67421,1,0,3:0:0:0:
488,81,67491,2,0,L|423:93,1,56.25,2|0,3:2|0:0,0:0:0:0:
294,20,67633,2,0,P|194:71|223:106,1,202.500007724762,4|0,1:2|0:0,0:0:0:0:
221,104,67916,21,0,1:0:0:0:
256,192,67987,12,0,70109,0:0:0:0:
256,192,70180,6,0,B|215:223|215:223|157:217,1,101.250003862381,0|0,1:0|0:0,0:0:0:0:
155,203,70463,2,0,P|133:243|148:306,1,101.250003862381,0|0,1:0|0:0,0:0:0:0:
224,307,70746,1,0,1:0:0:0:
244,309,70816,1,0,1:0:0:0:
264,312,70887,1,0,1:0:0:0:
284,314,70958,1,0,1:0:0:0:
305,317,71029,2,0,L|350:289,1,45,0|0,1:0|1:0,0:0:0:0:
363,184,71170,2,0,P|378:206|383:239,1,45,0|0,1:0|1:0,0:0:0:0:
366,373,71312,6,0,L|441:383,2,67.5000025749208,0|0|10,1:0|1:0|0:0,0:0:0:0:
465,312,71737,1,8,0:0:0:0:
465,312,71808,1,8,0:0:0:0:
493,238,71949,1,8,0:0:0:0:
493,238,72020,1,8,0:0:0:0:
486,208,72091,1,8,0:0:0:0:
479,178,72161,1,0,1:0:0:0:
444,77,72303,2,0,P|456:71|466:102,1,56.25,2|0,0:3|0:0,0:0:0:0:
342,92,72444,6,0,B|407:71|407:71|467:101,1,135,6|0,1:2|0:0,0:0:0:0:
273,48,72727,2,0,P|262:23|290:29,1,67.5000025749208,2|0,0:0|0:0,0:0:0:0:
346,96,72869,2,0,B|357:187|357:187|320:246|320:246|314:205,1,202.500007724762,2|0,0:0|0:0,0:0:0:0:
304,211,73152,22,0,P|287:189|315:192,1,67.5000025749208,2|0,0:0|0:0,0:0:0:0:
385,248,73293,2,0,L|394:314,1,45,2|0,0:0|0:0,0:0:0:0:
408,377,73435,1,2,0:0:0:0:
230,264,73576,6,0,P|313:259|391:292,1,168.75,2|0,1:0|0:0,0:0:0:0:
329,351,73859,2,0,L|269:345,1,56.25,0|0,3:0|0:0,0:0:0:0:
189,348,74001,2,0,P|174:366|192:352,1,56.25,0|0,3:0|0:0,0:0:0:0:
329,351,74142,1,8,0:0:0:0:
230,264,74284,2,0,L|205:209,1,56.25,2|0,0:0|0:0,0:0:0:0:
215,121,74425,2,0,B|211:190|166:205|166:205|119:221|116:284,1,202.500007724762,0|0,1:0|0:0,0:0:0:0:
113,373,74708,6,0,B|96:318|96:318|30:260|30:260|14:205,1,202.500007724762,0|0,1:0|0:0,0:0:0:0:
20,122,74991,2,0,P|62:138|79:170,1,56.25,2|0,1:2|0:0,0:0:0:0:
215,121,75133,2,0,B|159:108|159:108|76:135|76:135|20:122,1,202.500007724762,2|0,0:0|0:0,0:0:0:0:
2,37,75416,2,0,P|44:21|61:-11,1,56.25,2|0,0:0|0:0,0:0:0:0:
130,19,75558,2,0,B|195:34,1,67.5000025749208,2|0,0:0|0:0,0:0:0:0:
271,53,75699,1,2,0:0:0:0:
227,202,75841,6,1,B|152:191|240:143|77:146|11:93|91:73|240:143|178:66|260:83|260:83|341:98|256:145|417:142|480:195|402:215|256:145|316:222|243:205,1,630,2|0,1:3|0:0,0:0:0:0:
220,283,76407,2,0,L|208:349,1,67.5000025749208,8|0,0:0|0:0,0:0:0:0:
139,285,76548,2,0,P|108:269|84:247,1,67.5000025749208,0|0,3:0|0:0,0:0:0:0:
7,330,76690,2,0,L|74:341,1,67.5000025749208,0|0,1:0|0:0,0:0:0:0:
145,372,76831,2,0,P|175:355|208:349,1,67.5000025749208,0|0,3:0|0:0,0:0:0:0:
416,278,76973,22,0,B|374:271|374:271|335:382|335:382|294:374,1,202.500007724762,0|0,1:0|0:0,0:0:0:0:
291,362,77256,2,0,P|319:344|310:365,1,67.5000025749208
426,358,77397,2,0,B|492:370,1,67.5000025749208,2|0,0:0|0:0,0:0:0:0:
416,278,77539,6,0,P|407:246|420:215,1,67.5000025749208,10|0,0:0|0:0,0:0:0:0:
446,123,77680,2,0,B|380:135,1,67.5000025749208,2|0,0:0|0:0,0:0:0:0:
363,0,77822,2,0,P|371:32|397:52,1,67.5000025749208,2|0,0:0|0:0,0:0:0:0:
452,129,77963,2,0,B|386:141,1,67.5000025749208,0|0,3:0|0:0,0:0:0:0:
239,151,78105,6,0,P|339:165|424:220,1,202.500007724762,2|0,1:3|0:0,0:0:0:0:
284,126,78388,1,2,0:0:0:0:
259,136,78458,1,2,0:0:0:0:
239,151,78529,1,2,0:0:0:0:
221,169,78600,1,2,0:0:0:0:
206,189,78671,1,10,0:0:0:0:
165,266,78812,1,2,0:0:0:0:
144,342,78954,1,2,1:2:0:0:
150,359,79095,1,2,0:0:0:0:
36,159,79237,6,0,B|83:162|83:162|112:261|112:261|164:265,1,202.500007724762,2|0,1:0|0:0,0:0:0:0:
25,294,79520,2,0,P|97:227|113:129,1,202.500007724762,2|0,0:0|0:0,0:0:0:0:
112,127,79803,2,0,L|179:116,1,67.5000025749208,10|0,0:0|0:0,0:0:0:0:
296,113,79944,2,0,P|164:126|51:55,1,270.000010299683,2|2,0:0|0:0,0:0:0:0:
449,60,80369,22,0,L|440:123,2,45,0|0|0,1:0|3:0|3:0,0:0:0:0:
314,33,80652,2,0,P|351:50|370:85,1,67.5000025749208,2|0,0:0|0:0,0:0:0:0:
431,185,80793,2,0,L|421:252,1,67.5000025749208,2|0,0:0|0:0,0:0:0:0:
421,251,80935,6,0,P|401:291|357:303,1,67.5000025749208,10|2,0:0|0:0,0:0:0:0:
303,282,81076,1,10,0:0:0:0:
185,313,81218,1,10,0:0:0:0:
67,344,81359,1,10,0:0:0:0:
303,282,81501,6,0,B|259:277|259:277|224:204|224:204|181:199,1,168.75,4|0,1:2|0:0,0:0:0:0:
180,198,81784,2,0,P|186:175|174:196,1,67.5000025749208,2|0,0:0|0:0,0:0:0:0:
102,129,81925,1,2,0:0:0:0:
102,129,82067,2,0,L|25:153,1,67.5000025749208,10|0,0:0|0:0,0:0:0:0:
41,228,82208,2,0,B|27:167|69:140|69:140|108:113|94:46,1,202.500007724762,2|0,0:0|0:0,0:0:0:0:
82,31,82491,1,2,1:2:0:0:
250,146,82633,6,0,B|258:177|258:177|269:89|269:89|305:41|305:41|302:64,1,202.500007724762,2|0,1:0|0:0,0:0:0:0:
203,30,82916,2,0,P|175:37|194:60,1,67.5000025749208,2|0,3:0|0:0,0:0:0:0:
250,146,83058,2,0,L|317:155,1,67.5000025749208,0|0,3:0|0:0,0:0:0:0:
471,177,83199,21,10,0:0:0:0:
399,119,83341,1,2,0:0:0:0:
317,155,83482,1,2,0:3:0:0:
395,218,83624,1,0,1:0:0:0:
395,218,83694,1,0,1:0:0:0:
395,218,83765,2,0,P|355:269|257:277,1,168.75,4|0,1:2|0:0,0:0:0:0:
242,267,84048,6,0,L|161:257,1,67.5000025749208,2|0,1:2|0:0,0:0:0:0:
315,340,84190,1,2,0:0:0:0:
395,218,84331,2,0,P|392:256|373:288,1,67.5000025749208,8|0,0:0|0:0,0:0:0:0:
315,340,84473,2,0,L|240:372,2,67.5000025749208,2|2|2,0:0|0:0|1:2,0:0:0:0:
111,301,84756,5,2,0:0:0:0:
111,301,84826,1,2,0:0:0:0:
112,300,84897,2,0,B|161:287|183:329|183:335|182:340|211:383|252:366,1,168.75,2|0,1:0|0:0,0:0:0:0:
27,316,85180,6,0,B|17:283|17:283|41:240,1,67.5000025749208,2|0,0:0|0:0,0:0:0:0:
75,188,85322,1,2,0:0:0:0:
124,57,85463,2,0,P|128:90|116:121,1,67.5000025749208,10|0,0:0|0:0,0:0:0:0:
75,188,85605,2,0,B|11:164,1,67.5000025749208,2|2,0:0|0:0,0:0:0:0:
15,168,85746,2,0,B|76:154|103:196|103:196|130:235|197:221,1,202.500007724762,2|0,1:2|0:0,0:0:0:0:
261,165,86029,22,0,B|332:119|332:119|353:200,1,168.75,0|0,1:0|0:0,0:0:0:0:
300,265,86312,2,0,P|316:281|376:272,1,67.5000025749208,2|0,0:0|0:0,0:0:0:0:
439,259,86454,1,2,0:0:0:0:
498,376,86595,6,0,L|508:292,1,67.5000025749208,10|0,0:0|0:0,0:0:0:0:
493,170,86737,1,2,0:0:0:0:
493,170,86808,1,2,0:0:0:0:
493,170,86878,2,0,P|457:170|414:150,1,67.5000025749208,2|0,0:0|0:0,0:0:0:0:
365,104,87020,1,2,0:0:0:0:
472,32,87161,2,0,L|463:-2,6,33.7500012874604,2|0|0|0|0|0|0,1:0|1:0|1:0|1:0|1:0|1:0|1:0,0:0:0:0:
477,50,87444,6,0,B|436:39|418:73|418:78|419:82|396:117|362:103,1,135,2|0,0:0|0:0,0:0:0:0:
294,56,87727,6,0,L|216:70,1,67.5000025749208,10|0,0:0|0:0,0:0:0:0:
206,81,87869,1,10,0:0:0:0:
118,106,88010,1,8,0:0:0:0:
30,131,88152,1,8,0:0:0:0:
64,249,88293,21,4,1:2:0:0:
152,224,88435,1,2,0:0:0:0:
240,199,88576,1,2,0:0:0:0:
328,174,88718,2,0,P|360:189|384:219,1,67.5000025749208,0|0,1:0|0:0,0:0:0:0:
362,293,88859,5,2,0:0:0:0:
274,317,89001,1,2,3:2:0:0:
274,317,89072,1,0,3:0:0:0:
274,317,89142,1,10,3:2:0:0:
252,323,89213,1,0,3:2:0:0:
230,329,89284,1,2,3:2:0:0:
208,335,89355,1,0,3:2:0:0:
186,341,89425,2,0,L|89:364,1,67.5000025749208,8|0,0:0|3:0,0:0:0:0:
31,321,89567,5,8,0:0:0:0:
29,277,89637,1,0,3:0:0:0:
64,249,89708,1,8,0:0:0:0:
36,160,89850,1,8,0:0:0:0:
73,136,89920,1,8,0:0:0:0:
114,152,89991,1,8,0:0:0:0:
123,175,90061,1,8,0:0:0:0:
132,198,90132,1,8,0:0:0:0:
142,222,90203,1,8,0:0:0:0:
151,245,90275,2,0,P|168:252|197:250,6,33.7500012874604,8|8|8|8|8|8|8,0:0|0:0|0:0|0:0|0:0|0:0|0:0,0:0:0:0:
256,216,90558,5,4,1:2:0:0:
217,65,90699,1,2,0:0:0:0:
217,65,90841,2,0,L|200:163,1,90,2|0,1:2|0:0,0:0:0:0:
327,181,91124,1,2,1:2:0:0:
342,92,91265,1,2,1:2:0:0:
290,19,91407,1,0,1:0:0:0:
290,19,91477,1,0,1:0:0:0:
290,19,91548,1,0,1:0:0:0:
290,19,91619,1,0,1:0:0:0:
290,19,91690,2,0,P|336:46|469:88,2,180,0|0|0,1:0|1:0|1:0,0:0:0:0:
407,161,92397,22,0,L|454:250,1,90,0|0,1:0|1:0,0:0:0:0:
466,268,92609,1,0,1:0:0:0:
466,268,92680,1,0,1:0:0:0:
449,296,92750,1,0,1:0:0:0:
417,305,92822,2,0,P|363:292|336:251,1,90,8|0,0:0|1:0,0:0:0:0:
333,187,93105,1,0,1:0:0:0:
210,348,93246,6,0,L|310:351,1,90,8|0,0:0|1:0,0:0:0:0:
131,334,93529,2,0,P|135:314|158:284,1,45,0|0,1:0|0:0,0:0:0:0:
226,254,93671,1,8,0:0:0:0:
205,227,93741,1,8,0:0:0:0:
176,210,93812,1,8,0:0:0:0:
143,205,93883,1,8,0:0:0:0:
110,213,93954,1,8,0:0:0:0:
2,346,94095,6,0,L|0:296,1,45,2|0,0:3|0:0,0:0:0:0:
63,148,94237,2,0,P|55:192|29:228,1,90,0|0,1:0|1:0,0:0:0:0:
16,81,94520,1,0,1:0:0:0:
83,38,94661,1,8,0:0:0:0:
83,38,94732,2,0,L|133:40,1,45,8|0,0:0|3:0,0:0:0:0:
256,44,94944,1,0,1:0:0:0:
163,115,95086,5,12,0:1:0:0:
256,44,95227,1,0,1:0:0:0:
163,115,95369,2,0,P|221:124|243:203,1,135,8|0,0:0|0:0,0:0:0:0:
238,204,95652,2,0,B|220:246|220:246|235:287,1,90,8|0,0:0|0:0,0:0:0:0:
325,351,95935,1,8,0:0:0:0:
325,351,96005,1,0,1:0:0:0:
325,351,96076,1,0,1:0:0:0:
325,351,96147,1,0,1:0:0:0:
325,351,96218,1,8,0:0:0:0:
241,384,96359,1,0,1:0:0:0:
157,357,96501,1,8,0:0:0:0:
388,154,96784,22,0,P|374:130|327:79,2,90,8|8|0,0:0|0:0|1:0,0:0:0:0:
397,187,97138,1,0,1:0:0:0:
397,187,97208,1,0,1:0:0:0:
363,215,97278,1,0,1:0:0:0:
319,216,97349,1,8,0:0:0:0:
421,277,97491,1,0,1:0:0:0:
503,257,97633,1,0,1:0:0:0:
319,216,97775,5,8,0:0:0:0:
424,265,97917,1,0,1:0:0:0:
504,236,98058,1,0,1:0:0:0:
470,134,98199,1,8,0:0:0:0:
473,106,98269,1,8,0:0:0:0:
477,78,98340,1,8,0:0:0:0:
480,50,98411,1,8,0:0:0:0:
484,22,98482,1,0,1:0:0:0:
335,42,98624,6,0,B|341:63|341:63|332:84,1,45,2|0,0:3|0:0,0:0:0:0:
200,179,98765,1,8,0:0:0:0:
200,179,98907,2,0,P|244:172|276:141,1,90,0|0,1:0|1:0,0:0:0:0:
142,6,99260,1,8,0:0:0:0:
142,6,99331,2,0,L|47:21,1,90,8|0,0:0|1:0,0:0:0:0:
256,21,99614,5,12,0:1:0:0:
192,75,99756,1,0,1:0:0:0:
119,105,99897,2,0,P|93:144|101:217,1,90,8|0,0:0|1:0,0:0:0:0:
89,186,100109,1,0,1:0:0:0:
89,186,100180,2,0,L|86:291,1,90,8|0,0:0|1:0,0:0:0:0:
63,358,100392,1,0,1:0:0:0:
63,358,100463,2,0,P|107:332|164:343,1,90,8|0,0:0|1:0,0:0:0:0:
222,376,100675,1,0,1:0:0:0:
222,376,100746,1,8,0:0:0:0:
181,260,100888,21,0,1:0:0:0:
176,237,100958,1,0,1:0:0:0:
172,215,101029,1,8,0:0:0:0:
276,312,101171,1,0,1:0:0:0:
271,289,101241,1,0,1:0:0:0:
267,267,101312,1,8,0:0:0:0:
371,274,101454,1,0,1:0:0:0:
367,296,101525,1,0,1:0:0:0:
362,319,101595,1,8,0:0:0:0:
466,222,101737,1,0,1:0:0:0:
462,244,101808,1,0,1:0:0:0:
457,267,101878,1,8,0:0:0:0:
484,132,102020,5,0,1:0:0:0:
484,132,102091,1,0,1:0:0:0:
484,132,102161,2,0,L|371:150,1,90,8|0,0:0|1:0,0:0:0:0:
333,93,102374,1,0,1:0:0:0:
321,85,102444,2,0,P|296:122|312:186,1,90,8|0,0:0|1:0,0:0:0:0:
351,13,102657,1,0,1:0:0:0:
343,0,102727,2,0,B|298:-3|298:-3|251:42,1,90,8|0,0:0|1:0,0:0:0:0:
215,91,102940,1,0,1:0:0:0:
222,104,103010,1,8,0:0:0:0:
114,35,103152,5,0,1:0:0:0:
158,33,103222,1,0,1:0:0:0:
192,5,103293,1,8,0:0:0:0:
40,78,103435,1,0,1:0:0:0:
57,105,103505,1,0,1:0:0:0:
88,117,103576,1,8,0:0:0:0:
55,189,103718,1,0,1:0:0:0:
76,199,103788,1,0,1:0:0:0:
100,195,103859,2,0,P|134:221|138:275,1,90,8|0,0:0|0:0,0:0:0:0:
13,359,104142,5,4,1:2:0:0:
49,354,104212,1,0,1:0:0:0:
87,350,104283,1,0,1:0:0:0:
124,346,104354,1,0,1:0:0:0:
161,342,104425,1,0,1:0:0:0:
198,339,104495,1,0,1:0:0:0:
236,334,104566,1,0,1:0:0:0:
272,331,104637,1,0,1:0:0:0:
310,326,104708,2,0,L|321:269,1,45,0|0,1:0|1:0,0:0:0:0:
291,205,104850,1,0,1:0:0:0:
245,102,104991,2,0,P|233:127|239:166,1,45,0|0,1:0|1:0,0:0:0:0:
291,205,105133,2,0,L|350:194,1,45,0|0,1:0|1:0,0:0:0:0:
417,191,105275,21,0,1:0:0:0:
421,157,105345,1,0,1:0:0:0:
417,124,105416,1,0,1:0:0:0:
406,92,105487,1,0,1:0:0:0:
387,64,105558,1,0,1:0:0:0:
361,42,105628,1,0,1:0:0:0:
332,27,105699,1,0,1:0:0:0:
299,19,105770,1,0,1:0:0:0:
265,19,105841,2,0,P|227:47|176:41,1,90,0|0,1:0|1:0,0:0:0:0:
116,2,106053,1,0,1:0:0:0:
116,2,106124,1,0,1:0:0:0:
108,29,106194,1,0,1:0:0:0:
103,60,106265,1,0,1:0:0:0:
98,90,106336,1,0,1:0:0:0:
94,118,106407,2,0,B|91:141|91:141|109:168,1,45,8|8,0:3|0:3,0:0:0:0:
171,204,106548,5,4,0:3:0:0:
216,215,106618,1,4,0:3:0:0:
256,192,106689,1,4,0:3:0:0:
260,196,106831,1,0,1:0:0:0:
264,200,106973,2,0,P|286:215|301:252,1,45,8|8,0:3|0:3,0:0:0:0:
325,311,107114,5,0,1:0:0:0:
301,350,107185,1,0,1:0:0:0:
257,363,107255,1,0,1:0:0:0:
210,361,107326,1,0,1:0:0:0:
178,329,107397,1,0,1:0:0:0:
167,373,107468,1,0,1:0:0:0:
135,341,107539,2,0,B|57:260|57:260|66:135,1,236.250009012223,4|0,1:2|0:0,0:0:0:0:
118,78,108105,5,8,0:0:0:0:
126,76,108175,1,8,0:0:0:0:
134,75,108246,2,0,P|151:78|174:91,1,33.7500012874604,8|8,0:0|0:0,0:0:0:0:
236,122,108388,1,8,0:0:0:0:
243,124,108458,1,8,0:0:0:0:
251,127,108529,2,0,L|298:119,1,33.7500012874604,8|8,0:0|0:0,0:0:0:0:
419,0,108671,22,0,P|367:46|393:144,1,168.75,6|0,1:0|0:0,0:0:0:0:
450,178,108954,1,2,0:0:0:0:
470,206,109024,1,2,0:0:0:0:
468,240,109095,1,2,0:0:0:0:
446,266,109166,1,2,0:0:0:0:
412,274,109237,2,0,L|351:265,1,56.25,8|0,0:0|0:0,0:0:0:0:
281,227,109378,2,0,P|266:251|287:290,1,56.25,2|0,0:3|0:0,0:0:0:0:
306,356,109520,5,2,0:0:0:0:
317,347,109591,1,2,0:0:0:0:
328,340,109661,1,2,1:2:0:0:
141,290,109803,1,2,0:0:0:0:
152,281,109874,1,2,0:0:0:0:
163,274,109944,1,2,0:0:0:0:
174,265,110015,1,2,0:0:0:0:
185,258,110086,1,2,1:2:0:0:
228,356,110227,5,2,0:0:0:0:
217,363,110297,1,2,0:0:0:0:
206,372,110369,2,0,L|145:381,1,45,10|0,0:0|0:0,0:0:0:0:
123,239,110510,2,0,P|138:262|141:290,1,56.25,2|0,0:0|0:0,0:0:0:0:
6,378,110652,2,0,B|45:365|45:365|85:250|85:250|124:239,1,202.500007724762,2|0,0:3|0:0,0:0:0:0:
180,178,110935,6,0,P|189:151|162:159,1,67.5000025749208,2|0,0:1|0:0,0:0:0:0:
20,145,111076,2,0,B|84:163,1,67.5000025749208,2|0,0:1|0:0,0:0:0:0:
185,182,111218,1,2,0:1:0:0:
217,191,111288,1,0,3:0:0:0:
249,200,111359,1,0,1:0:0:0:
24,38,111501,22,0,P|79:74|144:65,1,135.000005149842,8|0,0:0|3:0,0:0:0:0:
184,43,111713,1,0,3:0:0:0:
213,9,111784,1,2,1:2:0:0:
218,33,111854,1,2,0:0:0:0:
223,58,111925,1,2,0:0:0:0:
228,83,111996,1,2,0:0:0:0:
233,108,112067,1,2,1:2:0:0:
318,0,112208,5,2,0:0:0:0:
361,18,112303,5,2,0:0:0:0:
371,67,112397,5,2,0:0:0:0:
339,104,112491,22,0,L|315:203,1,75,2|2,1:2|0:0,0:0:0:0:
330,200,112633,2,0,P|301:241|221:237,1,112.5,8|2,0:0|0:0,0:0:0:0:
178,202,112845,1,2,0:0:0:0:
181,185,112916,2,0,B|126:175|126:175|52:215,1,112.5,2|0,1:3|0:0,0:0:0:0:
135,89,113199,6,0,B|195:89|229:147|229:147|258:199|330:199,1,236.250009012223,0|0,1:0|0:0,0:0:0:0:
410,237,113765,6,0,L|419:182,1,56.25,2|0,1:3|0:0,0:0:0:0:
431,101,113907,1,2,0:0:0:0:
398,318,114048,1,2,1:2:0:0:
384,320,114118,1,2,0:0:0:0:
370,322,114189,1,2,0:0:0:0:
356,325,114260,1,2,0:0:0:0:
342,327,114331,5,2,1:2:0:0:
296,362,114425,21,2,0:0:0:0:
242,342,114520,5,2,0:0:0:0:
198,377,114614,5,2,0:0:0:0:
184,379,114684,1,2,0:0:0:0:
170,381,114755,1,2,1:2:0:0:
156,384,114826,1,2,0:0:0:0:
142,386,114897,2,0,P|128:364|132:330,1,56.25,8|0,0:0|0:0,0:0:0:0:
167,262,115039,1,2,0:0:0:0:
58,131,115180,6,0,B|94:151|94:151|82:270|82:270|40:286,1,202.500007724762,2|0,1:2|0:0,0:0:0:0:
43,284,115463,1,0,1:2:0:0:
175,180,115605,21,2,0:0:0:0:
205,165,115675,1,2,0:0:0:0:
235,151,115746,1,2,0:0:0:0:
268,158,115817,1,2,0:0:0:0:
309,174,115888,1,2,1:2:0:0:
309,174,115958,1,2,0:0:0:0:
309,173,116029,2,0,P|330:187|364:183,1,56.25,8|0,0:0|0:0,0:0:0:0:
432,140,116171,1,0,3:0:0:0:
432,140,116241,1,0,3:0:0:0:
432,140,116312,1,0,1:0:0:0:
463,235,116454,1,2,0:3:0:0:
255,306,116595,5,2,0:0:0:0:
248,318,116665,1,2,0:0:0:0:
242,331,116736,1,2,0:0:0:0:
235,343,116808,1,2,0:0:0:0:
229,356,116879,5,2,1:2:0:0:
285,341,116973,5,2,0:0:0:0:
341,326,117067,21,2,0:0:0:0:
397,311,117161,5,10,0:0:0:0:
437,351,117256,6,0,L|476:390,1,45.0000017166138,0|0,1:0|1:0,0:0:0:0:
328,247,117444,6,0,P|338:232|334:248,1,45.0000017166138,0|0,1:0|1:0,0:0:0:0:
200,238,117657,21,0,1:0:0:0:
200,238,117727,2,0,L|136:357,1,135,2|0,1:3|0:0,0:0:0:0:
34,356,118010,54,1,B|27:356|17:350|17:350|14:352|14:352|18:355|22:358|22:358|16:367|16:367|2:360|-9:351|-9:351|-7:309|3:285|27:281|31:289|31:289|44:286|62:290|62:290|68:282|89:287|98:310|99:357|99:357|84:363|70:369|70:369|64:359|64:359|70:358|74:355|74:355|72:353|72:353|56:357|34:356,1,360,2|0,0:1|0:0,0:0:0:0:
26,207,118223,5,2,0:0:0:0:
26,207,118293,2,0,P|59:165|58:98,1,90,12|0,0:0|3:0,0:0:0:0:
22,16,118576,1,0,1:2:0:0:
22,16,118647,1,0,3:0:0:0:
22,16,118718,1,0,0:0:0:0:
184,44,118859,6,0,L|83:53,2,90,0|0|0,1:0|3:0|1:0,0:0:0:0:
254,99,119213,1,0,3:0:0:0:
254,99,119284,2,0,P|244:45|294:-2,1,90,0|0,1:0|1:0,0:0:0:0:
404,124,119567,1,0,3:0:0:0:
411,145,119637,1,0,3:0:0:0:
419,166,119708,1,0,1:0:0:0:
475,45,119850,2,0,L|430:48,1,45,0|0,1:0|0:0,0:0:0:0:
325,135,119991,6,0,P|315:189|365:236,1,90,2|0,1:3|0:0,0:0:0:0:
473,350,120275,1,0,1:0:0:0:
473,350,120345,1,0,1:0:0:0:
473,350,120416,2,0,B|433:329|433:329|379:343,1,90,0|0,1:0|1:0,0:0:0:0:
265,384,120699,1,0,3:0:0:0:
268,361,120769,1,0,3:0:0:0:
271,339,120840,1,0,1:0:0:0:
274,316,120911,1,0,3:0:0:0:
277,294,120982,2,0,P|304:293|335:304,1,45,0|0,3:0|3:0,0:0:0:0:
188,359,121124,6,0,B|144:370|144:370|104:349,1,90,0|0,1:0|3:0,0:0:0:0:
97,263,121336,1,0,3:0:0:0:
94,240,121406,1,0,1:0:0:0:
91,218,121477,1,0,3:0:0:0:
88,195,121548,1,0,3:0:0:0:
85,173,121619,1,0,3:0:0:0:
82,151,121690,2,0,P|39:143|-16:186,1,90,0|0,1:0|3:0,0:0:0:0:
181,253,121902,1,0,3:0:0:0:
181,253,121973,2,0,B|176:220|176:220|201:155|201:155|196:122,1,135,0|0,1:0|0:0,0:0:0:0:
152,50,122256,22,0,P|133:38|94:40,1,45,8|0,0:0|0:0,0:0:0:0:
270,87,122397,2,0,L|319:83,1,45,8|0,0:0|0:0,0:0:0:0:
398,75,122539,1,8,0:0:0:0:
398,75,122680,1,2,0:3:0:0:
398,75,122822,2,0,P|398:102|385:130,1,45,8|0,0:0|0:0,0:0:0:0:
292,284,122963,2,0,L|305:219,1,45,8|0,0:0|0:0,0:0:0:0:
375,199,123105,1,8,0:0:0:0:
375,199,123246,1,2,0:3:0:0:
375,199,123388,6,0,P|402:208|420:231,1,45,8|0,0:0|0:0,0:0:0:0:
326,362,123529,2,0,L|262:369,1,45,8|0,0:0|0:0,0:0:0:0:
202,384,123671,1,8,0:0:0:0:
202,384,123812,1,2,0:0:0:0:
202,384,123954,2,0,P|184:368|148:363,1,45,10|0,0:0|0:0,0:0:0:0:
109,211,124095,2,0,L|99:267,1,45,10|0,0:0|0:0,0:0:0:0:
86,345,124237,1,8,0:0:0:0:
86,345,124378,1,0,1:0:0:0:
14,238,124520,5,8,0:0:0:0:
17,215,124590,1,8,0:0:0:0:
21,193,124661,1,8,0:0:0:0:
25,170,124732,1,8,0:0:0:0:
29,148,124803,1,8,0:0:0:0:
185,293,124944,5,8,0:0:0:0:
188,261,125014,1,8,0:0:0:0:
193,233,125085,1,8,0:0:0:0:
199,201,125156,1,8,0:0:0:0:
204,172,125227,1,8,0:0:0:0:
355,358,125369,21,8,0:0:0:0:
359,316,125439,1,8,0:0:0:0:
365,277,125510,1,8,0:0:0:0:
373,235,125581,1,8,0:0:0:0:
379,196,125652,1,0,1:0:0:0:
347,120,125793,1,0,1:0:0:0:
315,46,125935,1,0,1:0:0:0:
119,141,126076,6,0,P|121:118|130:98,1,45,0|0,3:0|3:0,0:0:0:0:
203,68,126218,2,0,L|246:82,1,45,0|0,3:0|3:0,0:0:0:0:
315,46,126359,1,0,1:0:0:0:
379,194,126501,2,0,P|379:117|456:111,1,168.75,8|0,0:0|0:0,0:0:0:0:
455,110,126784,5,4,0:0:0:0:
57,274,131312,6,0,L|119:278,1,45,2|0,0:0|0:0,0:0:0:0:
172,234,131595,1,2,0:0:0:0:
172,234,131737,2,0,P|215:251|244:306,1,90,2|2,0:0|0:0,0:0:0:0:
192,351,132161,2,0,L|147:348,1,45,2|0,0:0|0:0,0:0:0:0:
239,285,132444,2,0,P|257:268|286:258,2,45,2|2|2,0:0|0:0|0:0,0:0:0:0:
257,185,132869,2,0,B|297:168|297:168|358:181,1,90,2|2,0:0|0:0,0:0:0:0:
421,195,133293,1,2,0:0:0:0:
421,195,133576,22,0,P|447:233|439:288,1,90,2|2,0:0|0:0,0:0:0:0:
375,315,134001,1,2,0:0:0:0:
375,315,134142,2,0,L|367:371,2,45,0|2|2,0:0|0:0|0:0,0:0:0:0:
464,118,134708,1,0,3:0:0:0:
464,118,134921,1,0,3:0:0:0:
464,117,134992,2,0,P|447:117|431:110,1,33.7500012874604,8|0,0:0|0:0,0:0:0:0:
101,22,135275,2,0,L|146:12,1,33.7500012874604,8|0,0:0|0:0,0:0:0:0:
221,0,135416,1,0,1:0:0:0:
221,0,135558,2,0,B|236:40|216:61|213:64|210:67|188:89|202:134,1,135,8|0,0:0|0:0,0:0:0:0:
256,192,135841,5,2,1:3:0:0:
256,192,136124,2,0,L|245:265,1,67.5000025749208,2|2,0:0|0:0,0:0:0:0:
245,258,136407,2,0,P|221:283|168:287,2,67.5000025749208,0|2|2,0:0|0:0|0:0,0:0:0:0:
14,13,136973,1,2,0:0:0:0:
14,13,137256,2,0,L|29:158,1,135.000005149842,2|0,1:2|0:0,0:0:0:0:
30,166,137680,2,0,P|98:178|112:253,1,135.000005149842,2|0,1:3|0:0,0:0:0:0:
0,384,138105,5,2,1:2:0:0:
0,384,138529,2,0,L|11:306,1,67.5000025749208,2|0,0:0|0:0,0:0:0:0:
87,363,138812,1,2,0:0:0:0:
148,338,138954,2,0,P|121:358|88:363,1,67.5000025749208,2|0,0:0|0:0,0:0:0:0:
223,372,139237,1,2,1:2:0:0:
250,243,139378,2,0,B|240:303|240:303|231:310|231:310|222:372,1,135.000005149842,2|2,0:0|0:0,0:0:0:0:
254,151,139803,1,2,0:0:0:0:
254,151,139945,2,0,P|281:171|314:176,2,67.5000025749208,2|0|0,1:2|0:0|0:0,0:0:0:0:
332,257,140369,6,0,B|389:222|389:222|456:233,1,135.000005149842,2|2,1:2|0:0,0:0:0:0:
354,341,140793,1,2,0:0:0:0:
354,341,140935,2,0,P|321:362|293:370,1,67.5000025749208,0|2,0:0|0:0,0:0:0:0:
430,312,141218,2,0,L|497:323,1,67.5000025749208,2|0,0:0|0:0,0:0:0:0:
415,76,141642,1,2,0:0:0:0:
355,100,141784,2,0,P|388:96|415:76,2,67.5000025749208,2|2|2,1:2|0:0|0:0,0:0:0:0:
291,42,142208,2,0,L|315:186,1,135.000005149842,2|2,1:2|0:0,0:0:0:0:
233,188,142633,21,2,1:2:0:0:
162,146,142775,1,2,0:0:0:0:
163,64,142916,2,0,B|204:79|226:58|229:55|232:52|255:29|302:44,1,135.000005149842,2|2,0:0|0:0,0:0:0:0:
162,146,143341,1,2,0:0:0:0:
106,208,143482,1,2,0:0:0:0:
25,216,143624,1,2,0:0:0:0:
25,216,143765,6,0,L|13:288,1,67.5000025749208,2|0,1:2|0:0,0:0:0:0:
74,336,144048,1,2,0:0:0:0:
157,349,144190,1,2,0:0:0:0:
237,315,144331,1,0,1:0:0:0:
237,315,144402,1,0,3:0:0:0:
237,315,144473,1,0,1:0:0:0:
258,190,144614,5,0,1:0:0:0:
260,200,144684,1,0,1:0:0:0:
262,211,144755,1,0,1:0:0:0:
265,222,144826,1,0,1:0:0:0:
267,233,144897,2,0,B|364:238|320:291|431:296,1,180,6|0,1:2|0:0,0:0:0:0:
467,104,145322,2,0,B|476:122|476:122|468:145,1,45,0|0,1:0|0:0,0:0:0:0:
411,205,145463,2,0,P|352:257|310:367,1,180,8|0,0:0|0:0,0:0:0:0:
23,215,146029,6,0,B|54:208|54:208|131:124|131:124|165:118,1,180,0|0,1:0|0:0,0:0:0:0:
356,112,146454,2,0,P|376:122|352:128,1,45,0|0,1:0|0:0,0:0:0:0:
284,146,146595,2,0,B|219:161|219:161|166:119,1,135,8|0,0:0|0:0,0:0:0:0:
89,20,146878,2,0,P|57:76|88:133,1,135,0|0,1:0|0:0,0:0:0:0:
137,197,147161,22,0,B|208:253|208:253|178:345,1,180,0|0,1:0|0:0,0:0:0:0:
28,307,147586,2,0,P|8:314|20:329,1,45,0|0,1:0|0:0,0:0:0:0:
99,342,147727,2,0,B|143:345|143:345|170:314|170:314|216:326|216:326|253:285,1,180,8|0,0:0|0:0,0:0:0:0:
442,31,148293,6,0,P|361:50|363:133,1,180,0|0,1:0|0:0,0:0:0:0:
497,252,148718,2,0,B|510:271|510:271|513:248,1,45,0|0,1:0|0:0,0:0:0:0:
363,134,148859,2,0,B|440:134|411:179|508:174,1,135,8|0,0:0|0:0,0:0:0:0:
410,204,149142,2,0,B|376:263|376:263|406:327,1,135,0|0,1:0|0:0,0:0:0:0:
404,323,149425,6,0,P|337:292|265:313,1,135,8|0,0:0|0:0,0:0:0:0:
279,303,149708,1,0,3:0:0:0:
270,222,149850,2,0,L|228:239,1,45,0|0,1:0|0:0,0:0:0:0:
167,354,149991,2,0,P|241:305|271:222,1,180,8|0,0:0|0:0,0:0:0:0:
52,313,150416,5,0,3:0:0:0:
52,313,150487,1,0,3:0:0:0:
52,313,150558,2,0,L|65:163,1,135,8|0,0:0|0:0,0:0:0:0:
63,178,150841,1,0,3:0:0:0:
72,99,150982,2,0,P|96:102|118:116,1,45,0|0,1:0|0:0,0:0:0:0:
246,102,151124,2,0,L|112:93,1,135,8|0,0:0|0:0,0:0:0:0:
113,112,151407,2,0,P|180:106|245:86,1,135,0|0,1:0|0:0,0:0:0:0:
291,22,151690,21,8,0:0:0:0:
145,266,151973,2,0,P|139:222|167:188,1,90,8|0,0:0|1:0,0:0:0:0:
166,188,152256,2,0,L|190:372,2,180,8|8|8,0:0|0:0|0:0,0:0:0:0:
105,341,152963,5,8,0:0:0:0:
189,366,153105,1,8,0:0:0:0:
263,320,153246,1,8,0:0:0:0:
347,345,153388,1,8,0:0:0:0:
374,341,153458,1,8,0:0:0:0:
402,337,153529,1,8,0:0:0:0:
429,333,153600,1,8,0:0:0:0:
466,338,153671,1,8,0:0:0:0:
466,338,153741,1,8,0:0:0:0:
466,338,153812,2,0,P|479:322|475:287,1,45,8|8,0:0|0:0,0:0:0:0:
419,163,153954,5,4,1:2:0:0:
419,163,154095,2,0,L|410:212,2,33.7500012874604,2|2|2,0:0|0:0|0:0,0:0:0:0:
337,156,154378,1,2,0:0:0:0:
337,156,154449,2,0,P|336:174|322:202,2,33.7500012874604,2|10|2,0:0|0:0|0:0,0:0:0:0:
255,149,154803,1,2,0:0:0:0:
253,157,154873,1,2,0:0:0:0:
251,165,154944,1,2,0:0:0:0:
250,173,155015,1,2,0:0:0:0:
248,182,155086,2,0,L|239:231,2,33.7500012874604,2|2|2,1:2|0:0|0:0,0:0:0:0:
173,142,155510,1,0,0:0:0:0:
173,142,155581,2,0,P|167:157|166:174,2,33.7500012874604,2|10|2,0:0|0:0|0:0,0:0:0:0:
91,135,155935,1,2,0:0:0:0:
89,143,156005,1,2,0:0:0:0:
87,151,156076,2,0,L|78:200,1,33.7500012874604,2|2,0:0|0:0,0:0:0:0:
64,260,156217,5,2,1:2:0:0:
62,268,156288,1,2,0:0:0:0:
60,276,156359,2,0,P|54:291|53:308,2,33.7500012874604,2|2|2,0:0|0:0|0:0,0:0:0:0:
146,267,156642,1,2,0:0:0:0:
144,275,156713,1,2,0:0:0:0:
142,283,156784,1,10,0:0:0:0:
141,291,156855,1,2,0:0:0:0:
228,274,157067,1,2,0:0:0:0:
226,282,157137,1,2,0:0:0:0:
224,290,157208,1,2,0:0:0:0:
223,298,157279,1,2,0:0:0:0:
221,307,157350,2,0,L|212:356,3,33.7500012874604,2|2|2|2,1:2|0:0|0:0|0:0,0:0:0:0:
310,281,157633,1,2,0:0:0:0:
310,281,157775,2,0,P|309:299|295:327,3,33.7500012874604,2|2|10|2,0:0|0:0|0:0|0:0,0:0:0:0:
392,288,158058,1,2,0:0:0:0:
392,288,158199,2,0,L|383:337,2,33.7500012874604,2|2|2,0:0|0:0|0:0,0:0:0:0:
455,377,158411,1,2,0:0:0:0:
455,377,158482,21,0,1:0:0:0:
57,7,158765,5,0,1:0:0:0:
477,294,159048,5,8,0:0:0:0:
34,89,159331,5,0,1:0:0:0:
474,172,159614,21,0,1:0:0:0:
37,211,159897,5,0,1:0:0:0:
357,22,160180,5,8,0:0:0:0:
154,361,160463,5,0,1:0:0:0:
256,104,160746,21,0,1:0:0:0:
343,191,160888,1,0,1:0:0:0:
256,279,161029,1,0,1:0:0:0:
168,191,161171,1,0,1:0:0:0:
256,138,161312,5,0,1:0:0:0:
256,138,161383,1,0,1:0:0:0:
256,138,161454,2,0,P|262:124|261:111,2,22.5,8|8|8,0:0|0:0|0:0,0:0:0:0:
256,246,161596,1,0,1:0:0:0:
256,246,161666,1,0,1:0:0:0:
256,246,161737,2,0,L|256:281,1,33.7500012874604,0|0,1:0|1:0,0:0:0:0:
329,317,161878,1,2,0:0:0:0:
336,291,162303,2,0,P|341:306|329:317,1,33.7500012874604,0|0,3:0|0:0,0:0:0:0:
259,363,162444,5,8,0:0:0:0:
146,328,162586,1,8,0:0:0:0:
64,221,162727,1,8,0:0:0:0:
38,71,162869,1,8,0:0:0:0:
253,10,163010,6,0,B|292:52|292:52|274:104,1,112.5,6|0,1:0|0:0,0:0:0:0:
171,105,163223,1,0,3:0:0:0:
171,105,163293,2,0,P|160:63|192:96,1,112.5,0|0,1:0|0:0,0:0:0:0:
231,207,163506,1,0,3:0:0:0:
215,176,163576,1,0,1:0:0:0:
246,160,163647,1,0,3:0:0:0:
277,144,163718,1,0,3:0:0:0:
311,153,163788,1,0,3:0:0:0:
345,163,163859,2,0,B|397:181|397:181|439:142,1,112.5,0|0,1:0|3:0,0:0:0:0:
511,34,164072,1,0,3:0:0:0:
491,74,164142,21,0,1:0:0:0:
457,43,164212,1,0,3:0:0:0:
416,34,164283,1,0,3:0:0:0:
377,49,164354,1,0,3:0:0:0:
353,82,164425,1,0,1:0:0:0:
408,218,164567,2,0,P|414:249|403:276,1,56.25,2|0,3:0|0:0,0:0:0:0:
333,320,164708,1,0,1:0:0:0:
291,304,164778,1,0,3:0:0:0:
248,288,164849,1,0,3:0:0:0:
205,272,164920,1,0,3:0:0:0:
162,256,164991,1,0,1:0:0:0:
64,359,165204,5,2,0:3:0:0:
64,359,165275,2,0,B|119:369|119:369|169:341,1,112.5,0|0,1:0|3:0,0:0:0:0:
63,224,165487,1,0,3:0:0:0:
63,224,165558,2,0,P|15:249|5:303,1,112.5,0|0,1:0|3:0,0:0:0:0:
41,146,165770,1,0,3:0:0:0:
3,160,165841,1,0,1:0:0:0:
21,122,165911,1,0,3:0:0:0:
50,91,165982,1,0,3:0:0:0:
86,70,166053,1,0,3:0:0:0:
127,61,166124,1,0,1:0:0:0:
263,105,166265,1,0,3:0:0:0:
263,105,166336,1,0,3:0:0:0:
263,105,166407,5,0,1:0:0:0:
220,118,166477,1,0,3:0:0:0:
177,132,166548,1,0,3:0:0:0:
134,145,166619,1,0,3:0:0:0:
174,167,166690,1,0,1:0:0:0:
399,149,166831,1,0,3:0:0:0:
390,128,166902,1,0,3:0:0:0:
381,107,166973,1,0,1:0:0:0:
347,251,167114,1,0,1:0:0:0:
336,211,167185,1,0,1:0:0:0:
325,170,167256,1,0,1:0:0:0:
473,128,167397,1,0,1:0:0:0:
512,275,167539,6,0,B|467:309|467:309|404:301,1,112.5,0|0,1:0|3:0,0:0:0:0:
345,347,167751,1,0,3:0:0:0:
345,347,167822,2,0,P|315:360|285:360,1,56.25,0|0,1:0|0:0,0:0:0:0:
259,248,167963,1,0,3:0:0:0:
272,283,168034,1,0,3:0:0:0:
272,283,168105,1,0,1:0:0:0:
234,277,168175,1,0,3:0:0:0:
197,272,168246,1,0,3:0:0:0:
166,293,168317,1,0,3:0:0:0:
137,316,168388,1,0,1:0:0:0:
212,173,168529,2,0,B|220:110,1,56.25,0|0,1:0|0:0,0:0:0:0:
228,39,168671,21,0,1:0:0:0:
186,15,168741,1,0,3:0:0:0:
141,19,168812,1,0,3:0:0:0:
93,92,168954,2,0,P|86:146|147:178,1,112.5,0|0,1:0|0:0,0:0:0:0:
212,173,169166,1,0,3:0:0:0:
212,173,169237,2,0,B|274:164,1,56.25,0|0,1:0|0:0,0:0:0:0:
438,138,169378,1,0,1:0:0:0:
394,145,169449,1,0,1:0:0:0:
350,152,169519,1,0,1:0:0:0:
504,185,169661,1,0,0:0:0:0:
452,26,169803,6,0,P|400:7|356:59,1,112.5,4|0,1:2|3:0,0:0:0:0:
359,40,170015,1,0,3:0:0:0:
359,40,170086,2,0,L|349:167,1,112.5,0|0,1:0|0:0,0:0:0:0:
341,343,170369,1,0,1:0:0:0:
341,343,170440,1,0,3:0:0:0:
341,343,170510,1,0,3:0:0:0:
385,336,170580,1,0,3:0:0:0:
429,329,170651,1,0,1:0:0:0:
495,376,170793,1,0,3:0:0:0:
424,222,170935,5,0,1:0:0:0:
384,228,171006,1,0,3:0:0:0:
344,234,171077,1,0,3:0:0:0:
327,246,171147,1,0,3:0:0:0:
311,258,171218,1,0,1:0:0:0:
213,328,171359,1,2,0:0:0:0:
25,151,171501,5,8,0:0:0:0:
75,156,171572,1,8,0:0:0:0:
125,162,171643,1,8,0:0:0:0:
175,167,171713,1,8,0:0:0:0:
226,174,171784,1,8,0:0:0:0:
225,201,171854,1,0,1:0:0:0:
214,227,171925,1,0,1:0:0:0:
194,247,171996,1,0,1:0:0:0:
169,257,172067,2,0,P|126:304|136:353,1,112.5,4|0,1:0|3:0,0:0:0:0:
37,346,172279,21,0,3:0:0:0:
37,346,172350,2,0,L|54:228,1,112.5,0|0,1:0|3:0,0:0:0:0:
97,78,172562,1,0,3:0:0:0:
100,41,172633,1,0,1:0:0:0:
133,60,172703,1,0,3:0:0:0:
174,59,172774,1,0,3:0:0:0:
208,38,172845,1,0,3:0:0:0:
224,2,172916,1,0,1:0:0:0:
25,151,173058,5,0,3:0:0:0:
22,137,173128,1,0,3:0:0:0:
19,123,173199,1,0,1:0:0:0:
46,122,173269,1,0,3:0:0:0:
73,129,173340,1,0,3:0:0:0:
96,145,173411,1,0,3:0:0:0:
113,168,173482,2,0,P|141:172|176:154,1,56.25,0|0,1:0|0:0,0:0:0:0:
269,91,173624,1,0,3:0:0:0:
230,267,173765,1,0,1:0:0:0:
230,267,173836,1,0,3:0:0:0:
256,242,173907,1,0,3:0:0:0:
263,206,173978,1,0,3:0:0:0:
246,173,174048,1,0,1:0:0:0:
190,343,174190,2,0,L|261:353,1,56.25,2|0,3:0|0:0,0:0:0:0:
322,314,174331,6,0,P|374:331|428:316,1,112.5,0|0,1:0|3:0,0:0:0:0:
496,269,174544,1,0,3:0:0:0:
497,225,174614,1,0,1:0:0:0:
499,191,174685,1,0,3:0:0:0:
478,166,174756,1,0,3:0:0:0:
348,22,174897,1,0,1:0:0:0:
375,54,174968,1,0,3:0:0:0:
406,86,175039,1,0,3:0:0:0:
376,254,175180,1,0,1:0:0:0:
391,170,175322,1,0,3:0:0:0:
267,51,175463,5,0,1:0:0:0:
124,84,175604,1,0,3:0:0:0:
145,48,175675,1,0,3:0:0:0:
184,34,175746,1,0,1:0:0:0:
312,124,175888,1,0,3:0:0:0:
291,160,175959,1,0,3:0:0:0:
252,174,176029,1,0,1:0:0:0:
238,172,176099,1,0,3:0:0:0:
224,170,176170,1,0,3:0:0:0:
210,168,176241,1,0,3:0:0:0:
196,166,176312,2,0,L|222:285,1,112.5,0|0,1:2|0:0,0:0:0:0:
16,153,176595,22,0,P|75:152|128:200,1,112.5,8|2,0:0|3:0,0:0:0:0:
97,260,176808,1,0,3:0:0:0:
69,248,176878,2,0,L|50:365,1,112.5,0|0,1:2|1:0,0:0:0:0:
141,383,177091,1,0,1:0:0:0:
138,348,177161,1,0,1:0:0:0:
171,372,177231,1,0,1:0:0:0:
211,384,177302,1,0,1:0:0:0:
354,348,177444,5,0,1:0:0:0:
337,336,177514,1,0,3:0:0:0:
317,330,177585,1,0,3:0:0:0:
296,330,177656,1,0,3:0:0:0:
276,336,177727,2,0,P|275:283|326:234,1,112.5,0|0,1:0|3:0,0:0:0:0:
479,223,177940,1,0,3:0:0:0:
492,247,178010,2,0,B|444:278|444:278|388:264,1,112.5,0|0,1:0|3:0,0:0:0:0:
346,149,178223,1,0,1:0:0:0:
370,108,178293,1,0,1:0:0:0:
346,149,178364,1,0,1:0:0:0:
301,159,178435,2,0,P|272:157|234:132,1,56.25,0|0,1:0|1:0,0:0:0:0:
140,42,178576,2,0,L|179:217,1,168.75,4|0,1:2|0:0,0:0:0:0:
161,192,178859,6,0,P|114:230|50:230,1,112.5,0|0,1:0|3:0,0:0:0:0:
36,209,179072,1,0,3:0:0:0:
22,174,179142,2,0,L|3:291,1,112.5,0|0,1:0|1:0,0:0:0:0:
76,115,179355,1,0,3:0:0:0:
76,115,179425,2,0,P|55:92|18:86,1,56.25,0|0,1:0|0:0,0:0:0:0:
139,41,179567,2,0,L|204:51,1,56.25,0|0,1:0|0:0,0:0:0:0:
268,0,179708,1,0,1:0:0:0:
268,0,179850,2,0,P|285:19|288:57,1,56.25,0|0,1:0|0:0,0:0:0:0:
247,145,179991,5,0,1:0:0:0:
297,166,180061,1,0,1:0:0:0:
350,150,180132,1,0,1:0:0:0:
379,103,180203,1,0,1:0:0:0:
381,47,180275,21,0,1:0:0:0:
379,103,180346,1,0,1:0:0:0:
342,143,180417,1,0,1:0:0:0:
288,150,180487,1,0,1:0:0:0:
244,116,180558,5,0,1:0:0:0:
213,163,180628,1,0,1:0:0:0:
184,211,180699,1,0,1:0:0:0:
196,266,180770,1,0,1:0:0:0:
207,321,180841,1,2,0:0:0:0:
289,336,180982,6,0,L|293:380,1,28.125,2|0,0:3|0:0,0:0:0:0:
370,350,181124,6,0,P|420:341|436:294,1,101.250003862381,2|0,1:0|0:0,0:0:0:0:
424,282,181407,22,0,B|380:247|380:247|323:253,1,112.5,2|0,1:2|3:0,0:0:0:0:
445,192,181619,1,0,3:0:0:0:
445,192,181690,2,0,P|410:155|421:96,1,112.5,0|0,1:0|3:0,0:0:0:0:
478,38,181902,1,0,3:0:0:0:
458,78,181973,1,2,1:2:0:0:
330,109,182114,2,0,L|272:123,1,56.25,0|0,3:0|3:0,0:0:0:0:
218,50,182256,6,0,P|229:99|190:145,1,112.5,0|0,1:0|3:0,0:0:0:0:
140,249,182468,1,0,3:0:0:0:
136,207,182539,1,2,1:2:0:0:
155,166,182610,1,0,3:0:0:0:
192,144,182680,2,0,L|246:130,1,56.25,0|0,3:0|0:0,0:0:0:0:
330,109,182822,2,0,P|330:151|262:211,1,112.5,0|0,1:0|3:0,0:0:0:0:
260,214,183034,1,0,3:0:0:0:
232,224,183105,2,0,B|213:282|213:282|255:345,1,112.5,2|0,1:2|1:0,0:0:0:0:
146,333,183317,1,0,1:0:0:0:
159,290,183388,6,0,P|105:266|38:282,1,112.5,4|0,1:2|3:0,0:0:0:0:
12,198,183600,1,0,3:0:0:0:
12,198,183671,2,0,L|21:131,1,56.25,2|0,1:2|0:0,0:0:0:0:
35,24,183812,1,0,3:0:0:0:
189,79,183954,2,0,P|139:106|71:83,1,112.5,0|0,1:0|3:0,0:0:0:0:
209,40,184166,1,0,3:0:0:0:
189,79,184237,1,2,1:2:0:0:
202,125,184308,1,0,0:0:0:0:
243,139,184378,1,0,0:0:0:0:
342,60,184520,6,0,B|398:69|398:69|340:109,1,112.5,2|0,3:0|3:0,0:0:0:0:
454,5,184732,1,0,3:0:0:0:
454,5,184803,1,2,1:2:0:0:
473,45,184873,1,0,3:0:0:0:
475,89,184944,2,0,P|459:122|423:149,1,56.25,0|0,1:0|0:0,0:0:0:0:
384,191,185086,1,0,1:0:0:0:
278,217,185227,1,0,1:0:0:0:
157,246,185369,1,2,1:2:0:0:
26,278,185510,1,0,1:0:0:0:
204,318,185652,22,0,B|260:303|260:303|331:336,1,112.5,4|0,1:2|3:0,0:0:0:0:
390,361,185864,1,0,3:0:0:0:
350,343,185936,1,2,1:2:0:0:
310,325,186006,1,0,3:0:0:0:
292,365,186076,1,0,3:0:0:0:
53,384,186218,2,0,P|95:365|101:302,1,112.5,0|0,1:2|3:0,0:0:0:0:
26,278,186430,1,0,3:0:0:0:
26,278,186501,2,0,B|18:251|18:251|38:216,1,56.25,2|0,1:2|0:0,0:0:0:0:
101,179,186642,1,0,3:0:0:0:
183,61,186784,6,0,P|132:98|81:88,1,112.5,0|0,1:0|3:0,0:0:0:0:
101,179,186996,1,0,3:0:0:0:
126,206,187066,1,2,1:2:0:0:
161,216,187137,1,0,3:0:0:0:
197,208,187208,1,0,3:0:0:0:
19,141,187350,1,0,1:0:0:0:
40,0,187491,1,0,3:0:0:0:
47,8,187561,1,0,3:0:0:0:
54,16,187633,2,0,L|-1:31,1,56.25,2|0,1:2|0:0,0:0:0:0:
86,90,187775,1,0,3:0:0:0:
230,131,187916,6,0,B|288:167|288:167|373:157,1,135.000005149842,4|0,1:2|0:0,0:0:0:0:
442,80,188128,2,0,P|375:117|379:176,1,135.000005149842,0|0,1:0|0:0,0:0:0:0:
397,177,188341,1,0,1:0:0:0:
182,53,188482,2,0,L|322:40,1,135.000005149842,0|0,1:0|1:0,0:0:0:0:
316,40,188694,1,0,1:0:0:0:
316,40,188765,1,0,1:0:0:0:
476,155,188907,1,0,1:0:0:0:
507,349,189048,6,0,P|439:313|368:342,1,135.000005149842,0|0,1:0|0:0,0:0:0:0:
314,227,189260,2,0,L|301:372,1,135.000005149842,0|0,1:0|0:0,0:0:0:0:
301,361,189473,1,0,1:0:0:0:
142,217,189614,1,0,1:0:0:0:
97,221,189684,1,0,1:0:0:0:
61,247,189755,1,0,1:0:0:0:
40,286,189826,1,0,1:0:0:0:
40,286,189897,2,0,P|29:310|29:333,1,33.7500012874604,2|0,1:3|0:0,0:0:0:0:
222,74,190180,21,0,1:0:0:0:
228,76,190250,1,0,1:0:0:0:
234,79,190321,1,0,1:0:0:0:
241,82,190392,1,0,1:0:0:0:
247,84,190463,1,0,1:0:0:0:
222,239,190605,1,0,1:0:0:0:
203,157,190746,1,0,1:0:0:0:
203,322,190888,1,0,1:0:0:0:
303,216,191029,1,0,1:0:0:0:
344,225,191099,1,0,1:0:0:0:
385,235,191170,1,0,1:0:0:0:
344,246,191241,1,0,1:0:0:0:
304,258,191312,5,0,1:0:0:0:
303,265,191382,1,0,1:0:0:0:
302,272,191454,1,0,1:0:0:0:
301,279,191525,1,0,1:0:0:0:
300,286,191595,1,0,1:0:0:0:
496,341,191737,1,0,1:0:0:0:
362,383,191878,1,0,1:0:0:0:
357,355,191948,1,0,1:0:0:0:
369,330,192019,1,0,1:0:0:0:
392,315,192090,1,0,1:0:0:0:
420,315,192161,2,0,L|465:329,4,33.7500012874604,0|0|0|0|0,1:0|1:0|1:0|1:0|1:0,0:0:0:0:
468,246,192444,5,0,1:0:0:0:
467,239,192516,1,0,1:0:0:0:
466,232,192587,1,0,1:0:0:0:
465,225,192657,1,0,1:0:0:0:
464,218,192727,1,0,1:0:0:0:
423,223,192797,1,0,1:0:0:0:
391,197,192868,1,0,1:0:0:0:
388,156,192939,1,0,1:0:0:0:
416,126,193010,1,0,1:0:0:0:
457,131,193081,1,0,1:0:0:0:
489,105,193152,1,0,1:0:0:0:
491,64,193223,1,0,1:0:0:0:
464,35,193294,1,0,1:0:0:0:
310,143,193435,1,0,1:0:0:0:
363,39,193576,5,0,1:0:0:0:
368,34,193648,1,0,1:0:0:0:
374,30,193719,1,0,1:0:0:0:
379,25,193789,1,0,1:0:0:0:
385,21,193859,1,0,1:0:0:0:
343,30,193929,1,0,1:0:0:0:
302,39,194000,1,0,1:0:0:0:
261,49,194071,1,0,1:0:0:0:
220,58,194142,1,0,1:0:0:0:
207,98,194213,1,0,1:0:0:0:
195,138,194284,1,0,1:0:0:0:
182,178,194355,1,0,1:0:0:0:
170,219,194425,2,0,P|178:295|303:327,1,202.500007724762,2|0,1:0|0:0,0:0:0:0:
285,335,194708,22,0,B|245:328|245:328|171:379|171:379|131:372,1,168.75,4|0,1:2|1:0,0:0:0:0:
37,300,194991,1,0,1:0:0:0:
37,300,195133,2,0,P|19:329|25:362,1,56.25,2|0,0:0|0:0,0:0:0:0:
20,350,195275,2,0,L|36:225,1,112.5,8|0,0:0|1:0,0:0:0:0:
58,205,195487,1,0,3:0:0:0:
81,171,195558,1,0,1:0:0:0:
105,207,195628,1,0,3:0:0:0:
147,222,195699,1,0,1:0:0:0:
22,113,195841,1,4,1:2:0:0:
108,33,195982,5,0,3:0:0:0:
116,61,196053,1,0,3:0:0:0:
124,89,196124,2,0,P|71:120|1:99,1,112.5,0|8,1:0|0:0,0:0:0:0:
197,48,196336,1,0,3:0:0:0:
197,48,196407,2,0,B|252:43|252:43|202:77,1,112.5,8|0,0:0|3:0,0:0:0:0:
330,19,196619,1,0,3:0:0:0:
369,33,196689,1,0,1:0:0:0:
223,197,196831,2,0,P|223:169|240:146,1,56.25,2|0,0:3|0:0,0:0:0:0:
308,100,196973,5,6,1:2:0:0:
327,107,197043,1,2,0:0:0:0:
346,114,197114,1,2,0:0:0:0:
365,121,197185,1,2,0:0:0:0:
392,196,197326,1,2,0:0:0:0:
411,203,197397,1,2,0:0:0:0:
465,353,197539,1,2,1:2:0:0:
438,278,197680,2,0,B|413:280|413:280|394:317|394:317|370:319,2,90,2|2|2,0:0|0:0|0:0,0:0:0:0:
173,334,198105,5,2,1:2:0:0:
275,383,198246,1,2,1:2:0:0:
371,319,198388,1,2,1:2:0:0:
268,268,198529,1,2,1:2:0:0:
177,338,198671,1,2,1:2:0:0:
177,338,198741,2,0,P|61:273|131:234,1,270,0|0,1:0|0:0,0:0:0:0:
131,47,199237,22,0,B|143:152|143:152|185:170|201:201|206:250,1,202.500007724762,6|0,1:2|0:0,0:0:0:0:
240,117,199520,2,0,B|185:85|145:128|145:135|144:141|97:182|48:145,1,202.500007724762,2|0,0:0|0:0,0:0:0:0:
17,76,199803,1,2,1:2:0:0:
30,58,199874,1,2,0:0:0:0:
49,46,199944,1,2,0:0:0:0:
260,25,200086,2,0,L|265:-1,2,22.5,2|0|0,0:0|0:0|0:0,0:0:0:0:
258,41,200227,1,2,0:0:0:0:
279,201,200369,5,2,1:2:0:0:
305,166,200463,5,2,0:0:0:0:
349,156,200557,5,2,0:0:0:0:
387,177,200652,21,2,1:2:0:0:
377,229,200746,5,2,1:2:0:0:
366,282,200841,5,2,1:2:0:0:
392,319,200935,5,2,0:3:0:0:
392,319,201076,2,2,P|367:344|309:354,1,67.5000025749208,2|0,0:3|0:0,0:1:0:0:
173,324,201218,22,0,B|122:330|122:330|171:348,1,101.250003862381,2|0,0:3|0:0,0:0:0:0:
151,243,201501,6,0,P|80:252|41:290,1,120,6|0,1:2|1:0,0:0:0:0:
39,308,201784,1,2,1:2:0:0:
252,351,201973,1,0,0:0:0:0:
252,351,202067,2,0,B|281:298|281:298|262:236,1,120,10|0,0:0|1:0,0:0:0:0:
200,70,202350,1,2,1:2:0:0:
204,180,202539,1,0,0:0:0:0:
204,180,202633,6,0,P|214:166|217:139,2,30,2|2|2,0:0|0:0|0:0,0:0:0:0:
135,132,202822,1,2,0:2:0:0:
119,109,202916,2,0,B|75:102|75:102|27:131,1,90,10|2,0:2|0:0,0:0:0:0:
282,208,203199,2,0,P|356:195|377:122,1,150,2|0,1:3|0:0,0:0:0:0:
335,63,203482,1,2,0:0:0:0:
459,182,203671,1,2,0:0:0:0:
459,182,203765,6,0,B|470:217|470:217|431:301|431:301|392:310,1,168.75,2|0,1:0|0:0,0:0:0:0:
434,383,204048,2,0,P|382:341|316:339,1,135.000005149842,10|0,0:0|0:0,0:0:0:0:
172,362,204331,2,0,L|233:347,1,56.25,2|0,1:2|0:0,0:0:0:0:
226,348,204473,1,2,1:2:0:0:
191,193,204614,2,0,B|195:247|234:274|266:260|309:286|317:347,1,202.500007724762,10|0,0:0|0:0,0:0:0:0:
139,289,204897,22,0,B|83:302|83:302|46:360,1,112.5,6|0,1:2|0:0,0:0:0:0:
53,319,205109,1,2,0:0:0:0:
54,291,205179,1,10,0:0:0:0:
36,270,205250,1,2,0:0:0:0:
17,250,205321,1,2,1:2:0:0:
102,130,205463,1,2,0:0:0:0:
102,130,205534,1,2,0:0:0:0:
102,130,205605,1,2,0:0:0:0:
94,215,205746,1,10,0:0:0:0:
179,95,205888,1,2,0:0:0:0:
29,68,206029,6,0,P|98:20|224:21,1,202.500007724762,2|0,1:3|0:0,0:0:0:0:
277,69,206312,2,0,L|269:109,6,22.5,2|2|2|2|2|2|2,0:0|0:0|0:0|0:0|0:0|0:0|0:0,0:0:0:0:
260,173,206595,1,0,1:0:0:0:
260,173,206737,2,0,P|296:175|325:152,1,67.5000025749208,2|0,0:0|0:0,0:0:0:0:
397,117,206878,2,0,B|359:132|359:132|322:245|322:245|282:267,1,202.500007724762,2|0,1:3|0:0,0:0:0:0:
471,151,207161,6,0,P|472:173|459:191,1,45,12|8,0:0|0:0,0:0:0:0:
407,250,207303,2,0,B|389:302,1,45,8|8,0:0|0:0,0:0:0:0:
325,338,207444,2,0,P|306:350|283:348,1,45,8|8,0:0|0:0,0:0:0:0:
207,332,207586,2,0,B|152:343,1,45,8|8,0:0|0:0,0:0:0:0:
78,367,207727,1,8,0:0:0:0:
78,361,207797,1,8,0:0:0:0:
79,355,207868,1,8,0:0:0:0:
80,350,207939,1,8,0:0:0:0:
81,344,208010,1,8,0:0:0:0:
81,339,208080,1,8,0:0:0:0:
82,333,208151,1,8,0:0:0:0:
83,328,208222,1,8,0:0:0:0:
84,322,208293,6,0,B|86:260|133:244|133:244|178:229|182:160,1,202.500007724762,6|0,1:2|0:0,0:0:0:0:
258,126,208576,2,0,B|262:152|262:152|270:161|270:161|275:189,1,67.5000025749208,2|0,0:0|0:0,0:0:0:0:
214,284,208718,2,0,B|145:280|130:235|130:235|114:188|52:186,1,202.500007724762,2|0,1:2|0:0,0:0:0:0:
13,114,209001,2,0,B|33:102|33:102|63:107,3,45.0000017166138,2|2|2|2,0:0|0:0|0:0|0:0,0:0:0:0:
147,22,209284,21,2,0:0:0:0:
147,22,209355,1,2,0:0:0:0:
147,22,209425,2,0,P|229:77|344:81,1,202.500007724762,2|0,1:2|0:0,0:0:0:0:
408,59,209708,2,0,B|441:70|441:70|407:90,1,67.5000025749208,2|0,0:0|0:0,0:0:0:0:
147,149,209850,2,0,B|243:148|213:68|329:84,1,202.500007724762,2|0,1:2|0:0,0:0:0:0:
477,143,210133,2,0,B|484:176|484:176|461:213,1,67.5000025749208,2|0,0:0|0:0,0:0:0:0:
359,324,210275,2,0,B|383:271|383:255|343:135|383:255|391:268|448:289,1,202.500007724762,10|0,0:0|0:0,0:0:0:0:
428,364,210558,6,0,B|280:306|280:306|212:320,1,202.500007724762,2|0,1:2|0:0,0:0:0:0:
164,351,210841,2,0,P|136:344|157:325,1,67.5000025749208,2|0,0:0|0:0,0:0:0:0:
231,232,210982,2,0,B|252:217|252:217|268:78|268:78|237:97,1,202.500007724762,2|0,1:2|0:0,0:0:0:0:
221,111,211265,2,0,P|229:127|257:120,3,45.0000017166138,2|2|2|2,0:0|0:0|0:0|0:0,0:0:0:0:
74,145,211548,5,2,0:0:0:0:
74,145,211619,1,2,0:0:0:0:
74,145,211690,2,0,P|144:150|75:219,1,202.500007724762,2|0,1:2|0:0,0:0:0:0:
34,280,211973,2,0,B|20:311|20:311|53:293,1,67.5000025749208,2|0,0:0|0:0,0:0:0:0:
93,228,212114,2,0,P|76:146|11:198,1,202.500007724762,2|0,1:2|0:0,0:0:0:0:
21,57,212397,2,0,B|50:38|50:38|90:42,1,67.5000025749208,2|0,0:0|0:0,0:0:0:0:
203,6,212539,2,0,B|147:-15|111:26|109:33|110:39|67:85|22:57,1,202.500007724762,2|0,1:2|0:0,0:0:0:0:
176,89,212822,6,0,B|221:95|221:95|269:188|269:188|320:196,1,202.500007724762,6|0,1:2|0:0,0:0:0:0:
201,233,213105,2,0,P|171:261|162:293,1,67.5000025749208,2|0,0:0|0:0,0:0:0:0:
202,355,213246,1,2,1:2:0:0:
401,204,213388,2,0,B|418:232|418:232|408:265,1,67.5000025749208,10|0,0:0|0:0,0:0:0:0:
347,316,213529,2,0,P|260:268|162:285,1,202.500007724762,2|0,0:0|0:0,0:0:0:0:
99,334,213812,21,2,0:0:0:0:
99,334,213883,1,2,0:0:0:0:
99,334,213954,2,0,B|141:320|141:320|241:378|241:378|287:364,1,202.500007724762,2|0,1:2|0:0,0:0:0:0:
347,316,214237,1,2,0:0:0:0:
320,196,214378,2,0,P|324:162|343:135,1,67.5000025749208,2|0,1:2|0:0,0:0:0:0:
403,28,214520,2,0,L|416:104,1,67.5000025749208,8|0,0:0|0:0,0:0:0:0:
414,94,214661,1,2,0:0:0:0:
503,62,214803,2,0,B|441:93|405:61|405:61|368:28|313:58,1,202.500007724762,2|0,1:2|0:0,0:0:0:0:
198,14,215086,6,0,B|252:-16|252:-16|212:134,1,202.500007724762,2|0,1:2|0:0,0:0:0:0:
216,120,215369,2,0,P|205:148|175:133,1,67.5000025749208,2|0,0:0|0:0,0:0:0:0:
138,69,215510,1,2,1:2:0:0:
0,200,215652,2,0,B|25:179|25:179|29:142,1,67.5000025749208,8|0,0:0|0:0,0:0:0:0:
28,66,215793,2,0,B|136:53|105:132|215:120,1,202.500007724762,2|0,1:2|0:0,0:0:0:0:
111,187,216076,5,2,0:0:0:0:
111,187,216147,1,2,0:0:0:0:
111,187,216218,2,0,B|97:288|97:288|155:378,1,202.500007724762,2|0,1:2|0:0,0:0:0:0:
239,352,216501,2,0,P|255:331|249:356,1,67.5000025749208,2|0,0:0|0:0,0:0:0:0:
227,246,216642,2,0,L|305:258,1,67.5000025749208,2|0,1:2|0:0,0:0:0:0:
337,381,216784,2,0,B|334:319|374:296|380:292|385:289|422:267|416:203,1,202.500007724762,10|0,0:0|0:0,0:0:0:0:
358,153,217067,2,0,B|367:194|367:194|467:252|467:252|476:295,1,202.500007724762,2|0,1:2|0:0,0:0:0:0:
471,313,217350,5,6,1:2:0:0:
492,176,217491,1,0,0:0:0:0:
496,180,217775,1,2,0:0:0:0:
496,180,217916,2,0,P|473:148|476:102,1,67.5000025749208,8|2,0:0|0:0,0:0:0:0:
502,42,218128,1,0,0:0:0:0:
502,42,218199,2,0,L|435:31,1,67.5000025749208,2|0,0:0|0:0,0:0:0:0:
256,78,218482,21,0,1:0:0:0:
355,18,218624,1,2,0:0:0:0:
355,18,218907,1,2,0:0:0:0:
256,78,219048,2,0,P|276:91|305:96,1,33.7500012874604,8|0,0:0|0:0,0:0:0:0:
364,96,219190,1,2,0:0:0:0:
242,159,219331,1,2,0:0:0:0:
285,94,219473,1,2,0:0:0:0:
164,157,219614,5,0,1:0:0:0:
158,90,219756,2,0,L|164:158,1,67.5000025749208,2|0,0:0|0:0,0:0:0:0:
84,251,220039,1,2,0:0:0:0:
27,221,220180,2,0,P|49:242|97:251,1,67.5000025749208,8|2,0:0|0:0,0:0:0:0:
175,244,220392,1,2,0:0:0:0:
175,244,220463,1,2,0:0:0:0:
25,325,220605,2,0,L|103:337,1,67.5000025749208,0|2,0:0|1:2,0:0:0:0:
245,297,220888,1,2,0:0:0:0:
245,297,221171,5,2,0:0:0:0:
164,367,221312,2,0,P|168:346|187:328,1,33.7500012874604,8|0,0:0|0:0,0:0:0:0:
314,257,221454,1,2,0:0:0:0:
324,237,221525,1,2,0:0:0:0:
328,215,221595,1,2,0:0:0:0:
383,296,221737,1,2,0:0:0:0:
512,192,221878,5,8,0:0:0:0:
0,192,222161,2,0,L|76:192,1,67.5000025749208,0|0,1:0|0:0,0:0:0:0:
444,144,222444,21,8,0:0:0:0:
132,144,222727,2,0,P|152:116|184:100,1,67.5000025749208,0|0,1:0|0:0,0:0:0:0:
376,96,223010,5,8,0:0:0:0:
132,236,223293,2,0,L|208:236,1,67.5000025749208,0|0,1:0|0:0,0:0:0:0:
308,48,223576,5,8,0:0:0:0:
264,284,223859,2,0,P|284:312|316:328,1,67.5000025749208,0|0,1:0|0:0,0:0:0:0:
392,315,224142,5,8,0:0:0:0:
152,351,224284,1,8,0:0:0:0:
392,315,224425,1,8,0:0:0:0:
152,351,224567,1,8,0:0:0:0:
392,315,224708,21,0,1:0:0:0:
360,309,224778,1,0,1:0:0:0:
329,308,224849,1,0,1:0:0:0:
299,317,224920,1,0,1:0:0:0:
273,335,224991,1,0,1:0:0:0:
245,350,225061,1,0,1:0:0:0:
214,356,225132,1,0,1:0:0:0:
182,355,225203,1,0,1:0:0:0:
152,351,225841,6,0,L|158:307,1,33.7500012874604,8|0,0:0|0:0,0:0:0:0:
100,209,225982,2,0,P|113:221|128:229,1,33.7500012874604,8|0,0:0|0:0,0:0:0:0:
203,255,226124,2,0,L|209:211,1,33.7500012874604,10|0,0:0|0:0,0:0:0:0:
315,242,226265,2,0,P|299:246|283:247,1,33.7500012874604,8|0,0:0|0:0,0:0:0:0:
168,150,226407,6,0,B|257:216|257:216|237:329,1,225,2|0,0:3|0:0,0:0:0:0:
