osu file format v14

[General]
AudioFilename: audio.mp3
AudioLeadIn: 0
PreviewTime: 17110
Countdown: 0
SampleSet: Soft
StackLeniency: 0.3
Mode: 0
LetterboxInBreaks: 0
WidescreenStoryboard: 1

[Editor]
Bookmarks: 10858,17110,72239,81333
DistanceSpacing: 1.6
BeatDivisor: 4
GridSize: 8
TimelineZoom: 1

[Metadata]
Title:Scuba Diving
TitleUnicode:Scuba Diving
Artist:Cat System Corp.
ArtistUnicode:猫 シ Corp.
Creator:Mismagius
Version:Hard
Source:
Tags:catsystemcorp enya caribbean blue vaporwave 太陽。慰安。楽園。 instrumental
BeatmapID:2532587
BeatmapSetID:895579

[Difficulty]
HPDrainRate:4
CircleSize:6
OverallDifficulty:6
ApproachRate:7
SliderMultiplier:1.2
SliderTickRate:1

[Events]
//Background and Video events
0,0,"wallhaven-690884.jpg",0,0
//Break Periods
//Storyboard Layer 0 (Background)
//Storyboard Layer 1 (Fail)
//Storyboard Layer 2 (Pass)
//Storyboard Layer 3 (Foreground)
//Storyboard Layer 4 (Overlay)
//Storyboard Sound Samples

[TimingPoints]
10858,568.343279340722,4,2,0,5,1,0
17109,-100,4,2,0,30,0,0

[Colours]
Combo1 : 255,159,128
Combo2 : 255,255,128
Combo3 : 255,188,128

[HitObjects]
256,192,10858,12,0,16542,0:0:0:0:
114,35,17110,5,0,0:0:0:0:
100,108,17394,1,0,0:0:0:0:
202,67,17678,5,2,0:0:0:0:
202,67,18247,1,0,0:0:0:0:
202,67,18815,6,0,P|198:104|201:127,1,60,0|0,0:0|0:0,0:0:0:0:
221,219,19383,1,2,0:0:0:0:
329,133,19667,6,0,P|333:170|330:193,1,60
310,285,20235,1,2,0:0:0:0:
131,144,20519,6,0,P|127:181|130:204,1,60
150,296,21088,1,2,0:0:0:0:
258,210,21372,6,0,P|262:247|259:270,1,60
239,362,21940,1,2,0:0:0:0:
47,328,22224,6,0,L|106:319,1,60
198,304,22793,1,2,0:0:0:0:
160,370,23077,1,0,0:0:0:0:
198,304,23361,1,0,0:0:0:0:
26,150,23930,6,0,P|22:117|26:81,1,60,0|0,0:0|0:0,0:0:0:0:
123,161,24498,1,2,0:0:0:0:
141,75,24782,1,2,0:0:0:0:
237,170,25066,2,0,P|241:137|237:101,1,60,0|2,0:0|0:0,0:0:0:0:
166,226,25634,6,0,P|162:259|166:295,1,60,0|0,0:0|0:0,0:0:0:0:
236,333,26203,1,0,0:0:0:0:
321,333,26487,1,2,0:0:0:0:
395,298,26771,5,0,0:0:0:0:
301,272,27055,1,0,0:0:0:0:
245,192,27339,1,2,0:0:0:0:
245,192,27624,1,2,0:0:0:0:
296,80,27908,6,0,P|300:117|296:147,1,60,0|0,0:0|0:0,0:0:0:0:
235,28,28476,1,2,0:0:0:0:
155,134,28760,2,0,P|151:171|155:201,2,60,0|0|0,0:0|0:0|0:0,0:0:0:0:
212,76,29613,1,0,0:0:0:0:
104,52,29897,1,2,0:0:0:0:
104,52,30181,2,0,L|34:59,1,60,0|2,0:0|0:0,0:0:0:0:
25,170,30750,5,0,0:0:0:0:
25,170,31034,1,0,0:0:0:0:
66,226,31318,6,0,P|113:229|171:180,1,120,2|0,0:0|0:0,0:0:0:0:
254,255,32170,2,0,P|233:212|161:187,1,120,2|0,0:0|0:0,0:0:0:0:
168,127,33023,6,0,P|164:165|173:202,1,60,2|0,0:0|0:0,0:0:0:0:
210,61,33591,1,0,0:0:0:0:
295,103,33875,2,0,P|260:118|232:144,1,60,2|0,0:0|0:0,0:0:0:0:
373,106,34443,1,0,0:0:0:0:
338,185,34728,6,0,P|336:227|346:263,2,60,2|0|0,0:0|0:0|0:0,0:0:0:0:
376,90,35580,2,0,P|374:48|384:12,2,60,2|0|0,0:0|0:0|0:0,0:0:0:0:
449,167,36433,1,2,0:0:0:0:
449,167,36717,1,0,0:0:0:0:
449,167,37001,2,0,L|455:228,1,60,0|0,0:0|0:0,0:0:0:0:
466,310,37570,5,0,0:0:0:0:
384,298,37854,1,0,0:0:0:0:
328,230,38138,5,0,0:0:0:0:
217,246,38422,2,0,P|212:285|216:314,1,60,2|0,0:0|0:0,0:0:0:0:
275,130,38990,2,0,P|276:159|272:189,1,60,2|0,0:0|0:0,0:0:0:0:
208,236,39559,5,0,0:0:0:0:
127,237,39843,1,0,0:0:0:0:
55,197,40127,1,2,0:0:0:0:
86,301,40411,5,0,0:0:0:0:
127,237,40696,1,0,0:0:0:0:
168,173,40980,1,2,0:0:0:0:
168,173,41264,1,2,0:0:0:0:
206,289,41548,6,0,L|286:282,1,60,0|0,0:0|0:0,0:0:0:0:
354,276,42116,1,2,0:0:0:0:
280,221,42401,2,0,L|200:228,1,60,0|0,0:0|0:0,0:0:0:0:
354,276,42969,5,0,0:0:0:0:
382,195,43253,1,0,0:0:0:0:
362,112,43537,2,0,P|357:67|361:50,1,60,2|0,0:0|0:0,0:0:0:0:
433,9,44106,1,2,0:0:0:0:
432,85,44390,5,0,0:0:0:0:
432,85,44674,1,0,0:0:0:0:
308,10,44958,6,0,L|182:28,1,120,2|0,0:0|0:0,0:0:0:0:
194,111,45811,2,0,L|68:129,1,120,2|0,0:0|0:0,0:0:0:0:
34,201,46663,6,0,L|106:207,1,60,2|0,0:0|0:0,0:0:0:0:
165,171,47231,1,0,0:0:0:0:
129,277,47516,2,0,L|201:283,1,60,2|0,0:0|0:0,0:0:0:0:
260,247,48084,1,0,0:0:0:0:
307,369,48368,6,0,P|314:335|308:304,1,60,2|0,0:0|0:0,0:0:0:0:
260,247,48936,1,0,0:0:0:0:
202,382,49221,6,0,P|195:348|201:317,1,60,2|0,0:0|0:0,0:0:0:0:
249,260,49789,1,0,0:0:0:0:
157,237,50073,2,0,L|93:246,1,60,2|0,0:0|0:0,0:0:0:0:
59,333,50642,1,0,0:0:0:0:
42,180,51210,6,0,P|44:144|36:111,1,60,0|0,0:0|0:0,0:0:0:0:
116,137,51778,1,0,0:0:0:0:
84,47,52062,1,2,0:0:0:0:
181,88,52347,2,0,P|182:59|189:22,1,60,0|2,0:0|0:0,0:0:0:0:
246,129,52915,5,0,0:0:0:0:
246,129,53199,1,0,0:0:0:0:
312,77,53483,1,0,0:0:0:0:
324,167,53767,1,2,0:0:0:0:
401,102,54052,6,0,L|413:167,1,60,0|0,0:0|0:0,0:0:0:0:
431,254,54620,1,2,0:0:0:0:
431,254,54904,1,2,0:0:0:0:
391,337,55188,6,0,P|360:341|329:337,1,60,0|0,0:0|0:0,0:0:0:0:
247,298,55757,1,2,0:0:0:0:
281,384,56041,6,0,P|250:375|223:359,1,60,0|0,0:0|0:0,0:0:0:0:
163,291,56610,1,0,0:0:0:0:
247,273,56893,1,0,0:0:0:0:
296,206,57177,1,2,0:0:0:0:
296,206,57462,2,0,P|298:162|292:134,1,60,0|2,0:0|0:0,0:0:0:0:
266,64,58030,5,0,0:0:0:0:
212,130,58314,1,0,0:0:0:0:
194,18,58598,6,0,P|242:27|326:10,1,120,2|0,0:0|0:0,0:0:0:0:
331,95,59451,2,0,P|379:86|463:103,1,120,2|0,0:0|0:0,0:0:0:0:
484,166,60303,6,0,P|487:201|484:235,1,60,2|0,0:0|0:0,0:0:0:0:
446,299,60872,1,0,0:0:0:0:
404,206,61156,2,0,P|375:230|350:236,1,60,2|0,0:0|0:0,0:0:0:0:
276,236,61724,1,0,0:0:0:0:
293,134,62008,6,0,L|363:139,1,60,2|0,0:0|0:0,0:0:0:0:
326,68,62577,1,0,0:0:0:0:
260,200,62861,2,0,L|330:205,1,60,2|0,0:0|0:0,0:0:0:0:
293,134,63430,1,0,0:0:0:0:
178,174,63713,2,0,P|175:209|179:237,2,60,2|0|0,0:0|0:0|0:0,0:0:0:0:
200,106,64566,1,0,0:0:0:0:
117,66,64850,6,0,L|54:69,1,60,0|0,0:0|0:0,0:0:0:0:
233,23,65418,2,0,L|296:20,1,60,0|2,0:0|0:0,0:0:0:0:
110,78,65987,2,0,L|47:81,1,60,0|2,0:0|0:0,0:0:0:0:
198,21,66555,5,0,0:0:0:0:
220,90,66839,1,0,0:0:0:0:
184,152,67123,1,0,0:0:0:0:
201,223,67408,1,2,0:0:0:0:
260,264,67692,2,0,L|327:261,1,60,0|0,0:0|0:0,0:0:0:0:
192,314,68260,1,2,0:0:0:0:
192,314,68544,1,2,0:0:0:0:
201,223,68829,6,0,P|163:221|130:230,1,60,0|0,0:0|0:0,0:0:0:0:
73,266,69397,1,2,0:0:0:0:
66,125,69681,6,0,L|76:187,1,60,0|0,0:0|0:0,0:0:0:0:
73,266,70249,1,0,0:0:0:0:
116,333,70534,1,0,0:0:0:0:
195,361,70818,2,0,P|226:361|262:353,1,60,2|0,0:0|0:0,0:0:0:0:
319,298,71386,1,2,0:0:0:0:
250,220,71670,5,0,0:0:0:0:
250,220,71954,1,0,0:0:0:0:
323,154,72239,6,0,P|361:154|446:185,1,120,2|0,0:0|0:0,0:0:0:0:
257,127,73091,2,0,P|283:100|365:61,1,120,2|0,0:0|0:0,0:0:0:0:
188,166,73944,6,0,P|183:127|186:103,1,60,2|0,0:0|0:0,0:0:0:0:
207,34,74512,1,0,0:0:0:0:
297,73,74796,2,0,L|290:137,1,60,2|0,0:0|0:0,0:0:0:0:
315,200,75364,1,0,0:0:0:0:
386,131,75649,6,0,P|415:129|452:131,2,60,2|0|0,0:0|0:0|0:0,0:0:0:0:
336,213,76501,2,0,P|307:215|270:213,2,60,2|0|0,0:0|0:0|0:0,0:0:0:0:
422,256,77354,2,0,L|414:324,1,60,2|0,0:0|0:0,0:0:0:0:
322,318,77922,2,0,L|330:386,1,60,0|0,0:0|0:0,0:0:0:0:
287,252,78490,5,0,0:0:0:0:
199,275,78775,1,0,0:0:0:0:
243,182,79059,1,2,0:0:0:0:
243,182,79343,1,2,0:0:0:0:
190,287,79627,6,0,P|192:328|188:358,2,60,0|2|2,0:0|0:0|0:0,0:0:0:0:
139,224,80480,1,0,0:0:0:0:
210,178,80764,1,0,0:0:0:0:
102,147,81048,2,0,L|38:152,1,60,2|0,0:0|0:0,0:0:0:0:
17,223,81616,1,2,0:0:0:0:
17,223,81900,1,0,0:0:0:0:
