osu file format v14

[General]
AudioFilename: audio.mp3
AudioLeadIn: 0
PreviewTime: 17110
Countdown: 0
SampleSet: Soft
StackLeniency: 0.3
Mode: 0
LetterboxInBreaks: 0
WidescreenStoryboard: 1

[Editor]
Bookmarks: 10858,17110,72239,81333
DistanceSpacing: 1.6
BeatDivisor: 4
GridSize: 4
TimelineZoom: 1

[Metadata]
Title:Scuba Diving
TitleUnicode:Scuba Diving
Artist:Cat System Corp.
ArtistUnicode:猫 シ Corp.
Creator:Mismagius
Version:Easy
Source:
Tags:catsystemcorp enya caribbean blue vaporwave 太陽。慰安。楽園。 instrumental
BeatmapID:2533256
BeatmapSetID:895579

[Difficulty]
HPDrainRate:2
CircleSize:4
OverallDifficulty:3
ApproachRate:4
SliderMultiplier:1
SliderTickRate:1

[Events]
//Background and Video events
0,0,"wallhaven-690884.jpg",0,0
//Break Periods
//Storyboard Layer 0 (Background)
//Storyboard Layer 1 (Fail)
//Storyboard Layer 2 (Pass)
//Storyboard Layer 3 (Foreground)
//Storyboard Layer 4 (Overlay)
//Storyboard Sound Samples

[TimingPoints]
10858,568.343279340722,4,2,0,5,1,0
17109,-100,4,2,0,30,0,0

[Colours]
Combo1 : 255,159,128
Combo2 : 255,255,128
Combo3 : 255,188,128

[HitObjects]
256,192,10857,12,0,15404,0:0:0:0:
43,144,17109,6,0,P|40:172|44:196,2,50,0|0|2,0:0|0:0|0:0,0:0:0:0:
144,80,18246,1,0,0:0:0:0:
244,144,18814,6,0,L|300:132,2,50,0|0|2,0:0|0:0|0:0,0:0:0:0:
169,238,19951,2,0,L|113:250,2,50,0|2|0,0:0|0:0|0:0,0:0:0:0:
287,218,21088,2,0,L|240:313,1,100,2|0,0:0|0:0,0:0:0:0:
347,366,22224,6,0,P|395:362|459:382,1,100,0|2,0:0|0:0,0:0:0:0:
502,269,23361,1,0,0:0:0:0:
380,244,23929,6,0,B|360:200|356:148|408:132|408:84|380:40,2,200,0|0|0,0:0|0:0|0:0,0:0:0:0:
320,348,26771,1,0,0:0:0:0:
440,364,27339,1,2,0:0:0:0:
440,364,27624,1,2,0:0:0:0:
481,189,28476,5,2,0:0:0:0:
509,305,29044,2,0,P|459:330|349:254,1,200
252,328,30750,1,0,0:0:0:0:
136,296,31318,6,0,P|132:244|152:192,1,100,2|0,0:0|0:0,0:0:0:0:
188,156,32170,2,0,P|203:108|199:59,1,100,2|0,0:0|0:0,0:0:0:0:
156,16,33023,5,2,0:0:0:0:
335,4,33875,2,0,P|430:20|480:60,2,150,2|2|2,0:0|0:0|0:0,0:0:0:0:
216,139,36433,2,0,P|204:195|216:243,1,100,2|0,0:0|0:0,0:0:0:0:
268,340,37570,6,0,L|376:332,1,100,0|2,0:0|0:0,0:0:0:0:
488,328,38706,1,0,0:0:0:0:
424,224,39275,2,0,P|420:184|424:160,2,50,0|0|2,0:0|0:0|0:0,0:0:0:0:
368,332,40411,1,0,0:0:0:0:
248,336,40980,5,2,0:0:0:0:
248,336,41264,1,2,0:0:0:0:
281,159,42116,6,0,P|289:95|273:55,1,100,2|0,0:0|0:0,0:0:0:0:
180,132,43253,2,0,P|172:196|188:236,1,100,0|0,0:0|0:0,0:0:0:0:
248,336,44390,1,0,0:0:0:0:
352,276,44958,6,0,L|452:284,1,100,2|0,0:0|0:0,0:0:0:0:
484,232,45811,2,0,L|492:132,1,100,2|0,0:0|0:0,0:0:0:0:
480,72,46663,2,0,P|440:96|372:96,1,100,2|0,0:0|0:0,0:0:0:0:
336,72,47516,2,0,P|286:75|243:99,1,100,2|0,0:0|0:0,0:0:0:0:
228,156,48368,6,0,P|231:205|255:248,1,100,2|0,0:0|0:0,0:0:0:0:
296,292,49221,2,0,P|216:276|152:308,1,150,2|2,0:0|0:0,0:0:0:0:
64,384,50642,1,0,0:0:0:0:
12,276,51210,6,0,P|0:220|128:32,1,300
245,47,53483,1,2,0:0:0:0:
303,151,54052,1,0,0:0:0:0:
279,268,54620,5,2,0:0:0:0:
279,268,54904,1,2,0:0:0:0:
112,337,55757,6,0,P|60:344|9:323,1,100,2|0,0:0|0:0,0:0:0:0:
55,214,56893,1,2,0:0:0:0:
171,245,57462,1,0,0:0:0:0:
164,124,58030,6,0,L|152:64,2,50,0|0|2,0:0|0:0|0:0,0:0:0:0:
276,76,59167,2,0,L|288:16,1,50,0|2,0:0|0:0,0:0:0:0:
392,80,60019,6,0,L|404:140,1,50,0|2,0:0|0:0,0:0:0:0:
489,211,60872,2,0,L|498:161,1,50,0|2,0:0|0:0,0:0:0:0:
484,108,61440,2,0,P|444:84|294:90,2,200,0|0|2,0:0|0:0|0:0,0:0:0:0:
457,225,64282,1,0,0:0:0:0:
338,240,64850,6,0,P|330:200|334:176,2,50,0|0|2,0:0|0:0|0:0,0:0:0:0:
246,317,65987,2,0,L|186:329,1,50,0|2,0:0|0:0,0:0:0:0:
83,287,66839,2,0,L|23:299,2,50,0|0|2,0:0|0:0|0:0,0:0:0:0:
174,133,68260,1,2,0:0:0:0:
174,133,68544,1,2,0:0:0:0:
174,133,68829,6,0,B|207:204|295:221|350:124|438:73|534:124|551:225|501:271|446:279|422:257|422:217,1,500
342,308,72239,6,0,P|294:320|226:308,1,100,2|0,0:0|0:0,0:0:0:0:
191,286,73091,2,0,P|179:238|191:170,1,100,2|0,0:0|0:0,0:0:0:0:
154,135,73944,2,0,P|202:147|270:135,1,100,2|0,0:0|0:0,0:0:0:0:
306,166,74796,2,0,P|318:118|306:50,1,100,2|0,0:0|0:0,0:0:0:0:
272,23,75649,6,0,P|184:19|48:171,1,300,2|2,0:0|0:0,0:0:0:0:
56,283,77922,1,0,0:0:0:0:
170,319,78490,6,0,L|166:375,2,50,0|0|2,0:0|0:0|0:0,0:0:0:0:
226,212,79627,2,0,L|230:156,2,50,0|2|2,0:0|0:0|0:0,0:0:0:0:
334,262,80764,6,0,P|358:266|390:258,2,50,0|2|0,0:0|0:0|0:0,0:0:0:0:
297,309,81616,1,2,0:0:0:0:
