osu file format v14

[General]
AudioFilename: audio.mp3
AudioLeadIn: 0
PreviewTime: 40654
Countdown: 0
SampleSet: Soft
StackLeniency: 0.4
Mode: 0
LetterboxInBreaks: 0
WidescreenStoryboard: 1

[Editor]
Bookmarks: 12824,31464,40202,40299,40785,79814,81270,82726,91464
DistanceSpacing: 1
BeatDivisor: 4
GridSize: 32
TimelineZoom: 1

[Metadata]
Title:Beyond
TitleUnicode:Beyond
Artist:Cat Nap
ArtistUnicode:Cat Nap
Creator:Log Off Now
Version:ailssa's Normal
Source:
Tags:instrumental electronic short cut version ailv crissa tatan alphabet aistre
BeatmapID:1892532
BeatmapSetID:906820

[Difficulty]
HPDrainRate:3
CircleSize:3
OverallDifficulty:4
ApproachRate:5
SliderMultiplier:1.1
SliderTickRate:1

[Events]
//Background and Video events
0,0,"catnap.jpg",0,0
//Break Periods
2,31679,34940
//Storyboard Layer 0 (Background)
//Storyboard Layer 1 (Fail)
//Storyboard Layer 2 (Pass)
//Storyboard Layer 3 (Foreground)
//Storyboard Layer 4 (Overlay)
//Storyboard Sound Samples

[TimingPoints]
2354,582.52427184466,4,2,1,30,1,0
12839,582.52427184466,4,2,1,30,1,0
27984,-100,4,2,1,35,0,0
29149,-100,4,2,1,40,0,0
30314,-100,4,2,1,45,0,0
30897,-100,4,2,1,47,0,0
31479,-100,4,2,1,60,0,0
40800,-100,4,2,1,80,0,0
78081,-100,4,2,2,50,0,0
78227,-100,4,2,2,20,0,0

[Colours]
Combo1 : 248,160,107
Combo2 : 151,138,130
Combo3 : 192,129,129
Combo4 : 139,97,209

[HitObjects]
77,90,12839,6,0,P|132:84|208:77,3,110,2|0|2|0,1:2|1:0|1:2|1:0,0:0:0:0:
282,131,15169,2,0,P|276:186|269:262,3,110,2|0|2|0,1:2|1:0|1:2|1:0,0:0:0:0:
305,344,17499,2,0,P|359:358|416:354,3,110,2|0|2|0,1:2|1:0|1:2|1:0,0:0:0:0:
480,268,19829,2,0,P|494:214|490:157,3,110,2|0|2|0,1:2|1:0|1:2|1:0,0:0:0:0:
441,62,22159,6,0,P|387:69|309:69,1,110,2|0,1:2|1:0,0:0:0:0:
287,101,23033,1,2,0:0:0:0:
287,101,23324,2,0,P|232:93|177:92,1,110,2|0,1:2|1:0,0:0:0:0:
92,161,24489,2,0,L|83:272,1,110,2|0,1:2|1:0,0:0:0:0:
83,329,25363,1,2,0:0:0:0:
83,329,25654,2,0,L|194:338,1,110,2|0,1:2|1:0,0:0:0:0:
247,340,26528,1,2,0:0:0:0:
301,346,26819,5,2,1:2:0:0:
272,240,27402,2,0,L|215:248,2,55,0|2|0,1:0|0:0|1:0,0:0:0:0:
360,174,28567,1,0,1:0:0:0:
295,84,29149,2,0,P|305:43|316:15,2,55,0|2|0,1:0|0:3|1:0,0:0:0:0:
274,135,30023,1,2,0:3:0:0:
274,135,30314,2,0,P|214:132|159:116,1,110,0|0,1:0|1:0,0:0:0:0:
68,68,31479,5,2,1:2:0:0:
256,192,36140,12,0,39635,1:0:0:0:
267,57,40800,6,0,P|284:93|293:124,1,55,0|0,1:0|0:0,0:0:0:0:
351,183,41382,2,0,P|334:219|325:250,1,55,8|2,0:1|0:3,0:0:0:0:
318,332,41965,1,0,1:0:0:0:
122,364,42547,2,0,P|128:337|132:307,1,55,8|2,0:1|0:3,0:0:0:0:
91,219,43130,6,0,L|155:212,1,55,0|2,1:0|0:3,0:0:0:0:
200,130,43712,2,0,L|136:123,1,55,8|2,0:1|0:3,0:0:0:0:
77,51,44295,1,0,1:0:0:0:
271,15,44877,2,0,P|284:45|292:72,1,55,8|0,0:1|0:0,0:0:0:0:
380,108,45460,6,0,P|363:159|353:225,1,110,0|8,1:0|0:1,0:0:0:0:
480,366,46625,2,0,P|452:360|426:360,1,55,0|2,1:0|0:3,0:0:0:0:
327,371,47207,1,8,0:1:0:0:
457,221,47790,6,0,L|465:154,1,55,0|2,1:0|0:3,0:0:0:0:
367,143,48372,2,0,L|340:80,1,55,8|2,0:1|0:3,0:0:0:0:
250,120,48955,1,0,1:0:0:0:
160,77,49246,1,2,0:3:0:0:
75,128,49538,1,8,0:1:0:0:
34,321,50120,6,0,P|75:341|149:337,1,110,0|8,1:0|0:1,0:0:0:0:
211,273,50994,1,2,0:3:0:0:
301,311,51285,2,0,P|332:311|359:304,1,55,0|2,1:0|0:0,0:0:0:0:
436,248,51868,1,8,0:1:0:0:
453,50,52450,6,0,P|426:55|394:55,1,55,0|2,1:0|0:3,0:0:0:0:
323,120,53033,2,0,P|296:115|264:115,1,55,8|2,0:1|0:3,0:0:0:0:
175,147,53615,2,0,P|165:115|152:90,2,55,0|2|8,1:0|0:3|0:1,0:0:0:0:
84,323,54780,5,0,1:0:0:0:
273,266,55363,2,0,P|217:266|160:250,1,110,8|0,0:1|1:0,0:0:0:0:
89,188,56237,1,2,0:3:0:0:
97,89,56528,1,8,0:1:0:0:
289,41,57110,6,0,L|221:37,1,55,0|2,1:0|0:3,0:0:0:0:
261,133,57693,2,0,L|397:125,1,110,8|0,0:1|1:0,0:0:0:0:
458,172,58567,1,2,0:3:0:0:
456,270,58858,1,8,0:1:0:0:
278,357,59440,5,0,1:0:0:0:
268,159,60023,2,0,P|260:214|232:269,1,110,8|0,0:1|1:0,0:0:0:0:
151,314,60897,1,2,0:0:0:0:
57,282,61188,1,8,0:1:0:0:
106,89,61771,6,0,P|135:86|163:78,1,55,0|2,1:0|0:3,0:0:0:0:
219,157,62353,2,0,P|248:160|276:168,1,55,8|2,0:1|0:3,0:0:0:0:
332,89,62936,2,0,P|361:86|389:78,1,55,0|2,1:0|0:3,0:0:0:0:
479,111,63518,1,8,0:1:0:0:
445,306,64101,5,0,1:0:0:0:
249,278,64683,2,0,P|308:275|365:253,1,110,8|0,0:1|1:0,0:0:0:0:
424,187,65557,1,2,0:3:0:0:
396,91,65848,1,8,0:1:0:0:
210,21,66431,6,0,L|204:75,1,55,0|2,1:0|0:3,0:0:0:0:
136,147,67013,2,0,L|142:210,1,55,8|2,0:1|0:3,0:0:0:0:
219,262,67596,2,0,P|187:285|167:307,2,55,0|2|8,1:0|0:3|0:1,0:0:0:0:
415,236,68761,5,0,1:0:0:0:
246,132,69343,2,0,L|363:123,1,110,8|0,0:1|1:0,0:0:0:0:
430,58,70217,1,2,0:0:0:0:
511,113,70508,1,8,0:1:0:0:
392,271,71091,6,0,P|362:273|333:280,1,55,0|2,1:0|0:3,0:0:0:0:
249,234,71673,2,0,P|235:260|227:289,1,55,8|2,0:1|0:3,0:0:0:0:
142,335,72256,2,0,P|158:359|179:381,2,55,0|2|8,1:0|0:3|0:1,0:0:0:0:
116,138,73421,6,0,P|170:136|236:112,1,110,0|8,1:0|0:1,0:0:0:0:
391,15,74586,2,0,P|392:50|401:81,1,55,0|2,1:0|0:3,0:0:0:0:
448,153,75169,1,8,0:1:0:0:
267,233,75751,6,0,P|299:234|331:243,1,55,0|2,1:0|0:3,0:0:0:0:
404,293,76334,1,8,0:1:0:0:
218,361,76916,2,0,P|209:322|200:303,1,55,0|2,1:0|0:3,0:0:0:0:
267,233,77499,2,0,P|276:194|285:175,2,55,8|0|0,0:1|0:0|0:0,0:0:0:0:
256,192,78664,12,2,82741,0:0:0:0:
