osu file format v14

[General]
AudioFilename: audio.mp3
AudioLeadIn: 0
PreviewTime: 40654
Countdown: 0
SampleSet: Drum
StackLeniency: 0.4
Mode: 0
LetterboxInBreaks: 0
WidescreenStoryboard: 1

[Editor]
Bookmarks: 12824,31464,40202,40299,40785,79814,81270,82726,91464
DistanceSpacing: 1.3
BeatDivisor: 4
GridSize: 32
TimelineZoom: 1

[Metadata]
Title:Beyond
TitleUnicode:Beyond
Artist:Cat Nap
ArtistUnicode:Cat Nap
Creator:Log Off Now
Version:Tatan's Hard
Source:
Tags:instrumental electronic short cut version ailv crissa tatan alphabet aistre
BeatmapID:1951480
BeatmapSetID:906820

[Difficulty]
HPDrainRate:4
CircleSize:3.5
OverallDifficulty:6
ApproachRate:7
SliderMultiplier:1.4
SliderTickRate:1

[Events]
//Background and Video events
0,0,"catnap.jpg",0,0
//Break Periods
2,31679,35239
//Storyboard Layer 0 (Background)
//Storyboard Layer 1 (Fail)
//Storyboard Layer 2 (Pass)
//Storyboard Layer 3 (Foreground)
//Storyboard Layer 4 (Overlay)
//Storyboard Sound Samples

[TimingPoints]
2354,582.52427184466,4,2,1,30,1,0
12839,582.52427184466,4,2,1,30,1,0
27984,-100,4,2,1,35,0,0
29149,-100,4,2,1,40,0,0
30314,-100,4,2,1,45,0,0
30751,-100,4,2,1,46,0,0
30897,-100,4,2,1,47,0,0
31042,-100,4,2,1,48,0,0
31188,-100,4,2,1,49,0,0
31334,-100,4,2,1,50,0,0
31479,-100,4,2,1,60,0,0
40217,-100,4,3,2,60,0,0
40800,-83.3333333333333,4,2,1,80,0,0
59732,-83.3333333333333,4,2,2,80,0,0
60023,-83.3333333333333,4,2,1,80,0,0
64392,-83.3333333333333,4,2,2,80,0,0
64683,-83.3333333333333,4,2,1,80,0,0
69052,-83.3333333333333,4,2,2,80,0,0
69343,-83.3333333333333,4,2,1,80,0,0
77499,-66.6666666666667,4,2,1,80,0,0
78081,-66.6666666666667,4,2,2,50,0,0
78227,-66.6666666666667,4,2,2,20,0,0
81576,-66.6666666666667,4,2,2,30,0,0
82741,-100,4,2,1,30,0,0

[Colours]
Combo1 : 248,160,107
Combo2 : 151,138,130
Combo3 : 192,129,129
Combo4 : 139,97,209

[HitObjects]
96,96,12839,6,0,P|172:84|246:137,1,140,2|0,1:2|1:0,0:0:0:0:
269,191,13712,1,2,0:0:0:0:
351,151,14004,2,0,L|346:14,2,105,2|2|2,1:2|0:0|0:0,0:0:0:0:
426,202,15169,6,0,P|400:280|406:344,1,140,2|0,1:2|1:0,0:0:0:0:
323,379,16042,1,2,0:0:0:0:
240,341,16334,2,0,L|102:352,2,105,2|2|2,1:2|0:0|0:0,0:0:0:0:
290,264,17499,6,0,P|291:191|250:125,1,140,2|0,1:2|1:0,0:0:0:0:
170,151,18372,1,2,0:0:0:0:
92,103,18664,2,0,L|97:-15,2,105,2|2|2,1:2|0:0|0:0,0:0:0:0:
29,169,19829,6,0,P|55:247|49:311,1,140,2|0,1:2|1:0,0:0:0:0:
132,346,20702,1,2,0:0:0:0:
215,308,20994,2,0,L|353:319,2,105,2|2|2,1:2|0:0|0:0,0:0:0:0:
177,224,22159,6,0,P|228:164|303:167,1,140,2|0,1:2|1:0,0:0:0:0:
355,217,23033,1,2,0:0:0:0:
439,183,23324,2,0,L|442:71,2,105,2|2|2,1:2|0:0|0:0,0:0:0:0:
505,245,24489,6,0,L|506:314,1,70,2|0,1:2|0:0,0:0:0:0:
437,373,25072,1,0,1:0:0:0:
366,314,25363,1,2,0:0:0:0:
284,354,25654,2,0,P|246:361|202:355,1,70,2|0,1:2|0:0,0:0:0:0:
133,316,26237,2,0,P|95:309|51:315,1,70,0|2,1:0|0:0,0:0:0:0:
14,235,26819,6,0,P|43:173|27:96,1,140,2|0,1:2|1:0,0:0:0:0:
70,21,27693,1,2,0:0:0:0:
147,69,27984,2,0,P|181:73|217:65,1,70,0|2,1:0|0:0,0:0:0:0:
298,26,28567,2,0,P|332:22|368:30,1,70,0|2,1:0|0:0,0:0:0:0:
431,92,29149,6,0,L|466:88,2,35,0|0|2,1:0|0:3|0:3,0:0:0:0:
391,174,29732,2,0,L|301:170,1,70,0|2,1:0|0:3,0:0:0:0:
238,210,30314,1,0,1:0:0:0:
236,245,30459,1,2,0:3:0:0:
235,280,30605,1,0,0:3:0:0:
291,351,30897,2,0,L|381:347,1,70,0|2,1:0|0:3,0:0:0:0:
451,343,31479,5,2,0:0:0:0:
256,192,36139,12,0,39635,1:0:0:0:
299,221,40800,6,0,P|256:216|211:235,1,83.9999974365235,0|0,1:0|0:0,0:0:0:0:
155,308,41382,1,8,0:1:0:0:
77,243,41673,1,2,0:3:0:0:
70,235,41818,1,2,0:0:0:0:
66,226,41965,2,0,L|70:153,1,41.9999987182618,0|0,1:0|0:0,0:0:0:0:
81,91,42256,1,2,0:3:0:0:
162,150,42547,1,8,0:1:0:0:
222,69,42838,1,2,0:3:0:0:
299,133,43130,5,0,1:0:0:0:
329,132,43275,1,2,0:0:0:0:
358,131,43421,1,2,0:3:0:0:
450,91,43712,2,0,P|466:142|452:190,1,83.9999974365235,8|2,0:1|0:3,0:0:0:0:
452,174,44149,1,2,0:0:0:0:
442,177,44295,1,0,1:0:0:0:
385,260,44586,1,2,0:3:0:0:
301,190,44877,2,0,L|295:277,1,83.9999974365235,8|0,0:1|0:0,0:0:0:0:
206,281,45460,6,0,P|152:256|78:270,1,125.999996154785,0|0,1:0|0:0,0:0:0:0:
82,277,46042,1,8,0:1:0:0:
0,220,46334,1,2,0:3:0:0:
6,208,46479,1,2,0:0:0:0:
15,192,46625,2,0,L|8:69,2,83.9999974365235,0|2|8,1:0|0:3|0:1,0:0:0:0:
96,107,47499,1,2,0:3:0:0:
180,162,47790,5,0,1:0:0:0:
210,163,47935,1,2,0:0:0:0:
239,164,48081,1,2,0:3:0:0:
326,114,48372,2,0,L|329:168,1,41.9999987182618,8|0,0:1|0:0,0:0:0:0:
386,210,48664,2,0,L|383:264,1,41.9999987182618,2|2,0:3|0:0,0:0:0:0:
348,326,48955,1,0,1:0:0:0:
269,263,49246,1,2,0:3:0:0:
219,350,49538,2,0,P|175:362|116:353,1,83.9999974365235,8|0,0:1|0:0,0:0:0:0:
56,298,50120,6,0,P|38:231|64:164,1,125.999996154785,0|0,1:0|0:0,0:0:0:0:
66,171,50703,1,8,0:1:0:0:
155,216,50994,2,0,L|215:209,1,41.9999987182618,2|2,0:3|0:0,0:0:0:0:
284,202,51285,1,0,1:0:0:0:
218,126,51576,1,2,0:0:0:0:
362,158,51868,2,0,P|375:191|365:242,1,83.9999974365235,8|2,0:1|0:0,0:0:0:0:
305,307,52450,6,0,L|308:376,2,41.9999987182618,0|2|2,1:0|0:0|0:3,0:0:0:0:
236,232,53033,2,0,P|180:214|134:230,1,83.9999974365235,8|2,0:1|0:3,0:0:0:0:
148,226,53470,1,2,0:0:0:0:
141,235,53615,2,0,L|145:339,1,83.9999974365235,0|2,1:0|0:3,0:0:0:0:
58,210,54198,2,0,L|65:114,1,83.9999974365235,8|2,0:1|0:2,0:0:0:0:
135,67,54780,6,0,P|214:81|271:46,1,125.999996154785,0|0,1:0|0:0,0:0:0:0:
261,49,55363,2,0,P|324:25|364:37,1,83.9999974365235,8|0,0:1|0:0,0:0:0:0:
348,33,55800,1,2,0:0:0:0:
355,39,55945,2,0,L|350:155,1,83.9999974365235,0|2,1:0|0:3,0:0:0:0:
433,181,56528,2,0,L|437:265,1,83.9999974365235,8|2,0:1|0:3,0:0:0:0:
359,328,57110,5,0,1:0:0:0:
329,326,57255,1,2,0:0:0:0:
300,324,57401,1,2,0:3:0:0:
212,272,57693,2,0,L|207:200,1,41.9999987182618,8|0,0:1|0:0,0:0:0:0:
278,186,57984,2,0,L|283:114,1,41.9999987182618,2|2,0:3|0:0,0:0:0:0:
244,67,58275,1,0,1:0:0:0:
319,0,58567,1,2,0:3:0:0:
180,12,58858,2,0,L|96:22,1,83.9999974365235,8|0,0:1|0:0,0:0:0:0:
18,85,59440,5,0,1:0:0:0:
100,138,59732,1,2,0:0:0:0:
33,226,60023,2,0,P|74:217|115:228,1,83.9999974365235,8|2,0:1|0:3,0:0:0:0:
121,239,60460,1,2,0:0:0:0:
126,250,60605,2,0,P|166:258|207:247,1,83.9999974365235,0|2,1:0|0:0,0:0:0:0:
276,174,61188,1,8,0:1:0:0:
359,230,61479,1,2,0:0:0:0:
308,317,61770,5,0,1:0:0:0:
338,318,61915,1,2,0:0:0:0:
367,319,62061,1,2,0:3:0:0:
455,319,62352,2,0,P|468:266|457:220,1,83.9999974365235,8|2,0:1|0:3,0:0:0:0:
452,227,62790,1,2,0:0:0:0:
440,222,62936,2,0,L|347:227,2,83.9999974365235,0|2|8,1:0|0:3|0:1,0:0:0:0:
499,140,63809,1,0,0:0:0:0:
427,69,64100,6,0,P|386:58|345:65,1,83.9999974365235,0|2,1:0|0:0,0:0:0:0:
277,139,64683,2,0,P|221:155|142:127,1,125.999996154785,8|2,0:1|0:0,0:0:0:0:
150,128,65266,2,0,L|157:34,1,83.9999974365235,0|2,1:0|0:3,0:0:0:0:
69,86,65848,2,0,L|62:169,1,83.9999974365235,8|2,0:1|0:3,0:0:0:0:
124,249,66430,6,0,L|178:247,2,41.9999987182618,0|2|2,1:0|0:0|0:3,0:0:0:0:
79,339,67013,2,0,L|162:332,1,83.9999974365235,8|2,0:1|0:3,0:0:0:0:
174,341,67450,1,2,0:0:0:0:
185,350,67596,2,0,L|268:343,1,83.9999974365235,0|2,1:0|0:3,0:0:0:0:
350,284,68178,1,8,0:1:0:0:
287,204,68470,1,0,0:0:0:0:
349,125,68761,6,0,L|458:132,1,83.9999974365235,0|2,1:0|0:0,0:0:0:0:
312,37,69343,2,0,P|241:65|235:115,1,125.999996154785,8|2,0:1|0:0,0:0:0:0:
244,117,69926,2,0,P|266:156|269:202,1,83.9999974365235,0|2,1:0|0:0,0:0:0:0:
220,282,70508,1,8,0:1:0:0:
129,237,70800,1,2,0:0:0:0:
48,297,71091,6,0,L|46:338,2,41.9999987182618,0|2|2,1:0|0:0|0:3,0:0:0:0:
3,206,71673,2,0,L|6:122,1,83.9999974365235,8|2,0:1|0:3,0:0:0:0:
16,113,72110,1,2,0:0:0:0:
26,103,72256,2,0,P|63:84|111:95,1,83.9999974365235,0|2,1:0|0:3,0:0:0:0:
185,149,72838,1,8,0:1:0:0:
255,76,73130,1,2,0:0:0:0:
348,112,73421,6,0,P|309:178|314:257,1,125.999996154785,0|0,1:0|0:0,0:0:0:0:
315,232,74003,1,8,0:1:0:0:
448,316,74295,1,0,0:0:0:0:
458,303,74440,1,2,0:0:0:0:
459,286,74586,2,0,L|366:296,1,83.9999974365235,0|2,1:0|0:3,0:0:0:0:
305,371,75169,2,0,L|212:361,1,83.9999974365235,8|2,0:1|0:3,0:0:0:0:
148,274,75751,5,0,1:0:0:0:
150,251,75897,1,2,0:0:0:0:
153,229,76042,1,2,0:3:0:0:
200,130,76334,2,0,P|245:129|263:214,1,125.999996154785,8|2,0:1|0:0,0:0:0:0:
264,201,76916,2,0,P|255:248|270:290,1,83.9999974365235,0|2,1:0|0:3,0:0:0:0:
419,276,77499,2,0,P|403:192|350:271,1,210.000008010865,8|0,0:1|0:0,0:0:0:0:
256,192,78664,12,0,82159,0:0:0:0:
319,100,82741,6,0,P|298:157|318:227,1,105.000004005432,2|0,0:0|0:0,0:0:0:0:
314,208,83324,2,0,P|335:265|315:335,1,105.000004005432,2|2,0:0|0:0,0:0:0:0:
320,317,83906,1,2,0:0:0:0:
237,356,84198,1,0,0:0:0:0:
109,169,84780,6,0,P|50:159|2:176,2,105,2|0|2,0:0|0:0|0:0,0:0:0:0:
212,258,86091,2,0,P|262:272|313:261,1,105,0|2,0:0|0:0,0:0:0:0:
376,195,86819,1,0,0:0:0:0:
256,192,87402,12,0,91479,0:0:0:0:
