osu file format v14

[General]
AudioFilename: audio.mp3
AudioLeadIn: 0
PreviewTime: 40654
Countdown: 0
SampleSet: Soft
StackLeniency: 0.4
Mode: 0
LetterboxInBreaks: 0
WidescreenStoryboard: 0

[Editor]
Bookmarks: 12824,31464,40202,40299,40785,79814,81270,82726,91464
DistanceSpacing: 0.7
BeatDivisor: 4
GridSize: 32
TimelineZoom: 1.199999

[Metadata]
Title:Beyond
TitleUnicode:Beyond
Artist:Cat Nap
ArtistUnicode:Cat Nap
Creator:Log Off Now
Version:Distant
Source:
Tags:instrumental electronic short cut version ailv crissa tatan alphabet aistre
BeatmapID:1892320
BeatmapSetID:906820

[Difficulty]
HPDrainRate:5.5
CircleSize:3.8
OverallDifficulty:8.5
ApproachRate:8.5
SliderMultiplier:2
SliderTickRate:1

[Events]
//Background and Video events
0,0,"catnap.jpg",0,0
//Break Periods
2,31679,35464
//Storyboard Layer 0 (Background)
//Storyboard Layer 1 (Fail)
//Storyboard Layer 2 (Pass)
//Storyboard Layer 3 (Foreground)
//Storyboard Layer 4 (Overlay)
//Storyboard Sound Samples

[TimingPoints]
2354,582.52427184466,4,2,1,30,1,0
2354,-133.333333333333,4,2,1,30,0,0
12839,582.52427184466,4,2,1,30,1,0
12839,-117.647058823529,4,2,1,30,0,0
26819,-100,4,2,1,30,0,0
27984,-100,4,2,1,35,0,0
29149,-100,4,2,1,40,0,0
30314,-100,4,2,1,45,0,0
30751,-100,4,2,1,46,0,0
30897,-100,4,2,1,47,0,0
31042,-100,4,2,1,48,0,0
31188,-100,4,2,1,49,0,0
31334,-100,4,2,1,50,0,0
31479,-100,4,2,1,60,0,0
40217,-100,4,3,2,60,0,0
40800,-76.9230769230769,4,2,1,80,0,1
41382,-62.5,4,2,1,80,0,1
41965,-90.9090909090909,4,2,1,80,0,1
42547,-62.5,4,2,1,80,0,1
43130,-76.9230769230769,4,2,1,80,0,1
43712,-62.5,4,2,1,80,0,1
44295,-71.4285714285714,4,2,1,80,0,1
44586,-55.5555555555556,4,2,1,80,0,1
44877,-76.9230769230769,4,2,1,80,0,1
45460,-100,4,2,1,80,0,1
46042,-62.5,4,2,1,80,0,1
46625,-90.9090909090909,4,2,1,80,0,1
47207,-62.5,4,2,1,80,0,1
47790,-76.9230769230769,4,2,1,80,0,1
48372,-62.5,4,2,1,80,0,1
48955,-71.4285714285714,4,2,1,80,0,1
49538,-100,4,2,1,80,0,1
50120,-76.9230769230769,4,2,1,80,0,1
50703,-62.5,4,2,1,80,0,1
51285,-90.9090909090909,4,2,1,80,0,1
51576,-71.4285714285714,4,2,1,80,0,1
51868,-62.5,4,2,1,80,0,1
52159,-55.5555555555556,4,2,1,80,0,1
53033,-62.5,4,2,1,80,0,1
53615,-71.4285714285714,4,2,1,80,0,1
54198,-62.5,4,2,1,80,0,1
54489,-76.9230769230769,4,2,1,80,0,1
54780,-100,4,2,1,80,0,1
55363,-62.5,4,2,1,80,0,1
55945,-90.9090909090909,4,2,1,80,0,1
56528,-62.5,4,2,1,80,0,1
57110,-90.9090909090909,4,2,1,80,0,1
57693,-62.5,4,2,1,80,0,1
58275,-71.4285714285714,4,2,1,80,0,1
58567,-55.5555555555556,4,2,1,80,0,1
58858,-76.9230769230769,4,2,1,80,0,1
59732,-76.9230769230769,4,2,2,80,0,1
60023,-55.5555555555556,4,2,1,80,0,1
60605,-62.5,4,2,1,80,0,1
60897,-55.5555555555556,4,2,1,80,0,1
61188,-50,4,2,1,80,0,1
61479,-45.4545454545455,4,2,1,80,0,1
62353,-55.5555555555556,4,2,1,80,0,1
62936,-62.5,4,2,1,80,0,1
63227,-55.5555555555556,4,2,1,80,0,1
63518,-71.4285714285714,4,2,1,80,0,1
64392,-62.5,4,2,2,80,0,1
64683,-76.9230769230769,4,2,1,80,0,1
65266,-90.9090909090909,4,2,1,80,0,1
65848,-76.9230769230769,4,2,1,80,0,1
67596,-71.4285714285714,4,2,1,80,0,1
67887,-62.5,4,2,1,80,0,1
68178,-71.4285714285714,4,2,1,80,0,1
69052,-71.4285714285714,4,2,2,80,0,1
69343,-55.5555555555556,4,2,1,80,0,1
69926,-62.5,4,2,1,80,0,1
70217,-55.5555555555556,4,2,1,80,0,1
70508,-50,4,2,1,80,0,1
70800,-45.4545454545455,4,2,1,80,0,1
71673,-55.5555555555556,4,2,1,80,0,1
72256,-62.5,4,2,1,80,0,1
72547,-55.5555555555556,4,2,1,80,0,1
72838,-62.5,4,2,1,80,0,1
73130,-76.9230769230769,4,2,1,80,0,1
73421,-100,4,2,1,80,0,1
74004,-62.5,4,2,1,80,0,1
74586,-90.9090909090909,4,2,1,80,0,1
75169,-62.5,4,2,1,80,0,1
75751,-90.9090909090909,4,2,1,80,0,1
76334,-62.5,4,2,1,80,0,1
76916,-71.4285714285714,4,2,1,80,0,1
77207,-55.5555555555556,4,2,1,80,0,1
77499,-76.9230769230769,4,2,1,80,0,1
78081,-133.333333333333,4,2,2,50,0,0
78227,-133.333333333333,4,2,2,20,0,0
81576,-133.333333333333,4,2,2,30,0,0
82741,-133.333333333333,4,2,1,30,0,0

[Colours]
Combo1 : 248,160,107
Combo2 : 151,138,130
Combo3 : 192,129,129
Combo4 : 139,97,209

[HitObjects]
168,277,2354,5,2,0:0:0:0:
99,319,2937,1,2,0:0:0:0:
57,250,3374,1,2,0:0:0:0:
57,250,3519,1,2,0:0:0:0:
119,191,3811,2,0,L|283:208,1,150.000005722046,0|2,0:0|0:0,0:0:0:0:
348,216,4830,1,0,0:0:0:0:
318,136,5266,6,0,P|310:88|325:27,1,112.500004291535,2|0,0:0|0:0,0:0:0:0:
355,13,5850,1,2,0:0:0:0:
420,61,6141,1,2,0:0:0:0:
495,34,6432,1,0,0:0:0:0:
495,34,7014,5,2,0:0:0:0:
486,112,7596,1,2,0:0:0:0:
410,77,8033,1,2,0:0:0:0:
410,77,8179,1,2,0:0:0:0:
357,140,8470,2,0,L|370:307,1,150.000005722046,0|2,0:0|0:0,0:0:0:0:
313,345,9489,1,0,0:0:0:0:
244,301,9926,6,0,P|204:287|120:307,1,112.500004291535,2|0,0:0|0:0,0:0:0:0:
116,325,10509,1,2,0:0:0:0:
46,284,10800,1,2,0:0:0:0:
76,209,11091,1,0,0:0:0:0:
73,208,12839,6,0,L|62:62,1,127.50000243187,2|2,1:2|0:0,0:0:0:0:
58,8,13421,1,0,1:0:0:0:
127,35,13567,2,0,P|148:40|170:41,1,42.5000008106232,2|2,0:0|0:0,0:0:0:0:
319,10,14004,2,0,P|298:59|314:144,1,127.50000243187,2|2,1:2|0:0,0:0:0:0:
342,194,14586,1,0,1:0:0:0:
274,341,14877,1,2,0:0:0:0:
170,249,15169,6,0,L|316:260,1,127.50000243187,2|2,1:2|0:0,0:0:0:0:
370,264,15751,1,0,1:0:0:0:
342,194,15897,2,0,P|337:173|336:151,1,42.5000008106232,2|2,0:0|0:0,0:0:0:0:
406,25,16334,2,0,P|357:46|272:30,1,127.50000243187,2|2,1:2|0:0,0:0:0:0:
222,0,16916,1,0,1:0:0:0:
255,177,17207,1,2,0:0:0:0:
139,110,17499,6,0,L|128:256,1,127.50000243187,2|2,1:2|0:0,0:0:0:0:
124,310,18081,1,0,1:0:0:0:
193,282,18227,2,0,P|213:277|235:276,1,42.5000008106232,2|2,0:0|0:0,0:0:0:0:
350,367,18664,2,0,P|329:318|345:233,1,127.50000243187,2|2,1:2|0:0,0:0:0:0:
373,183,19246,1,0,1:0:0:0:
306,44,19538,1,2,0:0:0:0:
478,99,19829,6,0,L|332:110,1,127.50000243187,2|2,1:2|0:0,0:0:0:0:
278,114,20411,1,0,1:0:0:0:
306,44,20557,1,2,0:0:0:0:
306,44,20703,1,2,0:0:0:0:
324,182,20994,2,0,L|310:317,1,127.50000243187,2|2,1:2|0:0,0:0:0:0:
301,380,21576,2,0,P|246:346|194:352,1,85.0000016212464,0|2,1:0|0:0,0:0:0:0:
88,251,22159,5,2,1:2:0:0:
306,155,22596,2,0,P|309:184|307:212,1,42.5000008106232,2|0,0:0|1:0,0:0:0:0:
270,263,22887,1,2,0:0:0:0:
270,263,23032,1,2,0:0:0:0:
215,117,23324,2,0,P|272:127|333:91,1,127.50000243187,2|2,1:2|0:0,0:0:0:0:
256,41,23906,1,0,1:0:0:0:
164,293,24198,1,2,0:0:0:0:
391,158,24489,5,2,1:2:0:0:
200,231,24926,2,0,P|229:228|257:230,1,42.5000008106232,2|0,0:0|1:0,0:0:0:0:
316,267,25217,1,2,0:0:0:0:
316,267,25362,1,2,0:0:0:0:
246,148,25654,2,0,P|261:95|324:66,1,127.50000243187,2|2,1:2|0:0,0:0:0:0:
389,114,26237,1,0,1:0:0:0:
225,13,26528,1,2,0:0:0:0:
175,248,26819,6,0,L|196:88,1,150,2|0,1:2|0:0,0:0:0:0:
311,106,27402,2,0,P|277:126|245:129,1,50,0|2,1:0|0:0,0:0:0:0:
344,28,27693,1,2,0:0:0:0:
344,28,27838,1,0,0:0:0:0:
390,128,27984,2,0,L|383:184,3,50,0|2|2|0,1:0|0:3|0:0|0:0,0:0:0:0:
450,62,28567,1,0,1:0:0:0:
497,151,28858,1,2,0:0:0:0:
492,185,29004,1,0,0:0:0:0:
488,219,29149,6,0,L|481:275,2,50,0|0|2,1:0|0:3|0:3,0:0:0:0:
267,128,29732,2,0,L|260:72,2,50,0|0|2,1:0|0:3|0:3,0:0:0:0:
333,193,30169,1,2,0:3:0:0:
333,193,30314,1,0,1:0:0:0:
275,311,30460,2,0,L|269:262,1,50,2|0,0:3|0:3,0:0:0:0:
206,196,30751,5,0,0:0:0:0:
153,186,30897,1,0,1:0:0:0:
107,205,31042,1,2,0:3:0:0:
66,234,31188,1,2,0:3:0:0:
29,243,31334,1,2,0:3:0:0:
1,241,31479,1,2,0:0:0:0:
256,192,36139,12,0,39635,1:0:0:0:
281,82,40800,6,0,B|337:67|380:120|380:120|425:87|493:130,1,194.999991073609,0|0,1:0|0:0,0:0:0:0:
323,305,41382,2,0,B|287:256|287:256|309:134,1,160,8|2,0:1|0:3,0:0:0:0:
432,189,41819,1,2,0:0:0:0:
432,189,41965,2,0,P|401:204|375:206,1,55.0000016784668,0|0,1:0|0:0,0:0:0:0:
222,136,42256,1,2,0:3:0:0:
369,384,42547,6,0,B|405:335|405:335|383:213,1,160,8|2,0:1|0:3,0:0:0:0:
358,34,43130,5,0,1:0:0:0:
322,181,43275,1,2,0:0:0:0:
288,98,43421,1,2,0:3:0:0:
316,315,43712,6,0,P|263:247|178:256,1,160,8|2,0:1|0:3,0:0:0:0:
118,306,44149,1,2,0:0:0:0:
118,306,44295,2,0,L|111:222,1,69.9999978637696,0|2,1:0|0:0,0:0:0:0:
233,118,44587,2,0,P|187:168|141:174,1,89.9999972534181,2|0,0:3|0:0,0:0:0:0:
1,34,44877,6,0,P|91:15|149:86,1,194.999991073609,8|0,0:1|0:0,0:0:0:0:
53,244,45460,6,0,B|63:194|63:194|51:148|51:148|62:98,1,150,0|0,1:0|0:0,0:0:0:0:
300,183,46042,6,0,B|251:147|251:147|129:169,1,160,8|2,0:1|0:3,0:0:0:0:
209,285,46479,1,2,0:0:0:0:
209,285,46625,2,0,P|224:254|226:228,1,55.0000016784668,0|0,1:0|0:0,0:0:0:0:
158,83,46916,1,2,0:3:0:0:
384,81,47207,6,0,B|335:117|335:117|213:95,1,160,8|2,0:1|0:3,0:0:0:0:
84,64,47790,5,0,1:0:0:0:
137,193,47936,1,2,0:0:0:0:
159,106,48081,1,2,0:3:0:0:
77,331,48372,6,0,P|141:273|223:296,1,160,8|2,0:1|0:3,0:0:0:0:
276,342,48809,1,2,0:0:0:0:
344,284,48955,6,0,L|336:195,1,69.9999978637696,0|2,1:0|0:0,0:0:0:0:
202,189,49246,2,0,P|246:182|278:147,1,69.9999978637696,2|0,0:3|0:0,0:0:0:0:
276,342,49538,6,0,P|225:281|155:287,1,150,8|0,0:1|0:0,0:0:0:0:
59,383,50120,6,0,B|71:318|71:318|56:258|56:258|70:193,1,194.999991073609,0|0,1:0|0:0,0:0:0:0:
273,113,50703,6,0,P|226:182|144:181,1,160,8|2,0:1|0:3,0:0:0:0:
180,48,51139,1,2,0:0:0:0:
180,48,51285,6,0,L|185:102,1,55.0000016784668,0|0,1:0|0:0,0:0:0:0:
304,229,51576,2,0,P|265:205|231:203,1,69.9999978637696,2|0,0:0|0:0,0:0:0:0:
375,346,51868,2,0,L|383:256,1,80,8|0,0:1|0:0,0:0:0:0:
455,127,52159,2,0,P|417:161|381:170,1,89.9999972534181,2|0,0:0|0:0,0:0:0:0:
214,118,52450,5,0,1:0:0:0:
285,256,52596,1,2,0:0:0:0:
294,165,52741,1,2,0:3:0:0:
219,340,53033,6,0,B|270:308|270:308|413:328,1,160,8|2,0:1|0:3,0:0:0:0:
476,365,53470,1,2,0:0:0:0:
476,365,53615,6,0,P|448:314|450:286,1,69.9999978637696,0|2,1:0|0:0,0:0:0:0:
451,188,53906,2,0,P|407:226|379:231,1,69.9999978637696,2|0,0:3|0:0,0:0:0:0:
312,110,54198,6,0,L|325:214,1,80,8|0,0:1|0:0,0:0:0:0:
368,321,54489,2,0,L|377:245,1,64.9999970245363,2|0,0:2|0:0,0:0:0:0:
268,383,54780,6,0,L|246:216,1,150,0|0,1:0|0:0,0:0:0:0:
240,72,55363,6,0,P|183:144|111:133,1,160,8|0,0:1|0:0,0:0:0:0:
2,113,55800,1,2,0:0:0:0:
2,113,55945,2,0,L|9:181,1,55.0000016784668,0|0,1:0|0:0,0:0:0:0:
26,323,56237,1,2,0:3:0:0:
227,256,56528,6,0,B|178:220|178:220|56:242,1,160,8|2,0:1|0:3,0:0:0:0:
163,370,57110,6,0,L|154:298,2,55.0000016784668,0|2|2,1:0|0:0|0:3,0:0:0:0:
262,169,57693,6,0,L|278:-13,1,160,8|2,0:1|0:3,0:0:0:0:
349,140,58130,1,2,0:0:0:0:
188,63,58275,2,0,P|147:66|109:93,1,69.9999978637696,0|2,1:0|0:0,0:0:0:0:
188,236,58567,2,0,L|174:139,1,89.9999972534181,2|0,0:3|0:0,0:0:0:0:
14,259,58858,6,0,P|118:284|112:388,1,194.999991073609,8|0,0:1|0:0,0:0:0:0:
52,333,59440,1,0,1:0:0:0:
423,167,59732,5,2,0:0:0:0:
135,53,60023,2,0,B|189:46|189:46|250:74|250:74|334:63,1,179.999994506836,8|2,0:1|0:3,0:0:0:0:
465,43,60460,1,2,0:0:0:0:
444,187,60605,6,0,L|434:274,1,80,0|0,1:0|0:0,0:0:0:0:
350,368,60897,1,2,0:0:0:0:
316,263,61042,1,2,0:0:0:0:
450,384,61188,6,0,P|472:340|472:290,1,100,8|0,0:1|0:0,0:0:0:0:
207,216,61479,1,2,0:0:0:0:
316,263,61625,1,2,0:3:0:0:
427,200,61771,5,0,1:0:0:0:
374,351,61916,1,2,0:0:0:0:
316,263,62062,1,2,0:3:0:0:
128,367,62353,6,0,B|144:249|144:249|111:197,1,179.999994506836,8|2,0:1|0:3,0:0:0:0:
18,72,62790,1,2,0:0:0:0:
192,122,62936,2,0,L|87:109,1,80,0|2,1:0|0:0,0:0:0:0:
289,19,63227,2,0,L|194:30,1,89.9999972534181,2|0,0:3|0:0,0:0:0:0:
273,227,63518,6,0,P|268:150|376:99,1,209.999993591309,8|0,0:1|0:0,0:0:0:0:
349,183,64101,1,0,1:0:0:0:
102,32,64392,5,2,0:0:0:0:
245,234,64683,6,0,P|183:192|114:209,1,129.999994049073,8|2,0:1|0:3,0:0:0:0:
175,333,65120,1,2,0:0:0:0:
175,333,65266,2,0,L|169:277,1,55.0000016784668,0|0,1:0|0:0,0:0:0:0:
156,107,65557,1,2,0:3:0:0:
8,188,65848,6,0,B|94:176|94:176|133:200,1,129.999994049073,8|2,0:1|0:3,0:0:0:0:
262,305,66431,5,0,1:0:0:0:
180,355,66576,1,2,0:0:0:0:
199,248,66722,1,2,0:3:0:0:
351,359,67013,6,0,L|336:184,1,129.999994049073,8|2,0:1|0:3,0:0:0:0:
331,72,67450,1,2,0:0:0:0:
397,161,67596,5,0,1:0:0:0:
248,121,67741,1,2,0:0:0:0:
439,0,67887,2,0,L|431:82,1,80,2|0,0:3|0:0,0:0:0:0:
436,326,68178,6,0,P|394:260|277:282,1,209.999993591309,8|0,0:1|0:0,0:0:0:0:
348,335,68761,1,0,1:0:0:0:
301,41,69052,5,2,0:0:0:0:
251,362,69343,2,0,B|258:308|258:308|230:247|230:247|241:163,1,179.999994506836,8|2,0:1|0:3,0:0:0:0:
170,332,69780,1,2,0:0:0:0:
315,228,69926,6,0,P|353:209|401:213,1,80,0|0,1:0|0:0,0:0:0:0:
442,368,70217,1,2,0:0:0:0:
327,337,70363,1,2,0:0:0:0:
474,181,70508,6,0,P|477:235|449:277,1,100,8|0,0:1|0:0,0:0:0:0:
236,110,70800,1,2,0:0:0:0:
369,73,70945,1,2,0:3:0:0:
370,294,71091,5,0,1:0:0:0:
312,160,71237,1,2,0:0:0:0:
389,209,71382,1,2,0:3:0:0:
126,236,71673,6,0,B|244:220|244:220|296:253,1,179.999994506836,8|2,0:1|0:3,0:0:0:0:
212,320,72110,1,2,0:0:0:0:
107,193,72256,6,0,L|208:206,1,80,0|2,1:0|0:0,0:0:0:0:
28,290,72547,2,0,L|135:275,1,89.9999972534181,2|0,0:3|0:0,0:0:0:0:
257,353,72838,2,0,L|156:340,1,80,8|0,0:1|0:0,0:0:0:0:
333,256,73130,2,0,L|232:269,1,64.9999970245363,2|0,0:0|0:0,0:0:0:0:
493,366,73421,6,0,L|312:342,1,150,0|0,1:0|0:0,0:0:0:0:
350,153,74004,6,0,P|421:200|430:271,1,160,8|0,0:1|0:0,0:0:0:0:
289,255,74440,1,2,0:0:0:0:
289,255,74586,2,0,L|343:244,1,55.0000016784668,0|0,1:0|0:0,0:0:0:0:
512,214,74877,1,2,0:3:0:0:
441,9,75169,6,0,B|405:58|405:58|421:179,1,160,8|2,0:1|0:3,0:0:0:0:
443,301,75751,6,0,L|435:379,2,55.0000016784668,0|2|2,1:0|0:0|0:3,0:0:0:0:
318,115,76334,6,0,L|297:278,1,160,8|2,0:1|0:3,0:0:0:0:
392,176,76771,1,2,0:0:0:0:
220,244,76916,2,0,P|148:255|140:253,1,69.9999978637696,0|2,1:0|0:0,0:0:0:0:
160,80,77207,2,0,L|174:177,1,89.9999972534181,2|0,0:3|0:0,0:0:0:0:
80,320,77499,6,0,B|65:256|65:256|91:172,2,129.999994049073,8|0|0,0:1|0:0|0:0,0:0:0:0:
256,192,78372,12,0,82159,0:0:0:0:
186,300,82741,5,2,0:0:0:0:
261,326,83324,1,2,0:0:0:0:
327,267,83761,1,2,0:0:0:0:
327,267,83906,1,2,0:0:0:0:
285,194,84198,2,0,P|272:149|336:73,1,150.000005722046,0|2,0:0|0:0,0:0:0:0:
259,16,85217,1,0,0:0:0:0:
190,71,85654,6,0,L|197:183,1,112.500004291535,2|0,0:0|0:0,0:0:0:0:
202,215,86237,1,2,0:0:0:0:
131,274,86528,1,2,0:0:0:0:
69,216,86819,1,0,0:0:0:0:
69,216,87402,6,0,B|100:179|100:179|90:60,1,150.000005722046,2|2,0:0|0:0,0:0:0:0:
192,140,88421,1,2,0:0:0:0:
192,140,88567,1,2,0:0:0:0:
292,78,88858,2,0,L|279:241,1,150.000005722046,0|2,0:0|0:0,0:0:0:0:
353,292,89732,6,0,L|358:357,2,37.5000014305115,0|0|2,0:0|0:0|0:0,0:0:0:0:
264,357,90314,2,0,P|226:334|142:343,1,112.500004291535
129,354,90897,1,2,0:0:0:0:
71,296,91188,1,2,0:0:0:0:
116,224,91479,1,0,0:0:0:0:
