osu file format v14

[General]
AudioFilename: audio.mp3
AudioLeadIn: 0
PreviewTime: 40654
Countdown: 0
SampleSet: Drum
StackLeniency: 0.4
Mode: 0
LetterboxInBreaks: 0
WidescreenStoryboard: 1

[Editor]
Bookmarks: 12824,31464,40202,40299,40785,79814,81270,82726,91464
DistanceSpacing: 0.7
BeatDivisor: 4
GridSize: 32
TimelineZoom: 1

[Metadata]
Title:Beyond
TitleUnicode:Beyond
Artist:Cat Nap
ArtistUnicode:Cat Nap
Creator:Log Off Now
Version:Alphabet's Light Insane
Source:
Tags:instrumental electronic short cut version ailv crissa tatan alphabet aistre
BeatmapID:1969076
BeatmapSetID:906820

[Difficulty]
HPDrainRate:5
CircleSize:4
OverallDifficulty:7.5
ApproachRate:8
SliderMultiplier:2.2
SliderTickRate:1

[Events]
//Background and Video events
0,0,"catnap.jpg",0,0
//Break Periods
//Storyboard Layer 0 (Background)
//Storyboard Layer 1 (Fail)
//Storyboard Layer 2 (Pass)
//Storyboard Layer 3 (Foreground)
//Storyboard Layer 4 (Overlay)
//Storyboard Sound Samples

[TimingPoints]
2354,582.52427184466,4,2,1,30,1,0
12839,582.52427184466,4,2,1,30,1,0
12839,-117.647058823529,4,2,1,30,0,0
27984,-117.647058823529,4,2,1,35,0,0
29149,-117.647058823529,4,2,1,40,0,0
30314,-117.647058823529,4,2,1,45,0,0
30751,-117.647058823529,4,2,1,46,0,0
30897,-117.647058823529,4,2,1,47,0,0
31042,-117.647058823529,4,2,1,48,0,0
31188,-117.647058823529,4,2,1,49,0,0
31334,-117.647058823529,4,2,1,50,0,0
31479,-117.647058823529,4,2,1,60,0,0
40217,-117.647058823529,4,3,2,60,0,0
40800,-100,4,2,1,80,0,1
59440,-133.333333333333,4,2,1,80,0,0
59732,-133.333333333333,4,2,2,80,0,0
60023,-100,4,2,1,80,0,0
64101,-133.333333333333,4,2,1,80,0,0
64392,-133.333333333333,4,2,2,80,0,0
64683,-100,4,2,1,80,0,0
68761,-133.333333333333,4,2,1,80,0,0
69052,-133.333333333333,4,2,2,80,0,0
69343,-100,4,2,1,80,0,0
78081,-100,4,2,2,50,0,0
78227,-100,4,2,2,20,0,0
81576,-100,4,2,2,30,0,0
82741,-153.846153846154,4,2,1,30,0,0

[Colours]
Combo1 : 248,160,107
Combo2 : 151,138,130
Combo3 : 192,129,129
Combo4 : 139,97,209

[HitObjects]
88,347,12839,6,0,P|71:301|135:187,2,187.000003566742,2|0|2,1:2|1:0|1:2,0:0:0:0:
88,347,14586,2,0,P|124:355|178:326,1,93.500001783371,0|2,1:0|0:0,0:0:0:0:
244,231,15169,6,0,P|323:234|395:324,2,187.000003566742,2|0|2,1:2|1:0|1:2,0:0:0:0:
244,231,16916,2,0,P|253:270|299:320,1,93.500001783371,0|2,1:0|0:0,0:0:0:0:
375,209,17499,6,0,P|355:152|385:25,2,187.000003566742,2|0|2,1:2|1:0|1:2,0:0:0:0:
375,209,19246,2,0,P|395:190|466:188,1,93.500001783371,0|2,1:0|0:0,0:0:0:0:
387,302,19829,6,0,P|324:286|215:342,2,187.000003566742,2|0|2,1:2|1:0|1:2,0:0:0:0:
387,302,21576,2,0,P|441:326|483:310,1,93.500001783371,0|2,1:0|0:0,0:0:0:0:
430,145,22159,5,2,1:2:0:0:
303,246,22596,1,2,0:0:0:0:
303,246,22741,2,0,L|241:237,2,46.7500008916855,0|2|2,1:0|0:0|0:0,0:0:0:0:
366,202,23324,1,2,1:2:0:0:
319,141,23615,2,0,P|304:90|323:37,1,93.500001783371,2|0,0:0|1:0,0:0:0:0:
389,94,24198,1,2,0:0:0:0:
302,40,24489,5,2,1:2:0:0:
182,132,24926,1,2,0:0:0:0:
182,132,25072,2,0,L|191:74,2,46.7500008916855,0|2|2,1:0|0:0|0:0,0:0:0:0:
73,63,25654,2,0,L|89:221,1,140.250002675057,2|2,1:2|0:0,0:0:0:0:
103,220,26237,2,0,L|93:324,1,93.500001783371,0|2,1:0|0:0,0:0:0:0:
196,124,26819,6,0,P|269:114|329:159,1,140.250002675057,2|0,1:2|0:0,0:0:0:0:
344,160,27402,2,0,L|338:219,2,46.7500008916855,0|2|2,1:0|0:0|0:0,0:0:0:0:
381,80,27984,1,0,1:0:0:0:
459,136,28275,1,2,0:0:0:0:
459,136,28421,1,2,0:0:0:0:
459,136,28567,2,0,L|451:235,1,93.500001783371,0|2,1:0|0:0,0:0:0:0:
370,329,29149,6,0,P|343:327|313:343,3,46.7500008916855,0|0|2|0,1:0|0:3|0:3|0:0,0:0:0:0:
270,284,29732,2,0,P|254:306|253:340,3,46.7500008916855,0|0|2|2,1:0|0:3|0:3|0:3,0:0:0:0:
163,365,30314,5,0,1:0:0:0:
172,333,30460,1,2,0:3:0:0:
162,301,30605,1,0,0:3:0:0:
139,277,30751,1,0,0:0:0:0:
70,249,30897,6,0,P|103:251|135:242,1,46.7500008916855,0|2,1:0|0:3,0:0:0:0:
208,169,31188,2,0,P|210:136|201:104,1,46.7500008916855,2|2,0:3|0:3,0:0:0:0:
65,89,31479,5,2,0:0:0:0:
256,192,31771,12,0,33809,0:0:0:0:
430,299,36139,6,0,L|330:307,1,93.500001783371,0|2,0:0|0:0,0:0:0:0:
455,214,36722,2,0,L|355:222,1,93.500001783371,0|2,0:0|0:0,0:0:0:0:
257,300,37305,6,0,L|157:308,1,93.500001783371,0|2,0:0|0:0,0:0:0:0:
282,215,37888,2,0,L|182:223,1,93.500001783371,0|2,0:0|0:0,0:0:0:0:
55,127,38470,5,2,0:0:0:0:
55,127,38615,1,2,0:0:0:0:
55,127,38761,2,0,L|47:71,1,46.7500008916855,2|0,0:0|0:0,0:0:0:0:
177,26,39052,1,2,0:0:0:0:
190,55,39198,1,2,0:0:0:0:
196,86,39343,1,2,0:0:0:0:
183,136,39489,1,0,0:0:0:0:
141,197,39635,5,0,1:0:0:0:
48,113,40800,6,0,B|144:91|128:157|234:117,1,165,0|0,1:0|0:0,0:0:0:0:
237,137,41382,2,0,B|269:92|269:92|233:27|166:46,1,165,8|2,0:1|0:0,0:0:0:0:
164,53,41965,1,0,1:0:0:0:
200,301,42256,1,2,0:3:0:0:
156,71,42547,1,8,0:1:0:0:
185,290,42838,1,2,0:3:0:0:
251,14,43130,5,0,1:0:0:0:
262,32,43275,1,2,0:0:0:0:
271,49,43421,2,0,L|347:56,1,55,2|0,0:3|0:0,0:0:0:0:
452,71,43712,2,0,P|407:82|368:156,1,110,8|2,0:1|0:3,0:0:0:0:
275,185,44149,1,2,0:0:0:0:
275,185,44295,2,0,P|336:206|372:250,1,110,0|2,1:0|0:3,0:0:0:0:
405,374,44732,1,0,0:0:0:0:
405,374,44877,1,8,0:1:0:0:
494,136,45169,1,2,0:0:0:0:
326,334,45460,6,0,P|247:330|194:261,1,165,0|0,1:0|0:0,0:0:0:0:
176,195,46042,2,0,B|212:188|239:207|239:207|202:147|139:169,1,165,8|2,0:1|0:0,0:0:0:0:
133,176,46625,1,0,1:0:0:0:
0,27,46916,1,2,0:3:0:0:
134,163,47207,1,8,0:1:0:0:
16,22,47499,1,2,0:3:0:0:
37,209,47790,5,0,1:0:0:0:
32,230,47936,1,2,0:0:0:0:
27,251,48081,2,0,L|17:310,1,55,2|0,0:3|0:0,0:0:0:0:
110,353,48372,2,0,P|166:360|222:310,1,110,8|2,0:1|0:3,0:0:0:0:
244,222,48809,1,2,0:0:0:0:
244,222,48955,2,0,P|215:267|223:321,1,110,0|2,1:0|0:3,0:0:0:0:
372,371,49392,1,0,0:0:0:0:
372,371,49538,1,8,0:1:0:0:
324,78,49829,1,2,0:0:0:0:
384,354,50120,6,0,L|397:181,1,165,0|0,1:0|0:0,0:0:0:0:
439,168,50703,2,0,B|346:122|363:189|264:142,1,165,8|2,0:1|0:0,0:0:0:0:
257,133,51285,1,0,1:0:0:0:
473,10,51576,1,2,0:0:0:0:
253,111,51868,1,8,0:1:0:0:
451,12,52159,1,2,0:0:0:0:
195,29,52450,6,0,L|130:44,1,55,0|2,1:0|0:0,0:0:0:0:
67,60,52741,1,2,0:3:0:0:
167,169,53033,2,0,B|209:157|209:157|70:134,1,165,8|2,0:1|0:0,0:0:0:0:
4,113,53615,2,0,P|4:175|58:217,1,110,0|2,1:0|0:3,0:0:0:0:
140,338,54052,1,0,0:0:0:0:
140,338,54198,2,0,P|145:276|98:230,1,110,8|2,0:1|0:2,0:0:0:0:
203,129,54780,6,0,B|228:115|251:114|251:114|279:145|316:158|392:145,1,165,0|0,1:0|0:0,0:0:0:0:
397,143,55363,2,0,B|392:199|392:199|407:249|407:249|399:319,1,165,8|2,0:1|0:0,0:0:0:0:
403,334,55945,1,0,1:0:0:0:
222,143,56237,1,2,0:3:0:0:
384,343,56528,1,8,0:1:0:0:
237,131,56819,1,2,0:3:0:0:
131,367,57110,6,0,L|142:303,1,55,0|2,1:0|0:0,0:0:0:0:
159,228,57402,1,2,0:3:0:0:
43,324,57693,2,0,B|23:303|23:303|44:156,1,165,8|2,0:1|0:0,0:0:0:0:
32,90,58275,2,0,P|82:100|118:169,1,110,0|2,1:0|0:3,0:0:0:0:
258,15,58712,1,0,0:0:0:0:
258,15,58858,2,0,P|224:53|146:49,1,110,8|2,0:1|0:0,0:0:0:0:
208,228,59440,6,0,P|196:189|204:145,1,82.5000031471254,0|2,1:0|0:0,0:0:0:0:
318,75,60023,2,0,B|406:61|383:139|481:136,1,165,8|2,0:1|0:0,0:0:0:0:
496,132,60605,1,0,1:0:0:0:
460,358,60897,2,0,L|475:289,1,55,2|2,0:0|0:0,0:0:0:0:
484,109,61188,1,8,0:1:0:0:
474,380,61479,1,2,0:0:0:0:
355,195,61771,5,0,1:0:0:0:
355,195,61916,1,2,0:0:0:0:
355,195,62062,2,0,L|279:203,1,55,2|0,0:3|0:0,0:0:0:0:
203,153,62353,2,0,L|214:286,1,110,8|2,0:1|0:3,0:0:0:0:
194,373,62790,1,2,0:0:0:0:
119,302,62936,2,0,L|128:192,1,110,0|2,1:0|0:3,0:0:0:0:
224,0,63518,2,0,L|262:65,1,55,8|0,0:1|0:0,0:0:0:0:
353,186,63809,1,2,0:0:0:0:
68,138,64101,6,0,P|113:116|156:117,1,82.5000031471254,0|2,1:0|0:0,0:0:0:0:
353,186,64683,2,0,P|284:220|198:153,1,165,8|2,0:1|0:0,0:0:0:0:
200,160,65266,1,0,1:0:0:0:
355,0,65557,2,0,L|321:50,1,55,2|0,0:3|0:0,0:0:0:0:
182,149,65848,1,8,0:1:0:0:
371,12,66139,1,2,0:3:0:0:
376,189,66431,5,0,1:0:0:0:
376,189,66576,1,2,0:0:0:0:
376,189,66722,2,0,L|364:123,1,55,2|0,0:3|0:0,0:0:0:0:
512,37,67013,2,0,L|495:170,1,110,8|2,0:1|0:3,0:0:0:0:
474,326,67450,1,2,0:0:0:0:
474,326,67596,2,0,L|460:216,1,110,0|2,1:0|0:3,0:0:0:0:
381,368,68033,1,0,0:0:0:0:
381,368,68178,1,8,0:1:0:0:
395,118,68470,1,2,0:0:0:0:
202,327,68761,6,0,P|240:332|286:301,1,82.5000031471254,0|2,1:0|0:0,0:0:0:0:
291,146,69343,2,0,B|203:130|222:203|129:187,1,165,8|2,0:1|0:0,0:0:0:0:
111,176,69926,1,0,1:0:0:0:
10,18,70217,2,0,P|6:47|15:76,1,55,2|2,0:0|0:0,0:0:0:0:
108,192,70508,1,8,0:1:0:0:
31,6,70800,1,2,0:0:0:0:
193,62,71091,6,0,L|270:73,1,55,0|2,1:0|0:0,0:0:0:0:
323,80,71382,1,2,0:3:0:0:
444,44,71673,2,0,P|452:106|421:157,1,110,8|2,0:1|0:3,0:0:0:0:
358,262,72110,1,2,0:0:0:0:
358,262,72256,2,0,P|335:212|345:159,1,110,0|2,1:0|0:3,0:0:0:0:
504,218,72693,1,0,0:0:0:0:
504,218,72838,1,8,0:1:0:0:
370,81,73130,1,2,0:0:0:0:
204,363,73421,6,0,B|232:348|264:353|264:353|319:386|373:368|373:368,1,165,0|0,1:0|0:0,0:0:0:0:
388,363,74004,1,8,0:1:0:0:
357,188,74295,2,0,P|348:224|356:253,1,55,0|2,0:0|0:0,0:0:0:0:
399,376,74586,1,0,1:0:0:0:
370,178,74877,1,2,0:3:0:0:
503,321,75169,1,8,0:1:0:0:
229,239,75460,1,2,0:3:0:0:
400,49,75751,6,0,L|390:108,1,55,0|2,1:0|0:0,0:0:0:0:
370,178,76042,1,2,0:3:0:0:
200,94,76334,2,0,P|257:99|307:153,1,110,8|2,0:1|0:3,0:0:0:0:
302,211,76770,1,2,0:0:0:0:
302,211,76916,1,0,1:0:0:0:
139,350,77207,1,2,0:3:0:0:
383,287,77499,1,8,0:1:0:0:
77,123,77790,1,2,0:0:0:0:
401,41,78081,5,4,0:0:0:0:
256,192,78372,12,0,82159,0:0:0:0:
286,73,82741,6,0,L|117:91,1,142.99999345398,2|2,0:0|0:0,0:0:0:0:
32,107,83761,1,2,0:0:0:0:
32,107,83906,1,2,0:0:0:0:
96,168,84198,2,0,P|111:209|85:313,1,142.99999345398,0|2,0:0|0:0,0:0:0:0:
91,303,85217,6,0,L|217:318,1,107.249995090485,2|2,0:0|0:0,0:0:0:0:
307,334,86091,1,0,0:0:0:0:
307,334,86237,1,2,0:0:0:0:
266,261,86528,1,2,0:0:0:0:
312,197,86819,2,0,P|333:197|400:226,1,71.4999967269899,0|2,0:0|0:0,0:0:0:0:
473,278,87402,6,0,L|451:119,1,142.99999345398,2|2,0:0|0:0,0:0:0:0:
440,21,88421,1,2,0:0:0:0:
440,21,88567,1,2,0:0:0:0:
345,85,88858,2,0,P|268:80|191:98,1,142.99999345398,0|2,0:0|0:0,0:0:0:0:
204,93,89877,6,0,P|206:136|199:202,1,107.249995090485,2|2,0:0|0:0,0:0:0:0:
165,305,90751,1,0,0:0:0:0:
165,305,90897,1,2,0:0:0:0:
234,356,91188,1,2,0:0:0:0:
309,319,91479,1,0,0:0:0:0:
