osu file format v14

[General]
AudioFilename: audio.mp3
AudioLeadIn: 0
PreviewTime: 146953
Countdown: 0
SampleSet: Normal
StackLeniency: 0.2
Mode: 0
LetterboxInBreaks: 0
WidescreenStoryboard: 0

[Editor]
Bookmarks: 45792,55506,62935,64078,100649,118935,128078,137220,146363,164649,165220,165792,182363
DistanceSpacing: 1.5
BeatDivisor: 4
GridSize: 4
TimelineZoom: 2.4

[Metadata]
Title:22h31 - Fais Les Backs
TitleUnicode:22h31 - Fais Les Backs
Artist:Casseurs Flowters
ArtistUnicode:Casseurs Flowters
Creator:I love Emilia
Version:Gangsta
Source:
Tags:22h31 Fais Les Backs Casseurs Flowters HipHop Rap French
BeatmapID:2045451
BeatmapSetID:977257

[Difficulty]
HPDrainRate:4.6
CircleSize:4.2
OverallDifficulty:8.5
ApproachRate:9.6
SliderMultiplier:1.8
SliderTickRate:1

[Events]
//Background and Video events
0,0,"anime-sport-car-anime-girls-school-girls-weapon.png",0,0
//Break Periods
//Storyboard Layer 0 (Background)
//Storyboard Layer 1 (Fail)
//Storyboard Layer 2 (Pass)
//Storyboard Layer 3 (Foreground)
//Storyboard Layer 4 (Overlay)
//Storyboard Sound Samples

[TimingPoints]
96,285.714285714286,4,1,0,50,1,0
10506,-142.857142857143,4,1,0,50,0,0
10935,-66.6666666666667,4,1,0,50,0,0
11649,-100,4,1,0,50,0,0
12792,-142.857142857143,4,1,0,50,0,0
13220,-66.6666666666667,4,1,0,50,0,0
14363,-100,4,1,0,50,0,0
14935,-100,4,1,0,50,0,0
17220,-142.857142857143,4,1,0,50,0,0
17506,-66.6666666666667,4,1,0,50,0,0
17792,-125,4,1,0,50,0,0
18078,-66.6666666666667,4,1,0,50,0,0
18363,-100,4,1,0,50,0,0
20078,-76.9230769230769,4,1,0,50,0,0
22078,-66.6666666666667,4,1,0,50,0,0
22363,-58.8235294117647,4,1,0,50,0,0
22935,-100,4,1,0,50,0,0
24649,-66.6666666666667,4,1,0,50,0,0
26363,-76.9230769230769,4,1,0,50,0,0
26649,-66.6666666666667,4,1,0,50,0,0
26935,-58.8235294117647,4,1,0,50,0,0
27506,-100,4,1,0,50,0,0
31506,-125,4,1,0,50,0,0
31792,-100,4,1,0,50,0,0
33220,-125,4,1,0,50,0,0
33506,-66.6666666666667,4,1,0,50,0,0
33792,-125,4,1,0,50,0,0
34078,-100,4,1,0,50,0,0
35792,-76.9230769230769,4,1,0,50,0,0
36363,-200,4,1,0,50,0,0
36649,-100,4,1,0,50,0,0
38078,-66.6666666666667,4,1,0,50,0,0
38649,-200,4,1,0,50,0,0
38935,-83.3333333333333,4,1,0,50,0,0
40649,-62.5,4,1,0,50,0,0
40935,-200,4,1,0,50,0,0
41220,-76.9230769230769,4,1,0,50,0,0
43078,-111.111111111111,4,1,0,50,0,0
45792,-66.6666666666667,4,1,0,50,0,1
46363,-100,4,1,0,50,0,1
46935,-66.6666666666667,4,1,0,50,0,1
47506,-100,4,1,0,50,0,1
48078,-83.3333333333333,4,1,0,50,0,1
49792,-83.3333333333333,4,1,0,50,0,1
50078,-66.6666666666667,4,1,0,50,0,1
50363,-100,4,1,0,50,0,1
50935,-83.3333333333333,4,1,0,50,0,1
52363,-125,4,1,0,50,0,1
52935,-66.6666666666667,4,1,0,50,0,1
53220,-100,4,1,0,50,0,1
53506,-66.6666666666667,4,1,0,50,0,1
53792,-58.8235294117647,4,1,0,50,0,1
54649,-142.857142857143,4,1,0,50,0,1
54935,-62.5,4,1,0,50,0,1
56363,-100,4,1,0,50,0,1
61506,-66.6666666666667,4,1,0,50,0,1
63220,-58.8235294117647,4,1,0,50,0,1
63506,-100,4,1,0,50,0,0
65792,-66.6666666666667,4,1,0,50,0,0
66381,-100,4,1,0,50,0,0
67810,-76.9230769230769,4,1,0,50,0,0
68096,-166.666666666667,4,1,0,50,0,0
69381,-100,4,1,0,50,0,0
74953,-142.857142857143,4,1,0,50,0,0
75238,-66.6666666666667,4,1,0,50,0,0
75524,-100,4,1,0,50,0,0
77238,-142.857142857143,4,1,0,50,0,0
77524,-66.6666666666667,4,1,0,50,0,0
77810,-100,4,1,0,50,0,0
83238,-66.6666666666667,4,1,0,50,0,0
83810,-166.666666666667,4,1,0,50,0,0
84667,-100,4,1,0,50,0,0
86381,-142.857142857143,4,1,0,50,0,0
86667,-66.6666666666667,4,1,0,50,0,0
87238,-100,4,1,0,50,0,0
88667,-142.857142857143,4,1,0,50,0,0
88953,-66.6666666666667,4,1,0,50,0,0
89238,-100,4,1,0,50,0,0
90810,-142.857142857143,4,1,0,50,0,0
91238,-66.6666666666667,4,1,0,50,0,0
91524,-125,4,1,0,50,0,0
92810,-100,4,1,0,50,0,0
93524,-76.9230769230769,4,1,0,50,0,0
93810,-66.6666666666667,4,1,0,50,0,0
94667,-100,4,1,0,50,0,0
94953,-66.6666666666667,4,1,0,50,0,0
95524,-142.857142857143,4,1,0,50,0,0
96667,-100,4,1,0,50,0,0
98381,-111.111111111111,4,1,0,50,0,0
100667,-66.6666666666667,4,1,0,50,0,1
101238,-100,4,1,0,50,0,1
101810,-66.6666666666667,4,1,0,50,0,1
102381,-125,4,1,0,50,0,1
102953,-100,4,1,0,50,0,1
104953,-66.6666666666667,4,1,0,50,0,1
105238,-100,4,1,0,50,0,1
105810,-83.3333333333333,4,1,0,50,0,1
107238,-125,4,1,0,50,0,1
107810,-66.6666666666667,4,1,0,50,0,1
108096,-100,4,1,0,50,0,1
108381,-125,4,1,0,50,0,1
108667,-66.6666666666667,4,1,0,50,0,1
109238,-58.8235294117647,4,1,0,50,0,1
109524,-142.857142857143,4,1,0,50,0,1
109810,-62.5,4,1,0,50,0,1
111238,-100,4,1,0,50,0,1
116381,-66.6666666666667,4,1,0,50,0,1
118096,-58.8235294117647,4,1,0,50,0,1
118381,-166.666666666667,4,1,0,50,0,0
118953,-250,4,1,0,50,0,0
119667,-142.857142857143,4,1,0,50,0,0
126953,-100,4,1,0,50,0,0
127238,-76.9230769230769,4,1,0,50,0,0
128096,-125,4,1,0,50,0,0
131524,-166.666666666667,4,1,0,50,0,0
132096,-66.6666666666667,4,1,0,50,0,0
132667,-125,4,1,0,50,0,0
136524,-66.6666666666667,4,1,0,50,0,0
137810,-100,4,1,0,50,0,0
138381,-125,4,1,0,50,0,0
140096,-100,4,1,0,50,0,0
140667,-125,4,1,0,50,0,0
142381,-100,4,1,0,50,0,0
142953,-125,4,1,0,50,0,0
144096,-76.9230769230769,4,1,0,50,0,0
144667,-133.333333333333,4,1,0,50,0,0
145238,-76.9230769230769,4,1,0,50,0,0
146381,-66.6666666666667,4,1,0,50,0,1
146953,-100,4,1,0,50,0,1
147524,-66.6666666666667,4,1,0,50,0,1
148096,-100,4,1,0,50,0,1
148667,-83.3333333333333,4,1,0,50,0,1
150667,-66.6666666666667,4,1,0,50,0,1
150953,-100,4,1,0,50,0,1
151524,-83.3333333333333,4,1,0,50,0,1
152953,-125,4,1,0,50,0,1
153524,-66.6666666666667,4,1,0,50,0,1
153810,-100,4,1,0,50,0,1
154096,-66.6666666666667,4,1,0,50,0,1
154381,-58.8235294117647,4,1,0,50,0,1
155238,-142.857142857143,4,1,0,50,0,1
155524,-62.5,4,1,0,50,0,1
156953,-100,4,1,0,50,0,1
162096,-66.6666666666667,4,1,0,50,0,1
163524,-76.9230769230769,4,1,0,50,0,1
163810,-66.6666666666667,4,1,0,50,0,1
164096,-58.8235294117647,4,1,0,50,0,1
164381,-142.857142857143,4,1,0,50,0,0
165238,-58.8235294117647,4,1,0,50,0,1
165810,-76.9230769230769,4,1,0,50,0,1
182381,-76.9230769230769,4,1,0,50,0,0

[HitObjects]
145,179,9238,6,0,B|161:220|161:220|246:276,1,135
187,107,9524,2,0,P|128:95|90:107,1,90
73,229,9810,1,0,0:0:0:0:
186,106,9953,1,0,0:0:0:0:
72,316,10096,1,0,0:0:0:0:
72,316,10238,2,0,P|25:295|-10:249,1,90
208,27,10524,6,0,B|242:37|263:74|263:74|285:112|330:127,1,157.499995193482
363,52,10953,6,0,B|413:92|413:92|424:171|343:213,1,202.500007724762
431,257,11238,2,0,P|370:308|359:369,1,135.000005149842
443,341,11524,1,0,0:0:0:0:
353,207,11667,2,0,L|379:245,1,45
343,192,11810,5,0,0:0:0:0:
199,166,11953,1,0,0:0:0:0:
289,300,12096,1,0,0:0:0:0:
186,85,12238,2,0,P|138:108|114:148,1,90
209,250,12524,2,0,P|250:232|277:197,1,90
127,286,12738,1,0,0:0:0:0:
127,286,12810,6,0,B|170:327|170:327|215:336|215:336|257:370,1,157.499995193482
42,294,13238,6,0,B|55:231|55:231|117:196|162:133,1,202.500007724762
110,22,13524,2,0,P|96:73|38:132,1,135.000005149842
18,41,13810,5,0,0:0:0:0:
226,242,14096,1,0,0:0:0:0:
226,141,14238,1,0,0:0:0:0:
314,192,14381,2,0,L|444:116,1,135
226,141,14667,5,0,0:0:0:0:
316,286,14810,1,0,0:0:0:0:
281,77,14953,2,0,P|237:60|169:76,1,90
226,141,15238,5,0,0:0:0:0:
374,103,15381,1,0,0:0:0:0:
153,202,15524,2,0,L|248:241,1,90
226,141,15810,5,0,0:0:0:0:
181,305,15953,1,0,0:0:0:0:
136,115,16096,1,0,0:0:0:0:
276,275,16238,1,0,0:0:0:0:
68,216,16381,5,0,0:0:0:0:
226,141,16524,1,0,0:0:0:0:
182,299,16667,1,0,0:0:0:0:
134,58,16810,1,0,0:0:0:0:
182,299,16953,5,0,0:0:0:0:
286,230,17096,1,0,0:0:0:0:
70,226,17238,2,0,L|48:328,1,94.499997116089
45,117,17524,6,0,B|143:144|143:144|185:274,1,202.500007724762
243,178,17810,6,0,P|263:231|307:265,1,108
420,239,18096,6,0,P|410:166|306:82,1,202.500007724762
260,337,18381,6,0,L|360:349,1,90
225,228,18667,1,0,0:0:0:0:
225,228,18810,2,0,L|135:217,1,90
119,199,19024,1,0,0:0:0:0:
107,173,19096,1,0,0:0:0:0:
330,160,19238,5,0,0:0:0:0:
220,314,19381,1,0,0:0:0:0:
342,74,19524,2,0,P|384:96|415:139,1,90
425,289,19810,5,0,0:0:0:0:
241,142,19953,1,0,0:0:0:0:
496,331,20096,2,0,P|448:365|383:355,1,116.999994644165
425,289,20381,5,0,0:0:0:0:
311,351,20524,1,0,0:0:0:0:
408,145,20667,1,0,0:0:0:0:
311,351,20810,2,0,L|336:297,1,58.4999973220826
291,361,20953,1,0,0:0:0:0:
470,214,21096,1,0,0:0:0:0:
211,230,21238,5,0,0:0:0:0:
449,307,21381,1,0,0:0:0:0:
102,154,21524,5,0,0:0:0:0:
181,318,21667,1,0,0:0:0:0:
156,92,21810,6,0,P|69:77|20:148,1,175.499991966248
227,193,22096,6,0,B|229:162|252:124|252:124|237:57|237:57|253:24|252:-13,1,202.500007724762
312,194,22381,6,0,B|313:241|335:285|335:285|286:331|267:391|267:391|263:304,1,306.000005836487
263,306,22810,1,0,0:0:0:0:
396,215,22953,6,0,L|481:262,1,90
382,307,23238,5,0,0:0:0:0:
296,155,23381,1,0,0:0:0:0:
326,371,23524,2,0,P|298:329|323:242,1,135
314,250,23810,1,0,0:0:0:0:
216,349,23953,5,0,0:0:0:0:
382,307,24096,1,0,0:0:0:0:
222,175,24238,1,0,0:0:0:0:
326,370,24381,1,0,0:0:0:0:
319,98,24524,1,0,0:0:0:0:
180,254,24667,6,0,B|226:263|226:263|325:215,1,135.000005149842
182,337,24953,1,0,0:0:0:0:
222,175,25096,1,0,0:0:0:0:
77,96,25238,5,0,0:0:0:0:
199,257,25381,1,0,0:0:0:0:
42,238,25524,1,0,0:0:0:0:
241,93,25667,1,0,0:0:0:0:
96,323,25810,5,0,0:0:0:0:
222,175,25953,1,0,0:0:0:0:
193,360,26096,1,0,0:0:0:0:
144,122,26238,1,0,0:0:0:0:
279,246,26381,6,0,P|307:189|242:85,1,175.499991966248
177,278,26667,6,0,B|250:339|250:339|320:337|320:337|354:300,1,202.500007724762
171,186,26953,6,0,B|103:215|76:299|76:299|53:219|-4:167,1,306.000005836487
171,186,27381,5,0,0:0:0:0:
152,108,27524,2,0,P|201:110|242:143,1,90
258,302,27810,2,0,P|209:300|168:267,1,90
348,137,28096,1,0,0:0:0:0:
260,301,28238,1,0,0:0:0:0:
243,114,28381,1,0,0:0:0:0:
364,318,28524,1,0,0:0:0:0:
171,149,28667,6,0,P|213:187|301:177,1,135
107,217,28953,2,0,P|50:219|-3:291,1,135
75,126,29238,2,0,P|113:84|100:-10,1,135
38,52,29524,1,0,0:0:0:0:
75,126,29667,1,0,0:0:0:0:
63,215,29810,6,0,L|153:184,1,90
335,242,30096,2,0,L|249:271,1,90
389,113,30381,2,0,L|479:82,1,90
335,242,30667,5,0,0:0:0:0:
310,139,30810,1,0,0:0:0:0:
438,224,30953,1,0,0:0:0:0:
318,324,31096,5,0,0:0:0:0:
424,116,31238,1,0,0:0:0:0:
451,362,31381,1,0,0:0:0:0:
310,139,31524,2,0,L|197:122,1,108
398,32,31810,2,0,P|423:82|420:128,1,90
365,204,32096,5,0,0:0:0:0:
501,127,32238,1,0,0:0:0:0:
358,304,32381,1,0,0:0:0:0:
190,177,32524,1,0,0:0:0:0:
425,359,32667,2,0,P|441:308|429:257,1,90
282,271,32953,6,0,P|277:315|292:357,1,90
444,187,33238,2,0,L|475:78,1,108
363,212,33524,2,0,P|413:264|524:212,1,202.500007724762
354,350,33810,2,0,L|269:257,1,108
252,361,34096,5,0,0:0:0:0:
354,350,34238,1,0,0:0:0:0:
147,212,34381,1,0,0:0:0:0:
252,361,34524,1,0,0:0:0:0:
223,160,34667,2,0,P|180:134|61:172,1,180
256,71,35096,5,0,0:0:0:0:
147,212,35238,1,0,0:0:0:0:
349,136,35381,1,0,0:0:0:0:
63,168,35524,6,0,P|57:229|102:300,1,135
68,368,35810,6,0,P|129:374|226:291,1,175.499991966248
262,378,36096,5,0,0:0:0:0:
289,203,36381,6,0,L|222:178,1,67.5
341,270,36667,6,0,P|371:221|369:165,1,90
265,30,36953,1,0,0:0:0:0:
289,203,37096,1,0,0:0:0:0:
397,57,37238,1,0,0:0:0:0:
183,164,37381,1,0,0:0:0:0:
128,98,37524,2,0,P|99:147|99:193,1,90
253,285,37810,5,0,0:0:0:0:
128,98,37953,1,0,0:0:0:0:
328,333,38096,2,0,L|444:261,1,135.000005149842
173,323,38381,1,0,0:0:0:0:
223,203,38667,6,0,L|290:178,1,67.5
142,177,38953,6,0,P|150:238|180:279,1,107.999996704102
286,180,39238,1,0,0:0:0:0:
236,25,39381,1,0,0:0:0:0:
142,177,39524,5,0,0:0:0:0:
192,332,39667,1,0,0:0:0:0:
194,105,39810,2,0,P|137:92|74:110,1,107.999996704102
390,227,40096,1,0,0:0:0:0:
128,264,40238,1,0,0:0:0:0:
349,57,40381,1,0,0:0:0:0:
224,344,40524,1,0,0:0:0:0:
349,57,40667,2,0,B|288:25|288:25|204:35|171:124,1,216
261,230,40953,6,0,L|249:145,1,67.5
189,284,41238,6,0,P|225:310|259:317,1,58.4999973220826
166,291,41381,1,0,0:0:0:0:
350,229,41524,2,0,P|330:272|262:312,1,116.999994644165
242,87,41810,5,0,0:0:0:0:
271,222,41953,1,0,0:0:0:0:
160,333,42096,1,0,0:0:0:0:
189,172,42238,1,0,0:0:0:0:
79,366,42381,2,0,P|80:301|119:252,1,116.999994644165
266,138,42667,5,0,0:0:0:0:
266,138,42810,2,0,P|265:203|169:255,1,175.499991966248
202,68,43096,2,0,L|284:33,1,80.9999975280763
266,138,43381,5,0,0:0:0:0:
132,184,43524,2,0,L|112:98,1,80.9999975280763
346,183,43881,1,0,0:0:0:0:
59,229,44096,6,0,L|40:307,1,80.9999975280763
389,103,44453,1,0,0:0:0:0:
147,207,44667,6,0,L|127:121,1,80.9999975280763
266,138,45024,1,0,0:0:0:0:
59,229,45238,6,0,L|40:307,1,80.9999975280763
512,81,45596,1,0,0:0:0:0:
313,207,45810,6,0,B|264:206|221:175|221:175|183:212|128:221|128:221|151:142|85:73|85:73|42:130|56:175,1,472.500018024445
376,261,46381,6,0,P|394:207|376:149,1,90
247,159,46667,2,0,P|229:213|247:271,1,90
466,151,46953,6,0,B|429:80|350:61|350:61|387:106,1,202.500007724762,0|0,2:0|2:0,2:0:0:0:
306,123,47238,6,0,B|249:154|200:140|200:140|149:125|105:147,1,202.500007724762
34,160,47524,6,0,B|23:238|94:306|94:306|106:253|146:213,1,270
284,266,48096,6,0,B|243:289|243:289|169:289,1,107.999996704102
236,149,48381,2,0,B|277:126|277:126|351:126,1,107.999996704102
172,364,48667,2,0,B|126:351|126:351|74:298,1,107.999996704102
344,51,48953,2,0,B|389:63|389:63|441:116,1,107.999996704102
167,274,49238,5,0,0:0:0:0:
345,132,49381,1,0,0:0:0:0:
163,303,49524,1,0,0:0:0:0:
351,105,49667,1,0,0:0:0:0:
165,332,49810,6,0,P|232:336|280:316,1,107.999996704102
173,148,50096,6,0,B|116:136|116:136|53:177|49:263,1,202.500007724762
239,229,50381,6,0,B|274:188|277:141|277:141|341:94|341:94|345:43|367:2,1,270
139,247,50953,6,0,L|219:337,1,107.999996704102
334,212,51238,2,0,L|262:131,1,107.999996704102
346,297,51524,6,0,P|406:254|390:149,1,161.999995056153
320,129,51810,6,0,P|260:172|276:277,1,161.999995056153
346,297,52096,6,0,L|501:361,1,161.999995056153
422,172,52381,6,0,L|218:88,1,216
96,149,52953,6,0,B|76:218|116:286|116:286|118:240|137:215,1,202.500007724762
203,269,53238,6,0,P|258:295|366:267,1,135
337,376,53524,6,0,B|405:357|440:280|440:280|436:323|454:348,1,202.500007724762
340,280,53810,6,0,B|386:228|371:169|371:169|306:182|278:227,1,229.500004377365
208,179,54096,6,0,B|193:217|210:270|210:270|152:208|167:120,1,229.500004377365
117,65,54381,6,0,B|86:115|82:175|82:175|62:115|22:64,1,229.500004377365
35,243,54667,6,0,P|89:256|147:239,1,94.499997116089
82,174,54953,6,0,B|65:150|7:139|7:139|67:120|131:136|131:136|188:109|188:109|238:148|351:124|351:124|280:147|244:202,1,576
242,233,55667,1,0,0:0:0:0:
247,261,55810,1,0,0:0:0:0:
246,293,55953,1,0,0:0:0:0:
352,102,56096,1,0,0:0:0:0:
163,278,56238,1,0,0:0:0:0:
369,199,56381,6,0,L|269:159,1,90
348,360,56667,1,0,0:0:0:0:
352,102,56810,1,0,0:0:0:0:
79,244,56953,6,0,L|162:277,1,90
88,72,57238,1,0,0:0:0:0:
109,343,57381,1,0,0:0:0:0:
207,85,57524,5,0,0:0:0:0:
182,273,57667,1,0,0:0:0:0:
29,182,57810,1,0,0:0:0:0:
109,343,57953,1,0,0:0:0:0:
132,98,58096,5,0,0:0:0:0:
18,305,58238,1,0,0:0:0:0:
305,226,58381,1,0,0:0:0:0:
116,191,58524,1,0,0:0:0:0:
237,370,58667,5,0,0:0:0:0:
226,86,58810,1,0,0:0:0:0:
349,300,58953,1,0,0:0:0:0:
116,191,59096,1,0,0:0:0:0:
447,157,59238,5,0,0:0:0:0:
116,191,59381,1,0,0:0:0:0:
276,269,59524,1,0,0:0:0:0:
288,26,59667,1,0,0:0:0:0:
199,310,59810,6,0,P|237:344|285:358,1,90
501,309,60096,1,0,0:0:0:0:
218,216,60238,1,0,0:0:0:0:
434,186,60381,6,0,P|396:152|348:138,1,90
132,187,60667,1,0,0:0:0:0:
415,280,60810,1,0,0:0:0:0:
174,41,60953,5,0,0:0:0:0:
279,344,61096,1,0,0:0:0:0:
331,127,61238,1,0,0:0:0:0:
279,344,61381,1,0,0:0:0:0:
260,50,61524,6,0,L|398:44,1,135.000005149842
158,125,61810,6,0,P|130:185|235:139,1,270.000010299683
104,280,62238,5,0,0:0:0:0:
298,308,62381,1,0,0:0:0:0:
2,268,62524,1,0,0:0:0:0:
396,182,62667,1,0,0:0:0:0:
141,359,62810,1,0,0:0:0:0:
430,100,62953,6,0,P|480:142|487:275,1,202.500007724762
396,182,63238,6,0,P|330:176|221:297,1,229.500004377365
329,271,63524,5,0,0:0:0:0:
119,128,64096,6,0,B|139:170|139:170|219:221,1,135
49,175,64381,5,0,0:0:0:0:
208,118,64524,1,0,0:0:0:0:
109,296,64667,2,0,L|124:247,1,45
119,318,64810,1,0,0:0:0:0:
33,88,64953,1,0,0:0:0:0:
6,349,65096,1,0,0:0:0:0:
153,167,65238,6,0,B|192:199|196:247|196:247|201:296|237:334,1,180
284,258,65667,1,0,0:0:0:0:
70,182,65810,2,0,P|89:104|209:100,1,202.500007724762
272,110,66096,2,0,P|367:108|399:18,1,202.500007724762
320,42,66381,6,0,L|221:20,1,90
200,178,66667,1,0,0:0:0:0:
272,110,66810,1,0,0:0:0:0:
94,160,66953,2,0,L|80:255,1,90
159,356,67238,5,0,0:0:0:0:
80,249,67381,1,0,0:0:0:0:
234,92,67524,6,0,L|132:193,1,135
243,332,67810,6,0,B|282:290|282:290|275:135,1,175.499991966248
49,261,68096,6,0,P|98:284|207:249,1,161.999995056153
122,197,68667,5,0,0:0:0:0:
49,261,68810,1,0,0:0:0:0:
49,261,68881,1,0,0:0:0:0:
49,261,68953,1,0,0:0:0:0:
218,218,69096,1,0,0:0:0:0:
84,355,69238,5,0,0:0:0:0:
131,115,69381,2,0,L|228:107,1,90
122,197,69667,1,0,0:0:0:0:
76,38,69810,2,0,P|46:89|40:129,1,90
165,273,70096,2,0,B|200:243|200:243|252:237|252:237|282:212,1,135
130,377,70381,2,0,B|83:364|57:323|57:323|78:325|109:317,2,135
246,182,70953,6,0,L|162:68,2,120
78,205,71524,5,0,0:0:0:0:
40,312,71738,1,0,0:0:0:0:
352,214,72096,6,0,B|398:199|412:166|412:166|414:210,2,120
337,25,72667,5,0,0:0:0:0:
449,279,72881,1,0,0:0:0:0:
133,202,73096,5,0,0:0:0:0:
134,185,73238,2,0,P|179:148|226:134,1,90
297,263,73524,2,0,P|252:300|205:314,1,90
193,56,73810,2,0,P|250:67|284:92,1,90
298,263,74096,5,0,0:0:0:0:
214,135,74238,1,0,0:0:0:0:
211,350,74381,1,0,0:0:0:0:
291,161,74524,1,0,0:0:0:0:
104,301,74667,1,0,0:0:0:0:
381,248,74810,1,0,0:0:0:0:
50,233,74953,2,0,P|21:275|18:329,1,94.499997116089
150,379,75238,6,0,P|188:313|180:235,1,135.000005149842
30,145,75524,6,0,L|53:249,1,90
187,255,75810,1,0,0:0:0:0:
117,176,75953,1,0,0:0:0:0:
244,323,76096,2,0,L|271:275,1,45
246,341,76238,1,0,0:0:0:0:
218,87,76381,1,0,0:0:0:0:
246,341,76524,1,0,0:0:0:0:
296,43,76667,2,0,L|210:91,1,90
338,126,76953,5,0,0:0:0:0:
371,11,77096,1,0,0:0:0:0:
365,209,77238,2,0,P|398:185|420:124,1,94.499997116089
224,78,77524,6,0,B|221:122|221:122|281:198,1,135.000005149842
193,315,77810,6,0,P|206:256|196:213,1,90
89,99,78096,1,0,0:0:0:0:
126,258,78238,1,0,0:0:0:0:
231,50,78381,1,0,0:0:0:0:
193,315,78524,1,0,0:0:0:0:
107,178,78667,1,0,0:0:0:0:
291,256,78810,5,0,0:0:0:0:
241,383,79024,5,0,0:0:0:0:
361,355,79238,5,0,0:0:0:0:
170,73,79453,6,0,L|301:19,1,135
471,49,79810,1,0,0:0:0:0:
360,77,79953,1,0,0:0:0:0:
429,258,80096,5,0,0:0:0:0:
471,49,80238,1,0,0:0:0:0:
350,180,80381,1,0,0:0:0:0:
511,218,80524,5,0,0:0:0:0:
301,21,80667,2,0,P|258:53|237:102,1,90
264,163,80881,1,0,0:0:0:0:
350,180,80953,2,0,P|393:148|414:99,1,90
124,175,81238,6,0,L|270:306,2,180
467,354,82096,5,0,0:0:0:0:
298,108,82381,6,0,L|279:203,1,90
370,68,82667,2,0,P|340:40|309:30,1,45
390,71,82810,1,0,0:0:0:0:
211,245,82953,1,0,0:0:0:0:
370,189,83096,1,0,0:0:0:0:
166,317,83238,6,0,B|156:291|133:270|133:270|150:187|244:192|244:192|223:210|206:256,1,270.000010299683
474,142,83810,6,0,L|415:46,2,107.999996704102
103,238,84667,6,0,P|117:180|158:142,1,90
283,204,84953,2,0,P|269:262|228:300,1,90
194,217,85238,1,0,0:0:0:0:
232,131,85381,5,0,0:0:0:0:
294,324,85524,1,0,0:0:0:0:
283,204,85667,1,0,0:0:0:0:
166,358,85810,5,0,0:0:0:0:
377,300,85953,1,0,0:0:0:0:
186,64,86096,1,0,0:0:0:0:
294,324,86238,1,0,0:0:0:0:
143,270,86381,6,0,P|142:313|175:366,1,94.499997116089
291,348,86667,2,0,P|289:270|237:203,1,135.000005149842
111,130,86953,5,0,0:0:0:0:
143,270,87096,1,0,0:0:0:0:
149,54,87238,2,0,P|100:50|35:76,1,90
240,309,87524,2,0,L|192:160,1,135
255,79,87810,6,0,L|283:168,1,90
128,150,88096,1,0,0:0:0:0:
255,79,88238,1,0,0:0:0:0:
130,321,88381,1,0,0:0:0:0:
39,184,88524,1,0,0:0:0:0:
209,291,88667,2,0,P|213:339|192:387,1,94.499997116089
52,359,88953,6,0,P|59:278|114:229,1,135.000005149842
290,350,89238,5,0,0:0:0:0:
130,321,89381,1,0,0:0:0:0:
246,135,89524,1,0,0:0:0:0:
251,282,89667,6,0,B|217:315|217:315|129:320,2,135
52,223,90238,5,0,0:0:0:0:
130,321,90381,1,0,0:0:0:0:
144,107,90524,1,0,0:0:0:0:
39,318,90667,1,0,0:0:0:0:
255,196,90810,2,0,B|292:193|292:193|318:206|318:206|355:202,1,94.499997116089
363,189,91096,5,0,0:0:0:0:
189,124,91238,6,0,P|161:195|236:299,1,202.500007724762
313,295,91524,2,0,P|355:285|411:286,2,72
266,365,91953,1,0,0:0:0:0:
198,214,92096,2,0,L|144:98,2,108
215,226,92667,1,0,0:0:0:0:
61,189,92810,6,0,B|43:217|43:217|36:287,2,90
199,129,93238,2,0,P|256:140|297:195,1,90
82,291,93524,2,0,P|77:214|132:145,1,116.999994644165,0|0,0:0|0:0,2:0:0:0:
301,278,93810,1,0,0:0:0:0:
211,218,93953,5,0,0:0:0:0:
227,332,94096,1,0,0:0:0:0:
227,332,94167,1,0,0:0:0:0:
227,332,94238,1,0,0:0:0:0:
307,207,94381,1,0,0:0:0:0:
181,120,94524,1,0,0:0:0:0:
378,259,94667,2,0,L|438:182,1,90
194,142,94953,6,0,B|199:204|199:204|228:236|228:236|217:279|217:279|227:338,1,202.500007724762
149,356,95238,6,0,B|139:292|139:292|114:261|114:261|123:220|123:220|115:157,1,202.500007724762
240,78,95524,6,0,B|276:79|301:103|301:103|323:126|373:136,2,125.999996154785
162,97,96238,5,0,0:0:0:0:
196,177,96381,1,0,0:0:0:0:
89,273,96524,1,0,0:0:0:0:
111,178,96667,2,0,L|9:169,1,90
207,280,96953,5,0,0:0:0:0:
221,294,97096,2,0,L|310:301,1,90
141,347,97381,1,0,0:0:0:0:
362,235,97524,2,0,P|388:278|392:328,1,90
245,206,97810,1,0,0:0:0:0:
438,194,97953,1,0,0:0:0:0:
362,235,98096,2,0,P|357:184|413:113,1,135
386,352,98381,6,0,L|307:323,1,80.9999975280763
438,194,98738,1,0,0:0:0:0:
166,258,98953,6,0,L|245:229,1,80.9999975280763
61,82,99310,1,0,0:0:0:0:
397,384,99524,6,0,L|318:355,1,80.9999975280763
477,269,99881,1,0,0:0:0:0:
214,263,100096,6,0,L|293:234,1,80.9999975280763
0,20,100453,1,0,0:0:0:0:
184,338,100667,6,0,B|171:299|197:248|197:248|178:199|178:199|230:182|262:126|262:126|317:130|349:105|349:105|269:81|240:35,1,472.500018024445
115,142,101238,6,0,P|96:196|105:237,1,90
257,306,101524,2,0,P|276:252|267:211,1,90
4,326,101810,6,0,B|35:344|35:344|70:323|70:323|121:367|215:346,1,202.500007724762
257,306,102096,6,0,B|315:281|365:306|365:306|403:324|481:297,1,202.500007724762
328,221,102381,6,0,B|355:218|400:240|400:240|340:170|251:153,1,252
151,190,102953,6,0,P|150:243|173:293,1,90
328,221,103238,2,0,P|329:168|306:118,1,90
88,314,103524,6,0,P|124:352|176:371,1,90
395,102,103810,2,0,P|358:63|306:44,1,90
166,169,104096,5,0,0:0:0:0:
308,125,104238,1,0,0:0:0:0:
162,181,104381,1,0,0:0:0:0:
304,137,104524,1,0,0:0:0:0:
76,222,104667,6,0,L|85:108,1,90
392,71,104953,6,0,L|380:223,1,135.000005149842
166,341,105238,6,0,B|180:246|180:246|226:181|226:181|237:77,1,270
264,277,105810,6,0,P|315:260|361:225,1,107.999996704102
257,4,106096,2,0,P|205:20|160:56,1,107.999996704102
133,181,106381,6,0,L|268:280,1,161.999995056153
358,228,106667,6,0,L|223:129,1,161.999995056153
69,115,106953,6,0,P|45:180|101:276,1,161.999995056153
158,283,107238,6,0,B|227:281|258:242|258:242|289:198|369:200,1,216
341,284,107810,6,0,B|361:314|361:358|361:358|393:285|466:244,1,202.500007724762
480,327,108096,6,0,P|511:273|474:194,1,135
427,157,108381,6,0,L|324:104,1,108
185,172,108667,6,0,B|236:160|236:160|375:228,1,202.500007724762
419,301,108953,6,0,B|368:313|368:313|229:245,1,202.500007724762
151,253,109238,6,0,P|106:292|216:305,1,229.500004377365
268,278,109524,6,0,L|278:177,1,94.499997116089
219,71,109810,6,0,B|187:97|140:93|140:93|208:128|273:100|273:100|316:115|316:115|356:72|356:72|396:77|408:120|408:120|360:199|394:298,1,576
405,308,110524,1,0,0:0:0:0:
411,338,110667,1,0,0:0:0:0:
409,366,110810,1,0,0:0:0:0:
495,214,110953,5,0,0:0:0:0:
324,346,111096,1,0,0:0:0:0:
374,87,111238,6,0,L|398:175,1,90
467,21,111524,1,0,0:0:0:0:
301,196,111667,1,0,0:0:0:0:
180,53,111810,6,0,L|137:137,1,90
101,289,112096,1,0,0:0:0:0:
60,35,112238,1,0,0:0:0:0:
225,252,112381,5,0,0:0:0:0:
0,190,112524,1,0,0:0:0:0:
151,343,112667,1,0,0:0:0:0:
129,47,112810,1,0,0:0:0:0:
24,359,112953,5,0,0:0:0:0:
126,128,113096,1,0,0:0:0:0:
151,343,113238,1,0,0:0:0:0:
55,88,113381,1,0,0:0:0:0:
290,271,113524,5,0,0:0:0:0:
51,232,113667,1,0,0:0:0:0:
276,68,113810,1,0,0:0:0:0:
153,338,113953,1,0,0:0:0:0:
156,49,114096,5,0,0:0:0:0:
226,196,114238,1,0,0:0:0:0:
321,4,114381,1,0,0:0:0:0:
192,266,114524,1,0,0:0:0:0:
69,56,114667,5,0,0:0:0:0:
263,124,114810,1,0,0:0:0:0:
17,215,114953,1,0,0:0:0:0:
201,14,115096,1,0,0:0:0:0:
134,360,115238,6,0,P|116:312|114:261,1,90
177,101,115524,1,0,0:0:0:0:
224,344,115667,1,0,0:0:0:0:
252,0,115810,6,0,P|270:48|272:99,1,90
209,259,116096,1,0,0:0:0:0:
162,16,116238,1,0,0:0:0:0:
395,181,116381,6,0,B|326:162|326:162|263:190,1,135.000005149842
462,291,116667,6,0,B|461:266|447:246|447:246|484:202|484:202|453:140|472:86|472:86|487:130|502:141,1,270.000010299683
379,295,117096,5,0,0:0:0:0:
395,181,117238,1,0,0:0:0:0:
463,361,117381,1,0,0:0:0:0:
332,112,117524,1,0,0:0:0:0:
300,347,117667,1,0,0:0:0:0:
331,32,117810,6,0,B|365:31|391:55|391:55|430:48|479:66|479:66|444:87|430:120,1,202.500007724762
244,96,118096,6,0,B|209:108|187:142|187:142|148:148|108:182|108:182|148:190|172:216,1,229.500004377365
54,248,118381,6,0,P|31:191|83:103,1,161.999995056153
145,69,118953,6,0,B|177:101|177:101|178:147|118:180,1,144
72,321,119667,5,0,0:0:0:0:
72,321,119810,2,0,P|61:283|66:245,2,62.9999980773926
153,370,120238,1,0,0:0:0:0:
216,298,120381,6,0,L|280:214,1,94.499997116089
328,279,120667,6,0,L|392:195,1,94.499997116089
443,256,120953,5,0,0:0:0:0:
278,345,121238,1,0,0:0:0:0:
350,133,121524,1,0,0:0:0:0:
411,371,121810,1,0,0:0:0:0:
332,267,121953,5,0,0:0:0:0:
332,267,122096,2,0,P|288:250|265:247,2,62.9999980773926
411,371,122524,1,0,0:0:0:0:
414,197,122667,1,0,0:0:0:0:
164,317,122881,6,0,B|175:340|196:355|196:355|217:367|238:397,2,94.499997116089
164,199,123524,6,0,L|196:62,2,125.999996154785
91,236,124238,5,0,0:0:0:0:
91,236,124381,2,0,P|125:268|155:281,1,62.9999980773926
217,266,124667,2,0,P|256:282|281:312,1,62.9999980773926
207,344,124953,5,0,0:0:0:0:
308,222,125096,1,0,0:0:0:0:
321,345,125238,2,0,P|355:377|405:389,1,94.499997116089
431,378,125524,5,0,0:0:0:0:
308,222,125667,1,0,0:0:0:0:
237,184,125810,6,0,P|229:225|239:260,1,62.9999980773926
308,222,126096,5,0,0:0:0:0:
354,150,126238,1,0,0:0:0:0:
400,78,126381,1,0,0:0:0:0:
237,184,126524,5,0,0:0:0:0:
476,108,126667,1,0,0:0:0:0:
316,42,126810,1,0,0:0:0:0:
404,264,126953,6,0,B|388:233|386:202|386:202|359:160|307:146,1,135
237,184,127238,6,0,B|241:257|289:285|289:285|322:235|311:194,1,175.499991966248
309,159,127524,5,0,0:0:0:0:
133,251,128096,6,0,B|131:288|131:288|157:356,2,96
242,151,128667,1,0,0:0:0:0:
224,301,128881,1,0,0:0:0:0:
151,109,129024,1,0,0:0:0:0:
458,302,129238,6,0,L|354:366,2,96
462,98,129810,1,0,0:0:0:0:
385,243,130024,1,0,0:0:0:0:
371,13,130167,5,0,0:0:0:0:
310,92,130381,2,0,P|267:97|229:88,1,72
99,172,130667,2,0,P|142:167|180:176,1,72
236,248,130953,1,0,0:0:0:0:
136,244,131096,5,0,0:0:0:0:
310,92,131238,1,0,0:0:0:0:
198,322,131381,1,0,0:0:0:0:
346,22,131524,2,0,P|376:45|329:169,1,188.999994232178
298,236,132096,6,0,B|260:211|252:174|252:174|271:139|268:101|268:101|201:122|166:173|166:173|158:95|121:57,1,405.000015449525,0|0,0:0|0:0,2:0:0:0:
131,310,132667,6,0,L|230:343,2,96
45,276,133238,1,0,0:0:0:0:
218,249,133453,1,0,0:0:0:0:
2,176,133596,1,0,0:0:0:0:
300,253,133810,6,0,P|282:298|231:328,2,96
255,125,134381,1,0,0:0:0:0:
300,253,134596,1,0,0:0:0:0:
383,35,134738,5,0,0:0:0:0:
467,109,134953,2,0,L|378:133,1,72
300,253,135238,2,0,L|369:234,1,72
205,181,135524,1,0,0:0:0:0:
380,310,135667,1,0,0:0:0:0:
149,245,135810,6,0,P|123:196|139:122,2,96
305,365,136381,1,0,0:0:0:0:
305,365,136667,6,0,B|276:318|286:269|286:269|279:239|260:219|260:219|260:170|292:147|275:92|275:92|245:152|170:188,1,405.000015449525
341,202,137238,5,0,0:0:0:0:
276,94,137381,1,0,0:0:0:0:
203,279,137524,1,0,0:0:0:0:
412,162,137667,1,0,0:0:0:0:
226,29,137810,2,0,P|200:74|208:146,1,90
412,252,138096,5,0,0:0:0:0:
329,291,138238,1,0,0:0:0:0:
412,162,138381,2,0,B|408:124|408:124|359:40,2,96
292,54,138953,2,0,B|296:92|296:92|345:176,2,96
378,69,139524,5,0,0:0:0:0:
325,141,139667,1,0,0:0:0:0:
481,82,139810,1,0,0:0:0:0:
218,88,139953,1,0,0:0:0:0:
344,221,140096,2,0,P|393:194|418:138,1,90
378,69,140381,5,0,0:0:0:0:
344,221,140524,1,0,0:0:0:0:
460,86,140667,2,0,P|453:37|417:-8,2,96
378,69,141238,2,0,P|385:118|421:163,2,96
460,86,141810,5,0,0:0:0:0:
346,194,141953,1,0,0:0:0:0:
389,351,142096,2,0,L|402:310,1,36
399,374,142238,1,0,0:0:0:0:
282,142,142381,2,0,P|266:206|283:249,1,90
346,194,142667,5,0,0:0:0:0:
196,59,142810,1,0,0:0:0:0:
432,198,142953,2,0,B|414:242|414:242|376:273,2,96
346,194,143524,2,0,B|364:150|364:150|402:119,2,96
205,268,144096,6,0,B|182:256|138:258|138:258|101:224|83:155,2,155.999992858887
276,363,144667,2,0,P|319:373|385:358,2,90.0000034332277
426,53,145238,6,0,B|403:83|409:127|409:127|417:166|395:206,2,155.999992858887
311,234,145810,6,0,P|261:236|215:223,1,77.9999964294435
172,170,146024,2,0,P|133:167|33:234,1,155.999992858887
310,344,146381,6,0,B|367:372|428:306|428:306|414:232|310:235|310:235|342:175|281:134|281:134|254:78|273:53,1,472.500018024445
363,92,146953,6,0,L|412:197,1,90
222,190,147238,2,0,L|183:108,1,90
428,291,147524,6,0,B|386:299|386:299|344:270|300:279|300:279|339:309|348:347,1,202.500007724762
263,351,147810,6,0,P|195:323|60:351,1,202.500007724762
7,299,148096,6,0,B|42:261|98:254|98:254|72:211|80:161|80:161|98:206|179:249,1,315
166,144,148667,6,0,P|157:82|176:21,1,107.999996704102
320,177,148953,2,0,P|329:239|310:300,1,107.999996704102
77,163,149238,2,0,L|154:268,1,107.999996704102
408,161,149524,2,0,L|331:56,1,107.999996704102
242,306,149810,5,0,0:0:0:0:
279,137,149953,1,0,0:0:0:0:
259,337,150096,1,0,0:0:0:0:
266,116,150238,1,0,0:0:0:0:
288,351,150381,6,0,L|346:255,1,107.999996704102
200,36,150667,6,0,P|175:112|196:195,1,135.000005149842
447,173,150953,6,0,B|398:62|266:117|266:117|318:156,1,270
212,181,151524,6,0,L|125:105,1,107.999996704102
238,3,151810,2,0,L|319:74,1,107.999996704102
271,247,152096,6,0,B|221:266|221:266|81:230,1,161.999995056153
70,173,152381,6,0,B|120:154|120:154|260:190,1,161.999995056153
303,170,152667,6,0,P|352:127|362:20,1,161.999995056153
504,85,152953,6,0,P|443:137|431:268,1,216
464,338,153524,6,0,B|371:352|355:262|355:262|348:299|330:324,1,202.500007724762
276,260,153810,6,0,P|279:193|228:124,1,135
159,130,154096,6,0,B|164:172|141:225|141:225|181:261|207:317,1,202.500007724762
289,335,154381,6,0,B|333:321|352:275|352:275|395:248|443:274|443:274|403:294|387:327,2,229.500004377365
269,257,154953,6,0,B|289:196|289:196|251:106|143:99,1,229.500004377365
79,77,155238,6,0,L|104:178,1,94.499997116089
177,211,155524,6,0,B|133:244|77:251|77:251|145:278|189:272|189:272|238:233|238:233|288:245|288:245|366:178|447:212|447:212|412:220|394:245,1,576
387,266,156238,1,0,0:0:0:0:
395,297,156381,1,0,0:0:0:0:
391,330,156524,1,0,0:0:0:0:
280,155,156667,5,0,0:0:0:0:
484,240,156810,1,0,0:0:0:0:
188,125,156953,6,0,L|210:225,1,90
136,348,157238,1,0,0:0:0:0:
280,155,157381,1,0,0:0:0:0:
58,384,157524,6,0,L|36:282,1,90
171,111,157810,1,0,0:0:0:0:
136,348,157953,1,0,0:0:0:0:
45,121,158096,5,0,0:0:0:0:
281,220,158238,1,0,0:0:0:0:
15,196,158381,1,0,0:0:0:0:
336,119,158524,1,0,0:0:0:0:
62,270,158667,5,0,0:0:0:0:
156,38,158810,1,0,0:0:0:0:
167,358,158953,1,0,0:0:0:0:
159,119,159096,1,0,0:0:0:0:
62,270,159238,5,0,0:0:0:0:
262,166,159381,1,0,0:0:0:0:
79,84,159524,1,0,0:0:0:0:
338,198,159667,1,0,0:0:0:0:
143,250,159810,5,0,0:0:0:0:
276,78,159953,1,0,0:0:0:0:
235,351,160096,1,0,0:0:0:0:
91,185,160238,1,0,0:0:0:0:
235,351,160381,5,0,0:0:0:0:
265,156,160524,1,0,0:0:0:0:
18,221,160667,1,0,0:0:0:0:
163,312,160810,1,0,0:0:0:0:
84,70,160953,6,0,P|39:114|26:162,1,90
62,315,161238,1,0,0:0:0:0:
166,93,161381,1,0,0:0:0:0:
187,249,161524,6,0,P|232:205|245:157,1,90
209,4,161810,1,0,0:0:0:0:
105,226,161953,1,0,0:0:0:0:
351,160,162096,6,0,B|316:154|284:136|284:136|218:147|218:147|179:122|138:120,1,202.500007724762
327,245,162381,2,0,P|417:223|358:76,1,270.000010299683
351,160,162810,5,0,0:0:0:0:
310,83,162953,1,0,0:0:0:0:
327,245,163096,1,0,0:0:0:0:
390,22,163238,5,0,0:0:0:0:
298,327,163381,1,0,0:0:0:0:
388,322,163524,6,0,P|361:267|242:245,1,155.999992858887
162,206,163810,6,0,P|250:141|349:166,1,180.000006866455
400,162,164096,6,0,P|398:85|334:169,1,229.500004377365
404,240,164381,6,0,B|443:235|443:235|510:152,2,125.999996154785
284,162,165238,6,0,P|202:137|286:223,1,306.000005836487
379,164,165667,5,0,0:0:0:0:
379,164,165738,1,0,0:0:0:0:
379,164,165810,2,0,L|351:77,1,58.4999973220826
266,106,165953,1,0,0:0:0:0:
266,106,166024,1,0,0:0:0:0:
266,106,166096,2,0,L|283:161,1,58.4999973220826
112,328,166238,2,0,P|98:295|55:256,1,58.4999973220826
121,193,166381,2,0,P|85:191|31:214,1,58.4999973220826
188,133,166524,2,0,P|204:164|206:222,1,58.4999973220826
167,51,166667,6,0,L|239:62,3,58.4999973220826
286,11,166953,6,0,P|299:60|259:135,1,116.999994644165
335,172,167238,2,0,P|322:229|345:282,1,116.999994644165
422,303,167524,6,0,L|432:235,1,58.4999973220826
348,289,167667,1,0,0:0:0:0:
348,289,167738,1,0,0:0:0:0:
348,289,167810,2,0,L|339:346,1,58.4999973220826
259,376,167953,1,0,0:0:0:0:
259,376,168024,1,0,0:0:0:0:
259,376,168096,2,0,L|268:319,1,58.4999973220826
233,190,168238,5,0,0:0:0:0:
199,179,168310,1,0,0:0:0:0:
165,181,168381,1,0,0:0:0:0:
134,197,168453,1,0,0:0:0:0:
111,224,168524,2,0,L|107:305,1,58.4999973220826
193,353,168667,5,0,0:0:0:0:
227,364,168738,1,0,0:0:0:0:
261,362,168810,1,0,0:0:0:0:
292,346,168881,1,0,0:0:0:0:
315,319,168953,2,0,L|319:238,1,58.4999973220826
405,161,169096,2,0,L|402:219,1,58.4999973220826
237,242,169238,6,0,P|264:198|316:175,1,58.4999973220826
255,110,169381,1,0,0:0:0:0:
255,110,169453,1,0,0:0:0:0:
255,110,169524,2,0,P|306:115|349:153,1,58.4999973220826
381,243,169667,6,0,L|384:185,1,58.4999973220826
281,314,169810,2,0,P|309:320|345:315,1,58.4999973220826
381,243,169953,2,0,P|353:237|317:242,1,58.4999973220826
207,341,170096,2,0,P|222:365|251:386,1,58.4999973220826
454,214,170238,2,0,P|438:189|409:168,1,58.4999973220826
282,255,170381,6,0,L|280:325,2,58.4999973220826
337,174,170667,2,0,L|338:115,2,58.4999973220826
174,286,170953,6,0,P|238:253|295:258,1,116.999994644165
253,384,171238,2,0,P|253:349|240:315,2,58.4999973220826
116,295,171524,6,0,L|186:283,1,58.4999973220826
361,286,171667,2,0,L|303:276,1,58.4999973220826
80,226,171810,2,0,L|150:214,1,58.4999973220826
400,218,171953,2,0,L|342:208,1,58.4999973220826
183,132,172096,6,0,L|126:142,1,58.4999973220826
313,123,172238,2,0,L|371:133,1,58.4999973220826
147,63,172381,2,0,L|90:73,1,58.4999973220826
352,55,172524,2,0,L|410:65,1,58.4999973220826
313,123,172667,5,0,0:0:0:0:
483,79,172810,1,0,0:0:0:0:
320,232,172953,1,0,0:0:0:0:
424,8,173096,5,0,0:0:0:0:
424,8,173167,1,0,0:0:0:0:
424,8,173238,2,0,L|409:66,1,58.4999973220826
317,129,173381,1,0,0:0:0:0:
317,129,173453,1,0,0:0:0:0:
317,129,173524,2,0,L|331:72,1,58.4999973220826
238,161,173667,5,0,0:0:0:0:
404,104,173810,1,0,0:0:0:0:
157,191,173953,6,0,L|158:257,1,58.4999973220826
144,176,174096,1,0,0:0:0:0:
210,350,174238,1,0,0:0:0:0:
37,303,174381,5,0,0:0:0:0:
315,177,174524,2,0,P|329:227|316:299,1,116.999994644165
148,289,174810,5,0,0:0:0:0:
148,289,174953,2,0,P|134:239|147:167,1,116.999994644165
413,301,175238,6,0,P|387:346|327:387,1,116.999994644165
222,379,175524,1,0,0:0:0:0:
327,295,175667,6,0,P|335:252|329:218,1,58.4999973220826
413,186,175810,2,0,P|378:160|344:151,1,58.4999973220826
358,60,175953,2,0,P|320:80|297:107,1,58.4999973220826
413,186,176096,6,0,L|435:116,1,58.4999973220826
265,156,176238,2,0,L|247:211,1,58.4999973220826
327,295,176381,6,0,L|349:365,1,58.4999973220826
179,325,176524,2,0,L|161:269,1,58.4999973220826
83,237,176667,6,0,P|110:208|145:192,1,58.4999973220826
265,156,176810,2,0,P|238:127|203:111,1,58.4999973220826
179,325,176953,2,0,P|177:285|191:249,1,58.4999973220826
245,46,177096,2,0,P|205:44|169:58,1,58.4999973220826
265,156,177238,6,0,L|341:154,1,58.4999973220826
240,265,177381,2,0,L|181:266,1,58.4999973220826
369,83,177524,6,0,P|391:126|393:161,3,58.4999973220826
375,210,177810,1,0,0:0:0:0:
182,204,178096,6,0,P|160:247|158:282,3,58.4999973220826
176,331,178381,1,0,0:0:0:0:
338,356,178667,6,0,L|305:305,1,58.4999973220826
444,363,178810,2,0,L|411:312,1,58.4999973220826
406,183,178953,6,0,L|373:234,1,58.4999973220826
512,176,179096,2,0,L|479:227,1,58.4999973220826
352,106,179238,2,0,L|320:56,1,58.4999973220826
458,113,179381,5,0,0:0:0:0:
458,113,179453,1,0,0:0:0:0:
458,113,179524,2,0,P|445:84|426:63,1,58.4999973220826
267,120,179667,2,0,P|278:146|297:168,1,58.4999973220826
266,250,179810,6,0,L|340:259,1,58.4999973220826
482,197,179953,2,0,L|423:189,1,58.4999973220826
202,305,180096,2,0,P|186:235|222:174,1,116.999994644165
390,206,180381,2,0,P|407:260|390:315,1,116.999994644165
202,305,180667,5,0,0:0:0:0:
316,265,180810,1,0,0:0:0:0:
202,191,180953,1,0,0:0:0:0:
391,316,181096,5,0,0:0:0:0:
391,316,181167,1,0,0:0:0:0:
391,316,181238,2,0,L|339:354,1,58.4999973220826
449,251,181381,2,0,P|458:217|455:175,1,58.4999973220826
436,117,181524,2,0,P|418:86|386:59,1,58.4999973220826
294,0,181667,2,0,P|311:30|343:57,1,58.4999973220826
352,129,181810,6,0,B|331:169|281:192|281:192|238:207|204:262,1,175.499991966248
291,271,182096,5,0,0:0:0:0:
271,112,182238,1,0,0:0:0:0:
303,350,182381,1,0,0:0:0:0:
