osu file format v14

[General]
AudioFilename: audio.mp3
AudioLeadIn: 0
PreviewTime: 2903
Countdown: 0
SampleSet: Soft
StackLeniency: 0.7
Mode: 0
LetterboxInBreaks: 0
WidescreenStoryboard: 0

[Editor]
DistanceSpacing: 0.9
BeatDivisor: 4
GridSize: 4
TimelineZoom: 1

[Metadata]
Title:Gravity Falls Theme Song- 16 Bit Mix
TitleUnicode:Gravity Falls Theme Song- 16 Bit Mix
Artist:Cass2
ArtistUnicode:Cass2
Creator:Venix
Version:Pachiru's Normal
Source:
Tags:Brad Breeck bradbreeck Disney Cartoon Pachiru Krfawy Asserin A_r_M_i_N Armin Alphabet ReFaller
BeatmapID:1409615
BeatmapSetID:664315

[Difficulty]
HPDrainRate:3
CircleSize:3
OverallDifficulty:4
ApproachRate:5.5
SliderMultiplier:1.2
SliderTickRate:1

[Events]
//Background and Video events
0,0,"wojtek ma malego.jpg",0,0
//Break Periods
//Storyboard Layer 0 (Background)
//Storyboard Layer 1 (Fail)
//Storyboard Layer 2 (Pass)
//Storyboard Layer 3 (Foreground)
//Storyboard Sound Samples

[TimingPoints]
2994,361.44578313253,4,2,0,40,1,0
2994,-125,4,2,0,40,0,0
7331,-125,4,2,0,30,0,0
8054,-125,4,2,0,15,0,0
8777,-100,4,2,0,40,0,0
19981,-100,4,2,0,30,0,0
20343,-100,4,2,0,40,0,1
31909,-100,4,2,0,40,0,0
39138,-100,4,2,0,25,0,0
41307,-100,4,2,0,25,0,0

[Colours]
Combo1 : 230,110,125
Combo2 : 100,245,245
Combo3 : 155,245,135
SliderBorder : 255,255,255
SliderTrackOverride : 0,0,0

[HitObjects]
144,148,2994,6,0,P|156:192|144:248,1,96,2|2,0:0|0:0,0:0:0:0:
208,301,3716,2,0,P|252:289|308:301,1,96,2|8,0:0|0:0,0:0:0:0:
362,236,4439,2,0,P|350:192|362:136,1,96,2|2,0:0|0:0,0:0:0:0:
298,83,5162,2,0,P|254:95|200:80,1,96,2|8,0:0|0:0,0:0:0:0:
143,147,5885,5,2,0:0:0:0:
81,85,6247,1,2,0:0:0:0:
19,146,6608,2,0,P|8:192|24:244,1,96,8|8,0:0|0:0,0:0:0:0:
80,300,7331,2,0,L|144:300,1,48,0|0,1:0|1:0,0:0:0:0:
158,269,7692,2,0,L|222:269,1,48,0|0,1:0|1:0,0:0:0:0:
240,296,8054,2,0,P|288:309|332:297,1,96,0|0,1:0|1:0,0:0:0:0:
328,188,8777,6,0,B|348:148|402:137|402:137|448:152|504:136,2,180,4|4|8,3:1|0:3|1:3,0:0:0:0:
280,216,10042,1,0,0:0:0:0:
232,240,10222,2,0,B|172:220|172:220|112:240,1,120,4|8,3:0|1:3,0:0:0:0:
118,350,10945,2,0,B|171:367|171:367|231:347,1,120,2|8,0:0|1:3,0:0:0:0:
324,292,11668,6,0,B|328:172|328:172|284:132,2,180,4|4|8,3:0|0:3|1:3,0:0:0:0:
360,332,12933,1,0,0:0:0:0:
400,368,13114,2,0,P|448:336|456:264,1,120,4|8,3:0|1:3,0:0:0:0:
428,176,13837,1,2,0:0:0:0:
492,88,14198,1,8,1:3:0:0:
420,8,14560,6,0,P|303:50|188:0,1,240,4|2,3:0|0:0,0:0:0:0:
123,87,15644,1,8,1:3:0:0:
212,148,16006,2,0,P|212:196|172:260,1,120,4|8,3:0|1:3,0:0:0:0:
68,256,16728,2,0,P|35:206|32:147,1,120,2|8,0:0|1:3,0:0:0:0:
64,44,17451,6,0,P|124:32|184:44,1,120,4|8,3:0|1:3,0:0:0:0:
228,68,17993,1,4,3:0:0:0:
280,84,18174,2,0,P|338:94|397:82,1,120,2|8,0:0|1:3,0:0:0:0:
472,160,18897,1,4,3:0:0:0:
472,268,19259,1,8,1:3:0:0:
395,344,19620,1,2,0:0:0:0:
287,344,19981,1,4,0:0:0:0:
203,276,20343,5,4,3:1:0:0:
112,332,20704,2,0,P|96:264|120:208,2,120,2|2|0,1:2|0:0|1:0,0:0:0:0:
204,384,21789,1,4,3:0:0:0:
296,328,22150,1,2,1:2:0:0:
344,356,22331,1,4,3:0:0:0:
392,380,22512,1,2,0:0:0:0:
460,296,22873,1,0,1:0:0:0:
332,124,23596,6,0,P|336:52|364:8,2,120,2|2|0,1:2|0:0|1:0,0:0:0:0:
392,212,24680,2,0,P|332:232|272:212,1,120,4|2,3:0|1:2,0:0:0:0:
240,180,25222,1,4,3:0:0:0:
202,140,25403,2,0,P|142:120|82:140,1,120,2|0,0:0|1:0,0:0:0:0:
136,348,26487,6,0,P|156:280|128:216,2,120,2|2|0,1:2|0:0|1:0,0:0:0:0:
80,348,27391,1,0,0:0:0:0:
27,348,27572,2,0,P|7:280|35:216,2,120,4|2|2,3:0|1:2|0:0,0:0:0:0:
136,348,28656,1,0,1:0:0:0:
288,195,29379,5,2,1:2:0:0:
324,232,29560,1,4,3:0:0:0:
364,271,29740,1,2,0:0:0:0:
440,194,30102,1,2,1:2:0:0:
287,41,30825,5,2,1:2:0:0:
248,76,31006,1,4,3:0:0:0:
211,115,31186,1,2,0:0:0:0:
135,40,31548,1,2,1:2:0:0:
64,120,31909,5,4,1:0:0:0:
116,216,32271,2,0,P|48:232|0:212,2,120,2|2|0,1:2|0:0|1:0,0:0:0:0:
208,160,33355,2,0,P|268:140|324:164,2,120,4|2|2,3:0|1:2|0:0,0:0:0:0:
264,252,34439,1,0,1:0:0:0:
212,40,35162,5,2,1:2:0:0:
112,4,35523,1,2,0:0:0:0:
44,88,35885,1,2,1:2:0:0:
129,159,36247,2,0,P|128:216|92:276,1,120,4|0,3:0|1:0,3:0:0:0:
136,312,36789,1,4,3:0:0:0:
174,346,36969,2,0,P|229:332|296:351,1,120,2|0,0:0|1:0,0:0:0:0:
328,308,37512,1,0,0:0:0:0:
365,270,37692,6,0,P|335:218|334:158,1,120,4|0,3:0|1:0,0:0:0:0:
296,124,38234,1,4,3:0:0:0:
257,86,38415,2,0,P|205:116|145:117,1,120,2|0,0:0|1:0,0:0:0:0:
68,192,39138,6,0,B|16:316|16:316|168:316|168:316|132:248,1,360
211,171,40584,1,0,0:0:0:0:
364,323,41307,5,14,1:0:0:0:
