osu file format v14

[General]
AudioFilename: audio.mp3
AudioLeadIn: 0
PreviewTime: 2903
Countdown: 0
SampleSet: Soft
StackLeniency: 0.3
Mode: 0
LetterboxInBreaks: 0
WidescreenStoryboard: 0

[Editor]
DistanceSpacing: 1.27
BeatDivisor: 2
GridSize: 4
TimelineZoom: 2.1

[Metadata]
Title:Gravity Falls Theme Song- 16 Bit Mix
TitleUnicode:Gravity Falls Theme Song- 16 Bit Mix
Artist:Cass2
ArtistUnicode:Cass2
Creator:Venix
Version:Krfawy's Hard
Source:
Tags:Brad Breeck bradbreeck Disney Cartoon Pachiru Krfawy Asserin A_r_M_i_N Armin Alphabet ReFaller
BeatmapID:1409614
BeatmapSetID:664315

[Difficulty]
HPDrainRate:4
CircleSize:3.5
OverallDifficulty:5
ApproachRate:7.2
SliderMultiplier:1.5
SliderTickRate:2

[Events]
//Background and Video events
0,0,"wojtek ma malego.jpg",0,0
//Break Periods
//Storyboard Layer 0 (Background)
//Storyboard Layer 1 (Fail)
//Storyboard Layer 2 (Pass)
//Storyboard Layer 3 (Foreground)
//Storyboard Sound Samples

[TimingPoints]
2994,361.44578313253,4,2,15,40,1,0
2994,-125,4,2,15,40,0,0
8415,-62.5,4,2,15,40,0,0
8777,-100,4,2,15,40,0,0
20343,-100,4,2,15,40,0,1
31909,-100,4,2,15,40,0,0
39138,-166.666666666667,4,2,15,25,0,0
41307,-100,4,2,15,25,0,0
42030,-100,4,2,15,5,0,0

[Colours]
Combo1 : 230,110,125
Combo2 : 100,245,245
Combo3 : 155,245,135
SliderBorder : 255,255,255
SliderTrackOverride : 0,0,0

[HitObjects]
120,101,2994,6,0,P|145:156|192:192,1,120,10|2,0:0|0:0,0:0:0:0:
256,233,3536,1,8,0:0:0:0:
319,192,3716,2,0,B|388:192|388:192|396:189|396:189|439:189,1,120,10|8,0:0|0:0,0:0:0:0:
449,185,4439,2,0,P|457:233|413:297,1,120,10|2,0:0|0:0,0:0:0:0:
354,327,4981,1,8,0:0:0:0:
278,318,5162,2,0,B|251:305|222:326|222:326|192:346|166:334,1,120,10|8,0:0|0:0,0:0:0:0:
155,330,5885,5,10,0:0:0:0:
68,204,6247,2,0,P|40:192|10:192,2,60,2|8|10,0:0|0:0|0:0,0:0:0:0:
155,330,6969,1,8,0:0:0:0:
183,180,7331,2,0,P|194:152|215:131,1,60,10|0,1:2|1:0,0:0:0:0:
296,131,7692,2,0,P|317:152|329:180,1,60,10|2,1:2|1:2,0:0:0:0:
342,259,8054,1,10,1:2:0:0:
334,276,8144,1,0,1:0:0:0:
325,294,8234,1,8,1:2:0:0:
316,310,8325,1,0,1:0:0:0:
304,326,8415,2,0,P|297:339|286:349,8,30,6|0|0|0|0|0|0|0|4,1:2|1:0|1:0|1:0|1:0|1:0|1:0|1:0|1:0,0:0:0:0:
296,131,9138,6,0,P|267:106|255:71,1,75,10|2,1:2|1:2,0:0:0:0:
170,28,9500,2,0,B|136:20|136:20|94:26,2,75,2|0|10,3:2|3:0|1:2,3:2:0:0:
381,175,10222,1,4,1:2:0:0:
256,337,10584,1,10,1:2:0:0:
160,331,10765,1,2,1:2:0:0:
70,298,10945,2,0,P|33:289|-3:295,2,75,2|0|10,3:2|3:2|1:2,3:2:0:0:
256,337,11668,5,4,1:2:0:0:
401,192,12030,1,10,1:2:0:0:
401,192,12210,1,2,1:2:0:0:
256,67,12572,1,0,1:0:0:0:
256,67,12753,1,10,1:2:0:0:
111,192,13114,2,0,B|141:233|195:225|195:225|233:263,1,150,4|10,1:2|1:2,0:0:0:0:
320,292,13656,1,2,1:2:0:0:
372,219,13837,2,0,P|366:182|346:151,2,75,2|0|10,3:2|3:0|1:2,0:0:0:0:
256,370,14560,6,0,B|206:373|206:373|108:351,1,150,4|10,1:2|1:2,0:0:0:0:
23,323,15102,1,2,1:2:0:0:
22,233,15283,2,0,P|41:200|46:163,1,75,2|0,3:2|1:0,0:0:0:0:
36,68,15644,1,10,1:2:0:0:
33,58,16006,2,0,P|114:79|169:52,1,150,4|10,1:2|1:2,0:0:0:0:
256,8,16548,1,2,1:2:0:0:
342,51,16728,2,0,P|372:72|409:80,1,75,2|2,3:2|1:2,0:0:0:0:
505,79,17090,1,10,1:2:0:0:
508,89,17451,6,0,B|519:152|464:161|476:231,1,150,4|10,1:2|1:2,0:0:0:0:
512,314,17993,1,2,1:2:0:0:
444,372,18174,2,0,P|407:367|378:343,1,75,2|2,3:2|1:2,0:0:0:0:
290,304,18536,2,0,P|276:269|282:232,1,75,10|2,1:2|0:0,0:0:0:0:
271,136,18897,2,0,P|329:93|397:118,4,150,4|10|2|10|4,1:2|1:2|1:2|1:2|1:0,0:0:0:0:
269,146,20704,5,10,1:2:0:0:
256,240,20885,1,2,1:2:0:0:
291,328,21066,2,0,P|321:349|357:355,1,75,2|0,3:2|1:0,0:0:0:0:
447,321,21427,2,0,P|469:291|475:254,1,75,10|0,1:2|0:0,0:0:0:0:
397,196,21789,2,0,B|343:204|302:235|302:235|256:240,4,150,2|10|2|10|4,1:2|1:2|3:2|1:2|1:0,0:0:0:0:
406,194,23596,6,0,P|443:188|478:174,1,75,10|2,1:2|1:2,0:0:0:0:
491,79,23957,1,2,3:2:0:0:
403,40,24138,1,0,1:0:0:0:
346,117,24319,2,0,P|330:151|308:181,1,75,10|2,1:2|3:2,0:0:0:0:
275,270,24680,2,0,B|243:274|215:254|215:254|135:286,4,150,2|10|2|10|4,1:2|1:2|3:2|1:2|1:0,0:0:0:0:
287,267,26487,6,0,P|324:262|360:271,1,75,10|2,1:2|1:2,0:0:0:0:
444,317,26849,1,0,0:0:0:0:
472,226,27030,2,0,P|467:188|476:152,2,75,2|10|2,3:2|1:2|0:0,0:0:0:0:
444,317,27572,1,2,1:2:0:0:
444,330,27933,1,10,1:2:0:0:
256,354,28295,1,2,3:2:0:0:
256,367,28656,1,10,1:2:0:0:
68,317,29018,5,4,1:0:0:0:
68,330,29379,2,0,P|58:293|41:260,1,75,10|2,1:2|1:2,0:0:0:0:
13,169,29740,1,2,0:0:0:0:
41,77,29921,1,2,1:2:0:0:
133,49,30102,1,10,1:2:0:0:
256,72,30283,1,2,0:0:0:0:
379,49,30463,1,4,1:0:0:0:
382,59,30825,2,0,P|411:81|447:92,1,75,10|2,1:2|1:2,0:0:0:0:
477,182,31186,1,2,0:0:0:0:
453,274,31367,1,2,1:2:0:0:
379,335,31548,1,10,1:2:0:0:
256,264,31729,1,2,0:0:0:0:
133,335,31909,5,4,1:0:0:0:
130,325,32271,2,0,P|101:303|65:292,1,75,10|2,1:2|1:2,0:0:0:0:
54,198,32632,2,0,P|77:169|88:133,1,75,0|2,0:0|1:2,0:0:0:0:
181,122,32993,2,0,P|210:145|246:156,1,75,10|2,1:2|0:0,0:0:0:0:
334,199,33355,2,0,P|394:240|408:311,4,150,2|10|2|10|4,3:2|1:2|0:0|1:2|1:0,0:0:0:0:
324,192,35162,5,10,1:2:0:0:
256,124,35343,1,2,1:2:0:0:
188,192,35524,1,2,0:0:0:0:
256,260,35704,2,0,P|287:280|323:288,2,75,2|10|2,1:2|1:2|0:0,0:0:0:0:
324,192,36247,2,0,L|402:346,1,150,2|10,1:2|1:2,0:0:0:0:
120,325,36969,2,0,L|188:192,1,150,2|10,3:2|1:2,0:0:0:0:
256,13,37692,5,2,1:2:0:0:
435,192,38054,1,10,1:2:0:0:
256,371,38415,1,2,3:2:0:0:
77,192,38777,1,10,1:2:0:0:
321,126,39138,6,0,B|379:110|379:110|336:260|336:260|234:158,1,359.999989013672,4|2,1:2|0:0,0:0:0:0:
229,153,41307,5,6,0:1:0:0:
