osu file format v14

[General]
AudioFilename: audio.mp3
AudioLeadIn: 0
PreviewTime: 2903
Countdown: 0
SampleSet: Soft
StackLeniency: 0.7
Mode: 0
LetterboxInBreaks: 0
WidescreenStoryboard: 0

[Editor]
DistanceSpacing: 1
BeatDivisor: 4
GridSize: 4
TimelineZoom: 1

[Metadata]
Title:Gravity Falls Theme Song- 16 Bit Mix
TitleUnicode:Gravity Falls Theme Song- 16 Bit Mix
Artist:Cass2
ArtistUnicode:Cass2
Creator:Venix
Version:Easy
Source:
Tags:Brad Breeck bradbreeck Disney Cartoon Pachiru Krfawy Asserin A_r_M_i_N Armin Alphabet ReFaller
BeatmapID:1451983
BeatmapSetID:664315

[Difficulty]
HPDrainRate:2
CircleSize:2.5
OverallDifficulty:3
ApproachRate:3
SliderMultiplier:0.9
SliderTickRate:1

[Events]
//Background and Video events
0,0,"wojtek ma malego.jpg",0,0
//Break Periods
//Storyboard Layer 0 (Background)
//Storyboard Layer 1 (Fail)
//Storyboard Layer 2 (Pass)
//Storyboard Layer 3 (Foreground)
//Storyboard Sound Samples

[TimingPoints]
2994,361.44578313253,4,2,0,40,1,0
7331,-100,4,2,0,30,0,0
8415,-100,4,2,0,15,0,0
8777,-100,4,2,0,30,0,0
9500,-100,4,2,0,40,0,0
19981,-100,4,2,0,30,0,0
20343,-100,4,2,0,40,0,1
31909,-100,4,2,0,40,0,0
39138,-125,4,2,0,25,0,0
41307,-100,4,2,0,25,0,0

[Colours]
Combo1 : 230,110,125
Combo2 : 100,245,245
Combo3 : 155,245,135
SliderBorder : 255,255,255
SliderTrackOverride : 0,0,0

[HitObjects]
0,106,2994,6,0,P|67:75|174:112,1,180,2|2,0:0|0:0,0:0:0:0:
228,167,4078,1,8,0:0:0:0:
284,236,4439,2,0,L|476:220,1,180,2|2,0:0|0:0,0:0:0:0:
494,136,5524,1,8,0:0:0:0:
417,89,5885,6,0,L|327:80,1,90,2|2,0:0|0:0,0:0:0:0:
249,126,6608,2,0,L|159:134,1,90,2|8,0:0|0:0,0:0:0:0:
70,141,7331,1,0,1:0:0:0:
78,231,7693,1,0,1:0:0:0:
167,224,8054,2,0,P|213:231|262:262,1,90,0|0,1:0|1:0,0:0:0:0:
329,295,8777,6,0,L|361:115,1,180,4|2,3:1|0:0,0:0:0:0:
373,28,9861,1,8,1:3:0:0:
291,66,10222,2,0,P|218:76|105:57,1,180,4|2,3:0|0:0,0:0:0:0:
28,30,11307,1,8,1:3:0:0:
17,119,11668,6,0,L|25:259,1,135,4|4,3:0|0:3,0:0:0:0:
132,335,12753,1,8,1:3:0:0:
208,288,13114,2,0,P|253:280|310:294,1,90,4|8,3:0|1:3,0:0:0:0:
369,340,13837,2,0,P|413:348|457:340,1,90,2|8,0:0|1:3,0:0:0:0:
487,253,14560,6,0,L|497:71,1,180,4|2,3:0|0:0,0:0:0:0:
416,32,15644,1,8,1:3:0:0:
343,85,16006,2,0,B|257:100|257:100|156:84,1,180,4|2,3:0|0:0,0:0:0:0:
76,68,17090,1,8,1:3:0:0:
108,151,17451,6,0,L|99:244,1,90,4|8,3:0|1:3,0:0:0:0:
21,286,18174,2,0,L|29:375,1,90,2|8,0:0|1:3,0:0:0:0:
115,346,18897,2,0,P|160:338|217:352,1,90,4|8,0:3|1:3,0:0:0:0:
290,365,19620,1,2,0:0:0:0:
378,349,19981,1,4,1:2:0:0:
424,271,20343,5,4,3:1:0:0:
401,183,20704,2,0,P|393:138|407:81,2,90,2|2|0,1:2|0:0|1:0,0:0:0:0:
424,271,21789,2,0,L|242:285,1,180,4|2,3:0|0:0,0:0:0:0:
154,291,22873,1,0,1:0:0:0:
104,215,23234,5,4,3:0:0:0:
147,135,23596,2,0,L|160:38,2,90,2|2|0,1:2|0:0|1:0,0:0:0:0:
104,215,24680,2,0,P|148:222|192:214,1,90,4|2,3:0|1:2,0:0:0:0:
277,187,25403,2,0,P|321:178|365:186,1,90,2|0,0:0|1:0,0:0:0:0:
443,231,26126,5,4,3:0:0:0:
480,149,26487,2,0,B|486:105|486:105|475:45,2,90,2|2|0,1:2|0:0|1:0,0:0:0:0:
443,231,27572,2,0,P|376:287|284:272,1,180,4|2,3:0|0:0,0:0:0:0:
209,232,28656,1,0,1:0:0:0:
123,259,29018,5,4,3:0:0:0:
139,170,29379,2,0,P|147:125|133:68,2,90,2|2|2,1:2|0:0|1:2,0:0:0:0:
123,259,30463,1,4,3:0:0:0:
187,321,30825,2,0,P|232:329|289:315,2,90,2|2|2,1:2|0:0|1:2,0:0:0:0:
123,259,31909,5,4,1:0:0:0:
189,198,32271,2,0,L|290:194,2,90,2|2|0,1:2|0:0|1:0,0:0:0:0:
123,259,33355,2,0,P|98:202|161:111,1,180,4|2,3:0|0:0,0:0:0:0:
244,84,34439,1,0,1:0:0:0:
332,102,34801,5,4,3:0:0:0:
388,172,35162,2,0,P|433:180|490:166,2,90,2|2|2,1:2|0:0|1:2,0:0:0:0:
332,102,36247,6,0,L|145:96,1,180,4|2,3:0|0:0,0:0:0:0:
82,262,37692,2,0,L|269:256,1,180,4|2,3:0|0:0,0:0:0:0:
406,256,39138,6,0,B|470:157|470:157|376:120|376:120|392:188,1,288,0|2,1:0|0:0,0:0:0:0:
504,316,41307,5,14,1:0:0:0:
