osu file format v14

[General]
AudioFilename: audio.mp3
AudioLeadIn: 0
PreviewTime: 2903
Countdown: 0
SampleSet: Soft
StackLeniency: 0.7
Mode: 0
LetterboxInBreaks: 0
WidescreenStoryboard: 0

[Editor]
DistanceSpacing: 1.8
BeatDivisor: 8
GridSize: 8
TimelineZoom: 1.2

[Metadata]
Title:Gravity Falls Theme Song- 16 Bit Mix
TitleUnicode:Gravity Falls Theme Song- 16 Bit Mix
Artist:Cass2
ArtistUnicode:Cass2
Creator:Venix
Version:Alphabet's Insane
Source:
Tags:Brad Breeck bradbreeck Disney Cartoon Pachiru Krfawy Asserin A_r_M_i_N Armin Alphabet ReFaller
BeatmapID:1405980
BeatmapSetID:664315

[Difficulty]
HPDrainRate:5.5
CircleSize:4
OverallDifficulty:8
ApproachRate:9
SliderMultiplier:1.8
SliderTickRate:1

[Events]
//Background and Video events
0,0,"vishox200ppwhen.jpg",0,0
//Break Periods
//Storyboard Layer 0 (Background)
//Storyboard Layer 1 (Fail)
//Storyboard Layer 2 (Pass)
//Storyboard Layer 3 (Foreground)
//Storyboard Sound Samples

[TimingPoints]
2994,361.44578313253,4,2,0,40,1,0
2994,-125,4,2,0,40,0,0
7331,-125,4,2,0,30,0,0
7692,-125,4,2,0,22,0,0
8054,-125,4,2,0,15,0,0
8777,-100,4,2,0,40,0,0
20162,-100,4,2,0,30,0,0
20343,-100,4,2,0,40,0,1
31909,-100,4,2,0,40,0,0
38957,-166.666666666667,4,2,0,25,0,0
41307,-100,4,2,0,25,0,0
41397,-100,4,2,0,5,0,0

[Colours]
Combo1 : 255,83,83
Combo2 : 254,215,56
Combo3 : 110,110,110

[HitObjects]
21,287,2994,6,0,L|112:302,1,72,8|0,0:0|0:0,0:0:0:0:
185,312,3355,2,0,L|152:225,1,72,0|8,0:0|0:0,0:0:0:0:
124,157,3716,2,0,L|65:228,2,72,2|0|8,0:0|0:3|0:0,0:3:0:0:
197,92,4259,1,0,0:0:0:0:
249,195,4439,6,0,P|280:207|346:195,1,72,8|0,0:0|0:0,0:0:0:0:
341,77,4801,2,0,P|315:97|292:161,1,72,0|8,0:0|0:0,0:0:0:0:
397,214,5162,2,0,P|391:181|348:129,2,72,2|0|8,0:0|0:0|0:0,0:0:0:0:
339,295,5704,1,0,0:0:0:0:
237,185,5885,6,0,L|140:190,1,72,8|0,0:0|0:0,0:0:0:0:
37,253,6247,2,0,L|134:258,1,72,0|8,0:0|0:0,0:0:0:0:
232,328,6608,2,0,L|135:333,2,72,8|0|8,0:0|0:0|0:0,0:0:0:0:
339,295,7150,1,0,0:0:0:0:
263,170,7331,5,0,1:0:0:0:
218,349,7512,1,0,1:0:0:0:
149,231,7692,1,0,1:0:0:0:
339,295,7873,1,0,1:0:0:0:
124,344,8054,1,0,1:0:0:0:
94,330,8144,1,0,1:0:0:0:
62,323,8234,1,0,1:0:0:0:
29,328,8325,1,0,1:0:0:0:
0,342,8415,6,2,L|-3:367,6,18,2|2|2|2|2|2|2,1:2|1:2|1:2|1:2|1:2|1:2|1:2,1:2:0:0:
54,244,8777,6,0,B|60:188|60:188|43:131|43:131|48:62,1,180,4|8,3:1|1:3,0:0:0:0:
215,94,9319,1,4,3:0:0:0:
119,123,9500,2,0,L|128:15,1,90,2|4,0:0|3:0,0:0:0:0:
309,108,9861,1,8,1:3:0:0:
190,184,10042,1,0,0:0:0:0:
269,29,10222,6,0,P|334:21|401:112,1,180,4|8,3:0|1:3,0:0:0:0:
269,217,10765,1,4,3:0:0:0:
309,108,10945,1,2,0:0:0:0:
402,202,11126,2,0,P|408:256|394:302,2,90,4|8|0,3:0|1:3|0:0,0:0:0:0:
303,305,11668,6,0,P|241:338|119:276,1,180,4|8,3:0|1:3,0:0:0:0:
215,164,12210,2,0,P|227:224|213:270,1,90,4|2,3:0|0:0,0:0:0:0:
122,215,12572,1,4,3:0:0:0:
322,160,12753,1,8,1:3:0:0:
106,228,12933,1,0,0:0:0:0:
226,149,13114,6,0,L|232:42,1,90,4|0,3:0|0:0,0:0:0:0:
118,14,13475,2,0,L|123:103,1,90,8|4,1:3|3:0,0:0:0:0:
106,228,13837,2,0,P|55:244|-6:229,2,90,2|4|8,0:0|3:0|1:3,0:0:0:0:
205,143,14379,1,0,0:0:0:0:
292,262,14560,6,0,B|336:286|385:265|385:265|437:242|503:284,1,180,4|8,3:0|1:3,0:0:0:0:
426,336,15102,1,4,3:0:0:0:
340,195,15283,2,0,P|324:148|353:84,1,90,2|4,0:0|3:0,0:0:0:0:
472,99,15644,2,0,P|439:136|369:143,1,90,8|0,1:3|0:0,0:0:0:0:
231,80,16006,6,0,P|145:51|46:83,1,180,4|8,3:0|1:3,0:0:0:0:
20,183,16548,1,4,3:0:0:0:
83,245,16728,2,0,P|105:192|91:136,1,90,2|4,0:0|3:0,0:0:0:0:
13,301,17090,1,8,1:3:0:0:
13,301,17271,1,0,0:0:0:0:
175,333,17451,5,4,3:0:0:0:
83,245,17632,1,0,0:0:0:0:
78,381,17813,1,8,1:3:0:0:
181,230,17993,1,4,3:0:0:0:
327,358,18174,5,2,0:0:0:0:
282,219,18355,1,4,3:0:0:0:
175,333,18536,1,8,1:3:0:0:
367,268,18716,1,0,0:0:0:0:
216,149,18897,5,4,3:0:0:0:
327,358,19078,1,0,0:0:0:0:
366,174,19259,2,0,L|377:73,1,90,8|4,1:3|3:0,0:0:0:0:
154,38,19620,1,2,0:0:0:0:
216,149,19801,1,4,3:0:0:0:
269,34,19981,1,8,1:3:0:0:
100,139,20162,1,4,0:0:0:0:
226,260,20343,5,4,3:1:0:0:
226,260,20704,2,0,L|232:138,1,90,2|4,1:2|3:0,1:0:0:0:
120,229,21066,2,0,L|124:318,1,90,2|4,0:0|3:0,0:0:0:0:
321,262,21427,2,0,L|325:172,1,90,0|0,1:0|0:0,0:0:0:0:
214,69,21789,6,0,B|165:62|165:62|93:81,2,90,4|0|2,3:0|0:0|1:2,0:0:0:0:
325,172,22331,1,4,3:0:0:0:
453,149,22512,2,2,P|471:88|457:44,1,90,2|4,0:0|3:0,0:0:0:0:
325,172,22873,2,0,P|321:216|338:257,1,90,0|0,1:0|0:0,0:0:0:0:
461,346,23234,5,4,3:0:0:0:
461,346,23596,2,0,L|354:335,1,90,2|4,1:2|3:0,0:0:0:0:
268,261,23957,2,0,L|178:270,1,90,2|4,0:0|3:0,0:0:0:0:
89,359,24319,2,0,L|0:349,1,90,0|0,1:0|0:0,0:0:0:0:
102,186,24680,6,0,B|109:235|109:235|96:304,2,90,4|0|2,3:0|0:0|1:2,0:0:0:0:
68,82,25222,1,4,3:0:0:0:
198,154,25403,2,0,P|258:162|307:142,1,90,2|4,0:0|3:0,0:0:0:0:
286,5,25765,2,0,P|249:52|241:105,1,90,0|0,1:0|0:0,0:0:0:0:
299,249,26126,5,4,3:0:0:0:
299,249,26487,2,0,L|418:240,1,90,2|4,1:2|3:0,0:0:0:0:
277,346,26849,2,0,L|187:339,1,90,2|4,0:0|3:0,0:0:0:0:
289,168,27210,2,0,L|378:161,1,90,0|0,1:0|0:0,0:0:0:0:
481,283,27572,6,0,B|496:329|496:329|488:388,2,90,4|0|2,3:0|0:0|1:2,0:0:0:0:
388,242,28114,1,4,3:0:0:0:
277,346,28295,2,0,P|220:357|160:331,1,90,2|4,0:0|3:0,0:0:0:0:
78,270,28656,2,0,P|135:281|195:255,1,90,0|0,1:0|0:0,0:0:0:0:
252,152,29018,5,4,3:0:0:0:
252,152,29379,1,2,1:2:0:0:
78,177,29560,1,4,3:0:0:0:
136,34,29740,1,2,0:0:0:0:
164,163,29921,1,4,3:0:0:0:
240,26,30102,1,2,1:2:0:0:
213,231,30283,1,0,0:0:0:0:
380,139,30463,5,4,3:0:0:0:
380,139,30825,1,2,1:2:0:0:
426,310,31006,1,4,3:0:0:0:
457,109,31186,1,2,0:0:0:0:
338,336,31367,1,4,3:0:0:0:
294,122,31548,1,2,1:2:0:0:
485,213,31728,1,0,0:0:0:0:
252,309,31909,6,0,P|199:318|137:301,1,90,4|0,1:0|0:0,0:0:0:0:
110,197,32271,1,2,1:2:0:0:
52,348,32451,1,4,3:0:0:0:
207,240,32632,2,0,P|212:195|203:151,1,90,2|4,0:0|3:0,0:0:0:0:
41,72,32993,2,0,P|76:99|119:113,1,90,0|0,1:0|0:0,0:0:0:0:
288,64,33355,6,0,B|337:54|337:54|403:64,2,90,4|0|2,3:0|0:0|1:2,0:0:0:0:
203,151,33897,1,4,3:0:0:0:
310,189,34078,2,0,P|324:242|309:290,1,90,2|4,0:0|3:0,0:0:0:0:
200,326,34439,2,0,P|192:281|206:239,1,90,0|0,1:0|0:0,0:0:0:0:
327,172,34801,6,0,L|431:176,1,90,4|0,3:0|0:0,0:0:0:0:
289,329,35162,2,0,L|185:325,1,90,2|4,1:2|3:0,0:0:0:0:
49,202,35524,2,0,L|153:206,1,90,2|4,0:0|3:0,0:0:0:0:
280,250,35885,1,2,1:2:0:0:
104,316,36066,1,0,0:0:0:0:
84,118,36247,6,0,B|80:68|80:68|94:4,2,90,4|0|0,3:0|0:0|1:0,0:0:0:0:
150,222,36789,1,4,3:0:0:0:
241,95,36969,2,0,B|288:89|288:89|357:102,1,90,2|4,0:0|3:0,0:0:0:0:
336,257,37331,2,0,B|307:219|307:219|284:153,1,90,0|0,1:0|0:0,0:0:0:0:
428,93,37692,6,0,B|409:136|409:136|363:189,1,90,4|0,3:0|0:0,0:0:0:0:
225,242,38054,1,0,1:0:0:0:
329,96,38234,1,4,3:0:0:0:
428,247,38415,2,0,L|416:349,1,90,2|4,0:0|3:0,0:0:0:0:
232,371,38777,1,0,1:0:0:0:
336,257,38957,1,4,0:0:0:0:
141,186,39138,5,0,1:0:0:0:
208,141,39319,1,0,0:0:0:0:
213,222,39500,1,0,0:0:0:0:
141,186,39680,1,0,0:0:0:0:
228,66,39861,2,0,P|268:88|285:123,2,53.9999983520508,2|0|0,0:0|0:0|0:0,0:0:0:0:
67,183,40403,1,0,0:0:0:0:
261,283,40584,5,0,0:0:0:0:
261,283,41307,6,0,B|408:320|408:320|386:182|386:182|325:232,1,360,14|0,1:0|0:0,0:0:0:0:
