osu file format v14

[General]
AudioFilename: audio.mp3
AudioLeadIn: 0
PreviewTime: 2903
Countdown: 0
SampleSet: Soft
StackLeniency: 0.7
Mode: 0
LetterboxInBreaks: 0
WidescreenStoryboard: 0

[Editor]
Bookmarks: 17451,29018,39138,39319,39500,39680,39861,40042,40222,40403,40584
DistanceSpacing: 0.9
BeatDivisor: 4
GridSize: 4
TimelineZoom: 1

[Metadata]
Title:Gravity Falls Theme Song- 16 Bit Mix
TitleUnicode:Gravity Falls Theme Song- 16 Bit Mix
Artist:Cass2
ArtistUnicode:Cass2
Creator:Venix
Version:A r M i N's Insane
Source:
Tags:Brad Breeck bradbreeck Disney Cartoon Pachiru Krfawy Asserin A_r_M_i_N Armin Alphabet ReFaller
BeatmapID:1451992
BeatmapSetID:664315

[Difficulty]
HPDrainRate:6.5
CircleSize:5
OverallDifficulty:8
ApproachRate:9
SliderMultiplier:1.7
SliderTickRate:1

[Events]
//Background and Video events
0,0,"wojtek ma malego.jpg",0,0
//Break Periods
//Storyboard Layer 0 (Background)
//Storyboard Layer 1 (Fail)
//Storyboard Layer 2 (Pass)
//Storyboard Layer 3 (Foreground)
//Storyboard Sound Samples

[TimingPoints]
2994,361.44578313253,4,2,0,40,1,0
7331,-100,4,2,0,30,0,0
7692,-100,4,2,0,22,0,0
8054,-100,4,2,0,16,0,0
8777,-100,4,2,0,40,0,0
19620,-100,4,2,0,30,0,0
20253,-100,4,2,0,5,0,0
20343,-90.9090909090909,4,2,0,40,0,1
31909,-100,4,2,0,40,0,0
38957,-100,4,2,0,25,0,0
39138,-133.333333333333,4,2,0,25,0,0
41307,-400,4,2,0,25,0,0
41397,-400,4,2,0,5,0,0

[Colours]
Combo1 : 230,110,125
Combo2 : 100,245,245
Combo3 : 155,245,135
SliderBorder : 255,255,255
SliderTrackOverride : 0,0,0

[HitObjects]
80,65,2994,6,0,L|71:151,1,85,8|0,0:0|0:0,0:0:0:0:
191,121,3355,2,0,L|200:207,1,85,2|8,0:0|0:0,0:0:0:0:
318,176,3716,2,0,L|309:260,1,85
429,232,4078,2,0,L|438:318,1,85,8|0,0:0|0:0,0:0:0:0:
494,153,4439,6,0,P|453:132|409:132,1,85,8|0,0:0|0:0,0:0:0:0:
309,260,4801,2,0,P|350:281|394:281,1,85,2|8,0:0|0:0,0:0:0:0:
318,176,5162,2,0,P|277:155|233:155,1,85
133,283,5524,2,0,P|174:304|218:304,1,85,8|0,0:0|0:0,0:0:0:0:
238,153,5885,6,0,L|229:68,1,85,8|0,0:0|0:0,0:0:0:0:
82,121,6247,2,0,L|73:205,1,85,2|8,0:0|0:0,0:0:0:0:
212,305,6608,2,0,L|203:220,1,85,8|0,0:0|0:0,0:0:0:0:
56,273,6969,2,0,L|47:357,1,85,8|0,0:0|0:0,0:0:0:0:
203,220,7331,5,0,1:0:0:0:
287,276,7512,1,0,1:0:0:0:
343,191,7692,1,0,1:0:0:0:
427,247,7873,1,0,1:0:0:0:
483,162,8054,1,0,1:0:0:0:
479,132,8144,1,0,1:0:0:0:
476,102,8234,1,0,1:0:0:0:
473,73,8325,1,0,1:0:0:0:
470,43,8415,6,2,L|474:23,6,21.25,2|2|2|2|2|2|2,1:2|1:2|1:2|1:2|1:2|1:2|1:2,1:2:0:0:
405,128,8777,6,0,B|346:135|346:135|298:119|298:119|238:127,1,170,4|8,3:1|1:3,0:0:0:0:
291,215,9319,1,4,3:0:0:0:
356,41,9500,2,0,L|441:31,1,85,0|4,0:0|3:0,0:0:0:0:
456,217,9861,1,8,1:3:0:0:
405,128,10042,1,0,0:0:0:0:
316,310,10222,6,0,P|252:305|194:222,1,170,4|8,3:0|1:3,0:0:0:0:
292,50,10765,2,0,B|322:131|258:131|290:215,1,170,4|4,3:0|3:0,0:0:0:0:
386,354,11307,2,0,L|395:270,1,85,8|0,1:3|0:0,0:0:0:0:
458,48,11668,6,0,B|398:40|398:40|350:56|350:56|291:49,1,170,4|8,3:0|1:3,0:0:0:0:
124,213,12210,2,0,B|184:205|184:205|232:221|232:221|291:214,1,170,2|4,0:0|3:0,0:0:0:0:
479,278,12753,2,0,L|395:269,1,85,8|0,1:3|0:0,0:0:0:0:
237,356,13114,6,0,P|294:296|289:214,1,170,4|8,3:0|1:3,0:0:0:0:
199,261,13656,1,4,3:0:0:0:
280,129,13837,2,0,L|289:213,1,85,0|4,0:0|3:0,0:0:0:0:
93,293,14198,2,0,L|102:209,1,85,8|0,1:3|0:0,0:0:0:0:
237,356,14560,6,0,B|318:386|318:322|402:354,1,170,4|8,3:0|1:3,0:0:0:0:
454,212,15102,2,0,P|397:271|401:354,1,170,4|4,3:0|3:0,0:0:0:0:
492,307,15644,1,8,1:3:0:0:
358,154,15825,1,0,0:0:0:0:
237,356,16006,6,0,B|230:297|230:297|246:249|246:249|238:189,1,170,4|8,3:0|1:3,0:0:0:0:
150,241,16548,1,4,3:0:0:0:
324,305,16728,2,0,L|492:286,1,170,2|8,0:0|1:3,0:0:0:0:
439,198,17271,1,0,0:0:0:0:
237,356,17451,6,0,P|222:303|281:212,1,170,4|8,3:0|1:3,0:0:0:0:
324,305,17993,1,4,3:0:0:0:
126,348,18174,2,0,B|95:266|159:266|127:182,1,170,2|8,0:0|1:3,0:0:0:0:
55,110,18716,1,0,0:0:0:0:
245,48,18897,6,0,B|305:40|305:40|353:56|353:56|412:49,1,170,4|8,3:0|1:3,0:0:0:0:
507,13,19439,1,4,3:0:0:0:
386,206,19620,2,2,P|396:257|454:159,1,297.5,4|0,0:0|0:0,0:0:0:0:
383,125,20343,6,0,L|290:134,1,93.5000028533936,4|0,3:1|0:0,0:0:0:0:
186,256,20704,1,2,1:2:0:0:
287,238,20885,1,4,3:0:0:0:
222,54,21066,1,2,0:0:0:0:
204,155,21247,1,4,3:0:0:0:
401,226,21427,1,0,1:0:0:0:
383,125,21608,1,0,0:0:0:0:
287,238,21789,6,0,L|277:330,1,93.5000028533936,4|0,3:0|0:0,0:0:0:0:
492,283,22150,2,0,L|482:190,1,93.5000028533936,2|4,1:2|3:0,0:0:0:0:
296,69,22512,2,0,L|286:161,1,93.5000028533936,2|4,0:0|3:0,0:0:0:0:
501,114,22873,2,0,L|491:21,1,93.5000028533936,0|0,1:0|0:0,0:0:0:0:
381,199,23234,6,0,L|371:291,1,93.5000028533936,4|0,3:0|0:0,0:0:0:0:
213,334,23596,1,2,1:2:0:0:
274,251,23777,1,4,3:0:0:0:
445,328,23957,1,2,0:0:0:0:
352,372,24138,1,4,3:0:0:0:
288,155,24319,1,0,1:0:0:0:
381,199,24500,1,0,0:0:0:0:
213,334,24680,6,0,P|166:331|126:309,1,93.5000028533936,4|0,3:0|0:0,0:0:0:0:
98,131,25042,2,0,P|144:133|184:155,1,93.5000028533936,2|4,1:2|3:0,0:0:0:0:
361,275,25403,2,0,P|314:272|274:250,1,93.5000028533936,2|4,0:0|3:0,0:0:0:0:
246,72,25765,2,0,P|292:74|332:96,1,93.5000028533936,0|0,1:0|0:0,0:0:0:0:
175,248,26126,6,0,L|184:155,1,93.5000028533936,4|0,3:0|0:0,0:0:0:0:
332,96,26487,1,2,1:2:0:0:
268,176,26668,1,4,3:0:0:0:
141,28,26849,1,2,0:0:0:0:
231,79,27030,1,4,3:0:0:0:
204,256,27210,1,4,3:0:0:0:
184,154,27391,1,2,0:0:0:0:
347,280,27572,6,0,B|340:327|340:327|346:372,1,93.5000028533936,4|0,3:0|0:0,0:0:0:0:
397,176,27933,2,0,B|403:130|403:130|396:83,1,93.5000028533936,2|4,1:2|3:0,0:0:0:0:
239,244,28295,2,0,B|232:291|232:291|238:336,1,93.5000028533936,2|4,0:0|3:0,0:0:0:0:
289,140,28656,2,0,B|295:94|295:94|288:47,1,93.5000028533936,0|0,1:0|0:0,0:0:0:0:
95,145,29018,6,0,L|188:152,1,93.5000028533936,4|0,3:0|0:0,0:0:0:0:
337,258,29379,1,2,1:2:0:0:
289,140,29560,1,4,3:0:0:0:
95,145,29740,1,2,0:0:0:0:
143,27,29921,1,4,3:0:0:0:
241,258,30102,1,2,1:2:0:0:
289,140,30283,1,0,0:0:0:0:
106,288,30463,6,0,L|115:382,1,93.5000028533936,4|0,3:0|0:0,0:0:0:0:
289,302,30825,1,2,1:2:0:0:
195,124,31006,1,4,3:0:0:0:
188,317,31186,1,2,0:0:0:0:
391,130,31367,1,4,3:0:0:0:
128,47,31548,1,2,1:2:0:0:
226,222,31728,1,0,0:0:0:0:
357,15,31909,6,0,L|449:24,1,85,4|0,1:0|0:0,0:0:0:0:
477,184,32271,1,2,1:2:0:0:
391,130,32451,1,4,3:0:0:0:
296,280,32632,1,2,0:0:0:0:
387,232,32813,1,4,3:0:0:0:
320,57,32993,1,0,1:0:0:0:
293,156,33174,1,0,0:0:0:0:
477,184,33355,6,0,L|467:90,1,85,4|0,3:0|0:0,0:0:0:0:
375,232,33716,2,0,L|365:325,1,85,2|4,1:2|3:0,0:0:0:0:
293,156,34078,2,0,L|283:62,1,85,2|4,0:0|3:0,0:0:0:0:
191,204,34439,2,0,L|181:297,1,85,0|0,1:0|0:0,0:0:0:0:
365,316,34801,6,0,L|271:325,1,85,4|0,3:0|0:0,0:0:0:0:
374,167,35162,1,2,1:2:0:0:
434,250,35343,1,4,3:0:0:0:
273,156,35524,1,2,0:0:0:0:
333,73,35705,1,4,3:0:0:0:
314,250,35885,1,2,1:2:0:0:
211,237,36066,1,0,0:0:0:0:
333,73,36247,6,0,L|511:90,1,170,4|0,3:0|1:0,0:0:0:0:
454,169,36789,1,4,3:0:0:0:
237,37,36969,2,0,B|207:118|271:118|239:202,1,170,2|0,0:0|1:0,0:0:0:0:
172,268,37512,1,0,0:0:0:0:
408,330,37692,6,0,B|349:323|349:323|301:339|301:339|241:331,1,170,4|0,3:0|1:0,0:0:0:0:
172,268,38234,1,4,3:0:0:0:
392,161,38415,2,0,L|409:339,1,170,2|0,0:0|1:0,0:0:0:0:
491,373,38957,1,4,0:0:0:0:
242,329,39138,6,0,B|155:328|55:376|55:376|104:296|112:186|112:186|140:241|199:277,1,510.000019454957,0|0,1:0|0:0,0:0:0:0:
190,271,41307,6,0,P|195:248|232:201,1,85,14|0,1:0|0:0,0:0:0:0:
