osu file format v14

[General]
AudioFilename: audio.mp3
AudioLeadIn: 0
PreviewTime: 2903
Countdown: 0
SampleSet: Soft
StackLeniency: 0.7
Mode: 0
LetterboxInBreaks: 0
WidescreenStoryboard: 0

[Editor]
Bookmarks: 17451,29018,39138,39319,39500,39680,39861,40042,40222,40403,40584
DistanceSpacing: 1.27
BeatDivisor: 4
GridSize: 8
TimelineZoom: 1

[Metadata]
Title:Gravity Falls Theme Song- 16 Bit Mix
TitleUnicode:Gravity Falls Theme Song- 16 Bit Mix
Artist:Cass2
ArtistUnicode:Cass2
Creator:Venix
Version:Expert
Source:
Tags:Brad Breeck bradbreeck Disney Cartoon Pachiru Krfawy Asserin A_r_M_i_N Armin Alphabet ReFaller
BeatmapID:1405981
BeatmapSetID:664315

[Difficulty]
HPDrainRate:7
CircleSize:4.5
OverallDifficulty:9
ApproachRate:9.2
SliderMultiplier:1.8
SliderTickRate:1

[Events]
//Background and Video events
0,0,"wojtek ma malego.jpg",0,0
//Break Periods
//Storyboard Layer 0 (Background)
//Storyboard Layer 1 (Fail)
//Storyboard Layer 2 (Pass)
//Storyboard Layer 3 (Foreground)
//Storyboard Sound Samples

[TimingPoints]
2994,361.44578313253,4,2,0,40,1,0
7331,-100,4,2,0,30,0,0
7692,-100,4,2,0,22,0,0
8054,-100,4,2,0,15,0,0
8777,-100,4,2,0,40,0,0
19801,-100,4,2,0,30,0,0
19981,-100,4,2,0,40,0,0
20162,-100,4,2,0,30,0,0
20343,-90.9090909090909,4,2,0,40,0,1
31909,-90.9090909090909,4,2,0,40,0,0
38957,-90.9090909090909,4,2,0,25,0,0
41307,-66.6666666666667,4,2,0,25,0,0
41668,-66.6666666666667,4,2,0,5,0,0

[Colours]
Combo1 : 230,110,125
Combo2 : 100,245,245
Combo3 : 155,245,135
SliderBorder : 255,255,255
SliderTrackOverride : 0,0,0

[HitObjects]
256,192,2994,5,8,0:0:0:0:
180,263,3174,2,0,P|139:264|87:238,2,90,2|0|8,0:0|0:0|0:0,0:0:0:0:
256,192,3717,5,2,0:0:0:0:
333,122,3897,2,0,P|373:120|425:146,2,90,0|8|0,0:0|0:0|0:0,0:0:0:0:
256,192,4439,5,8,0:0:0:0:
357,220,4620,2,0,L|378:309,2,90,2|0|8,0:0|0:0|0:0,0:0:0:0:
256,192,5162,5,2,0:0:0:0:
155,164,5343,2,0,L|134:75,2,90,0|8|0,0:0|0:0|0:0,0:0:0:0:
256,192,5885,5,8,0:0:0:0:
357,220,6066,2,0,B|402:229|402:229|468:217,2,90,2|0|8,0:0|0:0|0:0,0:0:0:0:
256,192,6608,5,2,0:0:0:0:
155,164,6789,2,0,B|110:155|110:155|44:167,2,90,0|8|0,0:0|0:0|0:0,0:0:0:0:
309,342,7331,5,0,1:0:0:0:
223,117,7512,1,0,1:0:0:0:
120,296,7692,5,0,1:0:0:0:
405,156,7873,1,0,1:0:0:0:
176,50,8054,5,0,1:0:0:0:
155,73,8144,1,0,1:0:0:0:
144,103,8234,1,0,1:0:0:0:
144,134,8325,1,0,1:0:0:0:
155,164,8415,2,2,L|174:190,6,22.5,2|2|2|2|2|2|2,1:2|1:2|1:2|1:2|1:2|1:2|1:2,1:2:0:0:
300,35,8777,6,0,P|304:115|224:118,1,180,4|8,3:1|1:3,0:0:0:0:
34,0,9319,1,4,3:0:0:0:
62,244,9500,1,2,0:0:0:0:
217,39,9680,1,4,3:0:0:0:
24,174,9861,2,0,P|10:131|19:87,1,90,8|0,1:3|0:0,0:0:0:0:
222,116,10222,6,0,P|225:170|134:253,1,180,4|8,3:0|1:3,0:0:0:0:
91,131,10765,1,4,3:0:0:0:
280,280,10945,2,0,L|374:275,1,90,2|4,0:0|3:0,0:0:0:0:
311,120,11307,2,0,L|221:115,1,90,8|0,1:3|0:0,0:0:0:0:
416,40,11668,6,0,B|440:128|390:127|412:217,1,180,4|8,3:0|1:3,0:0:0:0:
221,115,12210,2,0,B|197:91|197:69|197:69|264:98|321:88,1,180,2|4,0:0|3:0,0:0:0:0:
243,293,12753,1,8,1:3:0:0:
165,3,12933,1,0,0:0:0:0:
139,251,13114,6,0,P|211:201|221:115,1,180,4|8,3:0|1:3,0:0:0:0:
67,10,13656,1,8,3:0:0:0:
4,121,13837,2,0,P|47:135|92:130,1,90,2|4,0:0|3:0,0:0:0:0:
185,35,14198,2,0,P|229:30|271:44,1,90,8|0,1:3|0:0,0:0:0:0:
233,252,14560,6,0,P|185:212|222:113,1,180,4|8,3:0|1:3,0:0:0:0:
367,63,15102,1,4,3:0:0:0:
343,199,15283,2,0,L|253:179,1,90,2|4,0:0|3:0,0:0:0:0:
376,88,15644,1,8,3:0:0:0:
380,334,15825,1,0,0:0:0:0:
144,268,16006,6,0,B|233:297|233:297|329:276,1,180,4|8,3:0|1:3,0:0:0:0:
386,111,16548,1,4,3:0:0:0:
229,28,16728,2,0,P|216:69|220:114,1,90,2|4,0:0|3:0,0:0:0:0:
337,195,17090,1,8,1:3:0:0:
310,85,17271,1,0,0:0:0:0:
215,232,17451,5,4,3:0:0:0:
154,63,17632,1,0,0:0:0:0:
290,264,17813,1,8,1:3:0:0:
82,168,17993,1,4,3:0:0:0:
310,85,18174,5,2,0:0:0:0:
228,302,18355,1,4,3:0:0:0:
154,63,18536,1,8,1:3:0:0:
337,195,18716,1,0,0:0:0:0:
84,92,18897,5,4,3:0:0:0:
382,134,19078,1,0,0:0:0:0:
128,269,19259,5,8,1:3:0:0:
228,35,19439,1,4,3:0:0:0:
412,203,19620,5,2,0:0:0:0:
71,185,19801,1,4,0:0:0:0:
368,260,19981,5,8,1:3:0:0:
228,35,20162,1,4,0:0:0:0:
178,364,20343,5,4,3:1:0:0:
178,364,20704,2,0,L|170:248,1,99.0000030212403,2|4,1:2|3:0,0:0:0:0:
359,159,21066,2,0,L|352:257,1,99.0000030212403,2|4,0:0|3:0,0:0:0:0:
131,198,21427,2,0,P|194:188|235:223,1,99.0000030212403,0|0,1:0|0:0,0:0:0:0:
350,363,21789,5,4,3:0:0:0:
243,116,21969,1,0,0:0:0:0:
225,369,22150,5,2,1:2:0:0:
334,82,22331,1,4,3:0:0:0:
442,265,22512,6,0,P|393:273|346:260,1,99.0000030212403,2|4,0:0|3:0,0:0:0:0:
499,116,22873,2,0,P|511:163|503:211,1,99.0000030212403,0|0,1:0|0:0,0:0:0:0:
334,82,23234,5,4,3:0:0:0:
334,82,23596,2,0,P|284:69|227:83,1,99.0000030212403,2|4,1:2|3:0,0:0:0:0:
88,183,23957,2,0,P|138:196|195:182,1,99.0000030212403,2|4,0:0|3:0,0:0:0:0:
137,22,24319,2,0,L|139:123,1,99.0000030212403,0|0,1:0|0:0,0:0:0:0:
154,351,24680,5,4,3:0:0:0:
243,144,24861,1,0,0:0:0:0:
376,341,25042,2,0,L|397:241,1,99.0000030212403,2|4,1:2|3:0,0:0:0:0:
218,145,25403,2,0,L|294:213,1,99.0000030212403,2|4,0:0|3:0,0:0:0:0:
469,107,25765,2,0,L|371:138,1,99.0000030212403,0|0,1:0|0:0,0:0:0:0:
376,341,26126,5,4,3:0:0:0:
376,341,26487,2,0,P|327:349|280:336,1,99.0000030212403,2|4,1:2|3:0,0:0:0:0:
247,125,26849,2,0,P|278:162|291:210,1,99.0000030212403,2|4,0:0|3:0,0:0:0:0:
127,345,27210,2,0,P|143:298|178:264,1,99.0000030212403,0|0,1:0|0:0,0:0:0:0:
436,288,27572,5,4,3:0:0:0:
179,168,27753,1,0,0:0:0:0:
376,341,27933,5,2,1:2:0:0:
229,85,28114,1,4,3:0:0:0:
301,365,28295,6,0,L|288:263,1,99.0000030212403,2|4,0:0|3:0,0:0:0:0:
394,104,28656,2,0,L|381:202,1,99.0000030212403,0|0,1:0|0:0,0:0:0:0:
185,115,29018,5,4,3:0:0:0:
185,115,29379,1,2,1:2:0:0:
97,355,29560,1,4,3:0:0:0:
59,121,29740,5,2,0:0:0:0:
187,373,29921,1,4,3:0:0:0:
0,184,30102,5,2,1:2:0:0:
251,321,30283,1,0,0:0:0:0:
121,63,30463,5,4,3:0:0:0:
121,63,30825,1,2,1:2:0:0:
261,346,31006,1,4,3:0:0:0:
432,104,31186,5,2,0:0:0:0:
110,259,31367,1,4,3:0:0:0:
405,238,31548,5,2,1:2:0:0:
62,159,31729,1,0,0:0:0:0:
476,183,31909,5,4,1:0:0:0:
476,183,32271,2,0,P|431:158|379:155,1,99.0000030212403,2|4,1:2|3:0,0:0:0:0:
204,240,32632,2,0,P|248:264|300:267,1,99.0000030212403,2|4,0:0|3:0,0:0:0:0:
403,65,32993,2,0,P|352:72|309:102,1,99.0000030212403,0|0,1:0|0:0,0:0:0:0:
418,336,33355,6,0,L|405:238,2,99.0000030212403,4|0|2,3:0|0:0|1:2,0:0:0:0:
225,220,33897,1,4,3:0:0:0:
42,360,34078,2,0,L|140:347,1,99.0000030212403,2|4,0:0|3:0,0:0:0:0:
302,252,34439,2,0,L|203:239,1,99.0000030212403,0|0,1:0|0:0,0:0:0:0:
15,213,34801,5,4,3:0:0:0:
15,213,35162,1,2,1:2:0:0:
274,123,35343,1,4,3:0:0:0:
14,308,35524,5,2,0:0:0:0:
197,52,35704,1,4,3:0:0:0:
92,355,35885,5,2,1:2:0:0:
108,9,36066,1,0,0:0:0:0:
300,255,36247,6,0,B|184:275|184:275|99:234,1,198.000006042481,4|0,3:0|1:0,0:0:0:0:
16,157,36789,1,4,3:0:0:0:
149,319,36969,2,0,P|192:266|139:156,1,198.000006042481,2|0,0:0|1:0,0:0:0:0:
16,157,37512,1,0,0:0:0:0:
149,319,37692,6,0,P|203:337|263:325,1,99.0000030212403,4|0,3:0|0:0,0:0:0:0:
283,124,38054,1,0,1:0:0:0:
213,229,38234,1,4,3:0:0:0:
353,384,38415,2,0,P|365:328|347:269,1,99.0000030212403,2|4,0:0|3:0,0:0:0:0:
149,319,38777,1,0,1:0:0:0:
213,150,38957,1,4,0:0:0:0:
288,254,39138,5,0,1:0:0:0:
213,229,39319,1,0,0:0:0:0:
213,150,39500,1,0,0:0:0:0:
288,125,39680,1,0,0:0:0:0:
335,190,39861,5,0,0:0:0:0:
377,244,40041,1,0,0:0:0:0:
442,222,40221,1,0,0:0:0:0:
441,152,40403,1,0,0:0:0:0:
375,133,40584,5,0,0:0:0:0:
212,229,41307,6,0,B|109:269|109:269|116:157|116:157|176:195,1,270.000010299683,14|0,1:0|0:0,0:0:0:0:
