osu file format v14

[General]
AudioFilename: audio.mp3
AudioLeadIn: 0
PreviewTime: 20343
Countdown: 0
SampleSet: Soft
StackLeniency: 0.7
Mode: 0
LetterboxInBreaks: 0
WidescreenStoryboard: 0

[Editor]
DistanceSpacing: 1
BeatDivisor: 4
GridSize: 8
TimelineZoom: 2.2

[Metadata]
Title:Gravity Falls Theme Song - 16 Bit Mix
TitleUnicode:Gravity Falls Theme Song - 16 Bit Mix
Artist:Cass2
ArtistUnicode:Cass2
Creator:Alumetri
Version:Normal
Source:
Tags:brad breeck bradbreeck disney cartoon Djulus bite_you_death bite you death byd Marmowka ailv aliv Shmiklak marvollo m_a_r_v_o_l_l_o
BeatmapID:1666068
BeatmapSetID:748072

[Difficulty]
HPDrainRate:2
CircleSize:2.5
OverallDifficulty:4
ApproachRate:5
SliderMultiplier:1.23
SliderTickRate:1

[Events]
//Background and Video events
0,0,"bg.jpg",0,0
//Break Periods
//Storyboard Layer 0 (Background)
//Storyboard Layer 1 (Fail)
//Storyboard Layer 2 (Pass)
//Storyboard Layer 3 (Foreground)
//Storyboard Sound Samples

[TimingPoints]
2994,361.44578313253,4,2,2,40,1,0
2994,-125,4,2,2,40,0,0
7331,-125,4,2,2,50,0,0
8054,-125,4,2,2,50,0,0
8415,-125,4,2,2,60,0,0
8777,-125,4,2,2,60,0,0
10132,-125,4,2,2,60,0,0
10222,-125,4,2,2,60,0,0
12662,-125,4,2,2,60,0,0
12753,-125,4,2,2,60,0,0
13024,-125,4,2,2,5,0,0
13114,-125,4,2,2,60,0,0
15915,-125,4,2,2,60,0,0
16006,-125,4,2,2,60,0,0
19891,-125,4,2,2,5,0,0
19981,-125,4,2,2,60,0,0
20253,-125,4,2,2,5,0,0
20343,-125,4,2,2,45,0,0
20614,-125,4,2,2,5,0,0
20704,-125,4,2,2,70,0,0
30373,-125,4,2,2,5,0,0
30463,-125,4,2,2,70,0,0
31909,-125,4,2,2,45,0,0
32180,-125,4,2,2,5,0,0
32271,-125,4,2,2,70,0,0
36518,-125,4,2,2,5,0,0
36608,-125,4,2,2,70,0,0
37240,-125,4,2,2,5,0,0
37331,-125,4,2,2,70,0,0
38686,-125,4,2,2,5,0,0
38777,-125,4,2,2,70,0,0
39048,-125,4,2,2,5,0,0
39138,-125,4,2,2,40,0,0
41307,-125,4,2,2,40,0,0
41668,-125,4,2,2,5,0,0
42030,-125,4,2,2,5,0,0

[Colours]
Combo1 : 194,251,132
Combo2 : 128,64,0
Combo3 : 128,128,128
Combo4 : 242,24,57

[HitObjects]
145,97,2994,6,0,L|248:75,1,98.4,2|0,0:0|0:0,0:0:0:0:
332,112,3716,1,0,0:0:0:0:
425,80,4078,1,2,0:0:0:0:
410,177,4439,2,0,P|358:210|306:211,1,98.4,2|0,0:0|0:0,0:0:0:0:
225,194,5162,1,0,0:0:0:0:
126,198,5524,1,2,0:0:0:0:
50,260,5885,6,0,P|93:292|144:295,1,98.4,2|0,0:0|0:0,0:0:0:0:
223,341,6608,2,0,L|336:348,1,98.4,0|2,0:0|0:0,0:0:0:0:
419,337,7331,1,10,0:0:0:0:
436,240,7692,1,8,0:0:0:0:
483,153,8054,2,0,P|434:141|372:162,1,98.4,8|0,0:0|3:0,0:0:0:0:
334,69,8777,6,0,P|294:123|303:207,2,147.6,6|0|10,3:2|3:0|0:0,0:0:0:0:
237,51,10222,2,0,P|213:98|206:155,1,98.4,2|8,3:2|0:0,0:0:0:0:
159,229,10945,1,0,0:0:0:0:
237,288,11307,1,8,0:0:0:0:
297,365,11668,6,0,P|332:264|304:217,2,147.6,2|2|10,3:2|3:2|0:0,0:0:0:0:
237,288,13114,2,0,L|132:256,1,98.4,2|8,3:2|0:0,0:0:0:0:
51,221,13837,2,0,P|82:179|138:160,1,98.4,0|8,0:0|0:0,0:0:0:0:
207,110,14560,6,0,L|352:54,2,147.6,2|0|10,3:2|3:0|0:0,0:0:0:0:
109,94,16006,2,0,L|1:140,1,98.4,2|8,3:2|0:0,0:0:0:0:
58,222,16728,2,0,L|148:183,1,98.4,2|8,0:2|0:0,0:0:0:0:
235,227,17451,6,0,B|291:251|331:227|331:227|379:203|435:227,2,196.8,2|2|2,3:2|0:0|3:2,0:0:0:0:
285,142,19259,1,8,0:0:0:0:
368,89,19620,2,0,P|273:45|201:91,1,196.8,2|6,0:2|3:2,0:0:0:0:
133,160,20704,6,0,P|108:121|105:63,2,98.4,10|2|10,0:0|0:0|0:0,0:0:0:0:
172,250,21789,1,2,3:2:0:0:
228,330,22150,1,10,0:2:0:0:
322,302,22512,2,0,L|341:236,2,49.2,2|0|10,0:0|3:0|0:0,0:0:0:0:
410,345,23234,1,0,3:2:0:0:
469,266,23596,6,0,P|499:307|504:364,2,98.4,10|2|10,0:0|0:0|0:0,0:0:0:0:
382,218,24680,1,2,3:2:0:0:
284,231,25042,1,10,0:0:0:0:
206,171,25403,2,0,L|209:113,2,49.2,2|0|10,0:0|3:0|0:0,0:0:0:0:
121,221,26126,1,0,3:0:0:0:
103,317,26487,6,0,L|-7:307,2,98.4,10|2|10,0:0|0:0|0:0,0:0:0:0:
201,320,27572,1,2,3:2:0:0:
233,227,27933,1,10,0:0:0:0:
300,298,28295,2,0,L|315:349,2,49.2,2|0|10,0:0|3:0|0:0,0:0:0:0:
364,223,29018,1,0,3:2:0:0:
347,126,29379,6,0,L|280:126,1,49.2,10|0,0:0|3:0,0:0:0:0:
254,101,29740,2,0,L|188:101,1,49.2,2|0,0:0|3:0,0:0:0:0:
161,124,30102,1,10,0:0:0:0:
70,83,30464,1,0,3:2:0:0:
89,179,30825,6,0,L|122:237,1,49.2,10|0,0:0|3:0,0:0:0:0:
106,270,31186,2,0,L|139:327,1,49.2,2|0,0:0|3:0,0:0:0:0:
178,326,31548,1,10,0:0:0:0:
273,349,31909,1,4,3:2:0:0:
346,283,32271,6,0,P|366:326|363:392,2,98.4,10|2|10,0:0|0:0|0:0,0:0:0:0:
262,230,33355,1,2,3:2:0:0:
333,162,33716,1,10,0:0:0:0:
274,82,34078,1,2,0:0:0:0:
191,28,34439,2,0,L|94:64,1,98.4,10|0,0:0|3:0,0:0:0:0:
39,141,35162,6,0,L|29:249,2,98.4,10|2|10,0:0|0:0|0:0,0:0:0:0:
137,153,36247,2,0,P|201:200|233:315,1,196.8,2|2,3:2|0:0,0:0:0:0:
310,370,37331,1,8,0:0:0:0:
399,328,37692,2,0,B|423:280|399:232|399:232|375:192|399:128,1,196.8,2|2,3:2|0:0,0:0:0:0:
449,55,38777,1,8,0:0:0:0:
495,141,39138,5,2,0:0:0:0:
256,192,39319,12,2,41307,3:2:0:0:
