osu file format v14

[General]
AudioFilename: audio.mp3
AudioLeadIn: 0
PreviewTime: 20343
Countdown: 0
SampleSet: Soft
StackLeniency: 0.7
Mode: 0
LetterboxInBreaks: 0
WidescreenStoryboard: 0

[Editor]
DistanceSpacing: 1.1
BeatDivisor: 4
GridSize: 32
TimelineZoom: 2.2

[Metadata]
Title:Gravity Falls Theme Song - 16 Bit Mix
TitleUnicode:Gravity Falls Theme Song - 16 Bit Mix
Artist:Cass2
ArtistUnicode:Cass2
Creator:Alumetri
Version:Extra
Source:
Tags:brad breeck bradbreeck disney cartoon Djulus bite_you_death bite you death byd Marmowka ailv aliv Shmiklak marvollo m_a_r_v_o_l_l_o
BeatmapID:1666066
BeatmapSetID:748072

[Difficulty]
HPDrainRate:6.2
CircleSize:4.2
OverallDifficulty:8.7
ApproachRate:9.3
SliderMultiplier:2
SliderTickRate:1

[Events]
//Background and Video events
0,0,"bg.jpg",0,0
//Break Periods
//Storyboard Layer 0 (Background)
//Storyboard Layer 1 (Fail)
//Storyboard Layer 2 (Pass)
//Storyboard Layer 3 (Foreground)
//Storyboard Sound Samples

[TimingPoints]
2994,361.44578313253,4,2,2,40,1,0
2994,-100,4,2,2,40,0,0
7331,-100,4,2,2,50,0,0
7692,-100,4,2,2,50,0,0
8054,-133.333333333333,4,2,2,50,0,0
8415,-133.333333333333,4,2,2,60,0,0
8777,-90.0900900900901,4,2,2,60,0,0
10132,-90.0900900900901,4,2,2,5,0,0
10222,-90.0900900900901,4,2,2,60,0,0
12662,-90.0900900900901,4,2,2,60,0,0
12753,-90.0900900900901,4,2,2,60,0,0
13024,-90.0900900900901,4,2,2,5,0,0
13114,-90.0900900900901,4,2,2,60,0,0
15915,-90.0900900900901,4,2,2,5,0,0
16006,-90.0900900900901,4,2,2,60,0,0
19801,-90.0900900900901,4,2,2,60,0,0
19891,-90.0900900900901,4,2,2,5,0,0
19981,-90.0900900900901,4,2,2,60,0,0
20162,-90.0900900900901,4,2,2,60,0,0
20253,-90.0900900900901,4,2,2,5,0,0
20343,-82.6446280991736,4,2,2,45,0,0
20614,-82.6446280991736,4,2,2,5,0,0
20704,-82.6446280991736,4,2,2,70,0,0
30373,-82.6446280991736,4,2,2,5,0,0
30463,-82.6446280991736,4,2,2,70,0,0
31909,-82.6446280991736,4,2,2,45,0,0
32180,-82.6446280991736,4,2,2,5,0,0
32271,-82.6446280991736,4,2,2,70,0,0
36518,-82.6446280991736,4,2,2,5,0,0
36608,-82.6446280991736,4,2,2,70,0,0
37240,-82.6446280991736,4,2,2,5,0,0
37331,-82.6446280991736,4,2,2,70,0,0
38686,-82.6446280991736,4,2,2,5,0,0
38777,-82.6446280991736,4,2,2,70,0,0
38957,-82.6446280991736,4,2,2,70,0,0
39048,-82.6446280991736,4,2,2,5,0,0
39138,-200,4,2,2,40,0,0
41307,-200,4,2,2,40,0,0
41668,-200,4,2,2,5,0,0
42030,-200,4,2,2,5,0,0

[Colours]
Combo1 : 194,251,132
Combo2 : 128,64,0
Combo3 : 128,128,128
Combo4 : 242,24,57

[HitObjects]
158,227,102,5,8,0:1:0:0:
274,89,283,1,0,0:0:0:0:
335,258,463,1,0,0:0:0:0:
153,229,644,5,8,0:1:0:0:
274,84,825,1,0,0:0:0:0:
339,262,1005,1,0,0:0:0:0:
195,141,1186,5,8,0:1:0:0:
242,270,1367,1,0,0:0:0:0:
275,79,1548,5,8,0:1:0:0:
159,217,1729,1,0,0:0:0:0:
98,48,1909,1,0,0:0:0:0:
280,77,2090,5,8,0:1:0:0:
159,222,2271,1,0,0:0:0:0:
94,44,2451,1,0,0:0:0:0:
238,165,2632,5,8,0:1:0:0:
191,36,2813,1,0,0:0:0:0:
103,142,2994,6,0,L|8:177,2,100,2|0|0,0:0|0:0|0:0,0:0:0:0:
127,246,3536,1,2,0:0:0:0:
204,179,3716,1,0,0:0:0:0:
226,286,3897,1,0,0:0:0:0:
335,277,4078,2,0,P|385:271|425:226,1,100,2|0,0:0|0:0,0:0:0:0:
276,112,4439,6,0,P|331:149|343:192,1,100,2|0,0:0|0:0,0:0:0:0:
204,179,4801,2,0,P|180:117|187:70,1,100,0|2,0:0|0:0,0:0:0:0:
263,9,5162,1,0,0:0:0:0:
361,59,5343,1,0,0:0:0:0:
466,28,5524,2,0,L|463:143,1,100,2|0,0:0|0:0,0:0:0:0:
434,289,5885,6,0,P|427:234|385:187,2,100,2|0|0,0:0|0:0|0:0,0:0:0:0:
338,273,6427,1,2,0:0:0:0:
241,261,6608,2,0,P|249:313|285:355,2,100,0|0|2,0:0|0:0|0:0,0:0:0:0:
338,273,7150,1,0,0:0:0:0:
79,198,7331,5,10,0:0:0:0:
244,174,7512,1,8,0:0:0:0:
170,244,7692,1,8,0:0:0:0:
143,111,7873,1,8,0:0:0:0:
10,227,8054,5,8,0:0:0:0:
17,263,8144,1,8,0:0:0:0:
37,294,8234,1,8,0:0:0:0:
68,315,8325,1,8,0:0:0:0:
104,322,8415,2,0,L|124:323,6,18.7500007152558,0|0|0|0|0|0|0,3:0|3:0|3:0|3:0|3:0|3:0|3:0,0:0:0:0:
170,244,8777,6,0,P|229:175|130:116,1,222.000005419922,6|8,3:2|0:0,0:0:0:0:
19,71,9319,1,0,3:0:0:0:
161,177,9500,1,0,0:0:0:0:
12,216,9680,1,0,3:0:0:0:
111,26,9861,2,0,P|196:39|233:109,1,166.500004064941,10|0,0:0|0:0,0:0:0:0:
176,206,10222,6,0,P|261:217|344:114,1,222.000005419922,2|8,3:2|0:0,0:0:0:0:
465,225,10765,1,0,3:0:0:0:
347,97,10945,1,0,0:0:0:0:
476,225,11126,1,0,3:0:0:0:
284,268,11307,1,8,0:0:0:0:
395,88,11487,1,0,0:0:0:0:
381,271,11668,6,0,P|344:345|215:338,1,222.000005419922,2|8,3:2|0:0,0:0:0:0:
320,193,12210,1,2,3:2:0:0:
137,171,12391,2,0,L|128:281,1,111.000002709961,0|0,0:0|3:0,0:0:0:0:
244,156,12753,2,0,L|235:45,1,111.000002709961,10|0,0:0|0:0,0:0:0:0:
129,282,13114,5,2,3:2:0:0:
30,352,13295,1,0,0:0:0:0:
131,274,13475,1,8,0:0:0:0:
205,372,13656,1,0,3:0:0:0:
59,225,13837,1,0,0:0:0:0:
139,125,14018,1,0,3:0:0:0:
206,236,14198,1,8,0:0:0:0:
47,222,14379,1,0,0:0:0:0:
90,41,14560,6,0,P|215:64|233:147,2,222.000005419922,2|8|0,3:2|0:0|0:0,0:0:0:0:
139,125,15463,1,0,3:0:0:0:
291,212,15644,2,0,L|463:184,1,166.500004064941,10|0,0:0|0:0,0:0:0:0:
450,96,16006,6,0,P|393:122|438:273,1,222.000005419922,2|8,3:2|0:0,0:0:0:0:
493,379,16548,1,0,3:0:0:0:
292,278,16728,1,2,0:2:0:0:
389,384,16909,1,0,0:0:0:0:
486,278,17090,1,8,0:0:0:0:
298,359,17271,1,0,0:0:0:0:
231,149,17451,6,0,P|329:169|408:266,1,222.000005419922,2|8,3:2|0:0,0:0:0:0:
389,384,17993,1,0,3:0:0:0:
279,292,18174,2,0,P|197:274|47:306,1,222.000005419922,2|8,0:0|0:0,0:0:0:0:
13,176,18716,1,0,0:0:0:0:
227,102,18897,5,2,3:2:0:0:
94,146,19078,1,0,0:0:0:0:
228,183,19259,1,8,0:0:0:0:
39,78,19439,1,0,3:0:0:0:
126,244,19620,5,2,0:2:0:0:
151,24,19801,1,0,0:0:0:0:
13,176,19981,1,8,0:0:0:0:
259,84,20162,1,0,0:0:0:0:
203,365,20343,5,6,3:2:0:0:
203,365,20704,2,0,L|231:236,1,120.99999658432,10|0,0:0|3:0,0:0:0:0:
435,365,21066,2,0,L|409:246,1,120.99999658432,2|0,0:0|3:0,0:0:0:0:
210,365,21427,2,0,L|236:243,1,120.99999658432,10|0,0:0|0:0,0:0:0:0:
428,88,21789,5,2,3:2:0:0:
268,142,21969,1,0,0:0:0:0:
443,182,22150,1,10,0:2:0:0:
292,56,22331,1,0,3:0:0:0:
328,220,22512,6,0,L|316:347,1,120.99999658432,2|0,0:0|3:0,0:0:0:0:
381,138,22873,2,0,P|343:123|265:144,1,120.99999658432,10|0,0:0|0:0,0:0:0:0:
72,132,23234,1,0,3:2:0:0:
72,132,23596,5,10,0:0:0:0:
207,171,23777,1,0,3:0:0:0:
122,231,23957,1,2,0:0:0:0:
102,58,24138,1,0,3:0:0:0:
45,216,24319,1,10,0:0:0:0:
194,86,24500,1,0,0:0:0:0:
233,281,24680,5,2,3:2:0:0:
16,303,24861,1,0,0:0:0:0:
248,360,25042,1,10,0:0:0:0:
49,224,25223,1,0,3:0:0:0:
244,200,25403,6,0,P|286:220|312:304,1,120.99999658432,2|0,0:0|3:0,0:0:0:0:
201,128,25765,2,0,P|162:172|162:231,1,120.99999658432,10|0,0:0|0:0,0:0:0:0:
262,71,26126,1,0,3:0:0:0:
262,71,26487,5,10,0:0:0:0:
368,137,26668,1,0,3:0:0:0:
270,163,26849,1,2,0:0:0:0:
457,115,27030,1,0,3:0:0:0:
350,53,27210,1,10,0:0:0:0:
443,214,27391,1,0,0:0:0:0:
261,165,27572,5,2,3:2:0:0:
281,321,27753,1,0,0:0:0:0:
281,161,27933,1,10,0:0:0:0:
192,327,28114,1,0,3:0:0:0:
298,158,28295,5,2,0:0:0:0:
357,356,28476,1,0,3:0:0:0:
178,162,28656,1,10,0:0:0:0:
410,287,28837,1,0,0:0:0:0:
126,273,29018,1,0,3:2:0:0:
126,273,29379,5,10,0:0:0:0:
71,47,29560,1,0,3:0:0:0:
244,142,29740,1,2,0:0:0:0:
61,338,29921,1,0,3:0:0:0:
7,195,30102,5,10,0:0:0:0:
261,274,30283,1,0,0:0:0:0:
191,40,30463,1,0,3:2:0:0:
191,40,30825,5,10,0:0:0:0:
472,117,31006,1,0,3:0:0:0:
162,148,31186,5,2,0:0:0:0:
490,29,31367,1,0,3:0:0:0:
99,73,31548,5,10,0:0:0:0:
459,203,31729,1,0,0:0:0:0:
83,271,31909,1,4,3:2:0:0:
83,271,32271,6,0,P|92:336|135:379,1,120.99999658432,10|0,0:0|3:0,0:0:0:0:
129,165,32632,2,0,P|70:152|15:177,1,120.99999658432,2|0,0:0|3:0,0:0:0:0:
209,345,32993,2,0,P|221:286|196:231,1,120.99999658432,10|0,0:0|0:0,0:0:0:0:
244,97,33355,5,2,3:2:0:0:
393,154,33536,1,0,0:0:0:0:
237,173,33716,1,10,0:0:0:0:
449,81,33897,1,0,3:0:0:0:
314,39,34078,5,2,0:0:0:0:
447,215,34259,1,0,3:0:0:0:
244,97,34439,1,10,0:0:0:0:
506,148,34620,1,0,0:0:0:0:
330,349,34801,1,0,3:0:0:0:
120,323,35162,5,10,0:0:0:0:
86,200,35343,1,0,3:0:0:0:
223,322,35524,1,2,0:0:0:0:
29,271,35704,1,0,3:0:0:0:
167,140,35885,1,10,0:0:0:0:
118,331,36066,1,0,0:0:0:0:
90,115,36247,6,0,P|182:60|242:169,1,241.99999316864,2|8,3:2|0:0,0:0:0:0:
223,322,36789,1,0,3:0:0:0:
188,228,36969,2,0,B|239:214|277:240|277:240|336:197|336:197|373:202|434:185,1,241.99999316864,2|8,0:0|0:0,0:0:0:0:
493,121,37512,1,0,0:0:0:0:
400,315,37692,5,2,3:2:0:0:
344,93,37873,1,0,0:0:0:0:
328,289,38054,1,10,0:0:0:0:
425,32,38235,1,0,3:0:0:0:
254,269,38415,5,2,0:0:0:0:
512,51,38596,1,0,0:0:0:0:
400,315,38777,1,8,0:0:0:0:
341,0,38957,1,0,0:0:0:0:
328,289,39138,6,0,L|330:341,3,50,2|2|2|2,0:0|0:0|0:0|0:0,0:0:0:0:
400,315,39861,2,0,L|396:260,3,50,2|2|2|2,0:3|0:0|0:0|0:0,0:0:0:0:
472,337,40584,1,2,0:0:0:0:
472,336,41307,6,0,P|508:250|439:186,1,200,2|0,3:2|0:0,0:0:0:0:
