osu file format v14

[General]
AudioFilename: Overtime.mp3
AudioLeadIn: 0
PreviewTime: 24454
Countdown: 0
SampleSet: Soft
StackLeniency: 0.4
Mode: 0
LetterboxInBreaks: 0
EpilepsyWarning: 1
WidescreenStoryboard: 1

[Editor]
Bookmarks: 105836
DistanceSpacing: 1
BeatDivisor: 8
GridSize: 32
TimelineZoom: 3.599999

[Metadata]
Title:Overtime
TitleUnicode:Overtime
Artist:Cash Cash
ArtistUnicode:Cash Cash
Creator:W h i t e
Version:Extra
Source:
Tags:electronic W_h_i_t_e Gloria Guard Down
BeatmapID:1012155
BeatmapSetID:472143

[Difficulty]
HPDrainRate:6
CircleSize:4.1
OverallDifficulty:9
ApproachRate:9.4
SliderMultiplier:2.4
SliderTickRate:2

[Events]
//Background and Video events
0,0,"bg.jpg",0,0
//Break Periods
2,42548,49689
//Storyboard Layer 0 (Background)
//Storyboard Layer 1 (Fail)
//Storyboard Layer 2 (Pass)
//Storyboard Layer 3 (Foreground)
//Storyboard Sound Samples

[TimingPoints]
244,526.315789473684,4,2,1,30,1,0
244,-125,4,2,1,30,0,0
1033,-125,4,2,2,30,0,0
1099,-125,4,2,1,30,0,0
1559,-125,4,2,2,20,0,0
1625,-125,4,2,1,30,0,0
2086,-83.3333333333333,4,2,2,30,0,0
2151,-83.3333333333333,4,2,1,30,0,0
2349,-125,4,2,1,30,0,0
2612,-125,4,2,2,30,0,0
2875,-125,4,2,1,35,0,0
3138,-125,4,2,2,35,0,0
3204,-125,4,2,1,35,0,0
3401,-83.3333333333333,4,2,1,40,0,0
3665,-83.3333333333333,4,2,2,40,0,0
3730,-125,4,2,1,40,0,0
4191,-125,4,2,2,40,0,0
4257,-125,4,2,1,40,0,0
4454,-125,4,2,1,40,0,0
5243,-125,4,2,2,40,0,0
5309,-125,4,2,1,40,0,0
5770,-125,4,2,2,40,0,0
5836,-125,4,2,1,40,0,0
6033,-125,4,2,1,40,0,0
6822,-100,4,2,2,40,0,0
7086,-100,4,2,1,40,0,0
7217,-125,4,2,1,40,0,0
7349,-83.3333333333333,4,2,2,40,0,0
7415,-83.3333333333333,4,2,1,40,0,0
7612,-125,4,2,1,50,0,0
7678,-125,4,2,1,70,0,0
8662,-100,4,2,4,70,0,0
8730,-100,4,2,1,70,0,0
9454,-100,4,2,2,70,0,0
9520,-100,4,2,1,70,0,0
9980,-100,4,2,2,70,0,0
10046,-100,4,2,1,70,0,0
10507,-83.3333333333333,4,2,2,70,0,0
10572,-83.3333333333333,4,2,1,70,0,0
10770,-100,4,2,1,70,0,0
11033,-100,4,2,2,70,0,0
11165,-100,4,2,1,70,0,0
11559,-100,4,2,2,70,0,0
11625,-100,4,2,1,70,0,0
11822,-83.3333333333333,4,2,1,70,0,0
12086,-83.3333333333333,4,2,2,70,0,0
12151,-83.3333333333333,4,2,1,70,0,0
12612,-83.3333333333333,4,2,2,70,0,0
12678,-83.3333333333333,4,2,1,70,0,0
12875,-100,4,2,1,70,0,0
13665,-100,4,2,2,70,0,0
13730,-100,4,2,1,70,0,0
14191,-100,4,2,2,70,0,0
14322,-100,4,2,1,70,0,0
15243,-100,4,2,2,70,0,0
15309,-100,4,2,1,70,0,0
15770,-100,4,2,2,70,0,0
15836,-100,4,2,1,70,0,0
16033,-83.3333333333333,4,2,1,70,0,0
16296,-83.3333333333333,4,2,2,70,0,0
16362,-83.3333333333333,4,2,1,70,0,0
16822,-83.3333333333333,4,2,2,70,0,0
16888,-83.3333333333333,4,2,1,70,0,0
17086,-100,4,2,4,70,0,0
17151,-100,4,2,1,70,0,0
17875,-100,4,2,2,70,0,0
18007,-100,4,2,1,70,0,0
18401,-100,4,2,2,70,0,0
18467,-100,4,2,1,70,0,0
18928,-83.3333333333333,4,2,2,70,0,0
19191,-100,4,2,1,70,0,0
19454,-100,4,2,2,70,0,0
19520,-100,4,2,1,70,0,0
19980,-100,4,2,2,70,0,0
20046,-100,4,2,1,70,0,0
20243,-83.3333333333333,4,2,1,70,0,0
20507,-83.3333333333333,4,2,2,70,0,0
20572,-83.3333333333333,4,2,1,70,0,0
21033,-83.3333333333333,4,2,2,70,0,0
21099,-83.3333333333333,4,2,1,70,0,0
21296,-100,4,2,1,70,0,0
22086,-100,4,2,2,70,0,0
22151,-100,4,2,1,70,0,0
22612,-100,4,2,2,70,0,0
22678,-100,4,2,1,70,0,0
23665,-100,4,2,2,70,0,0
23730,-100,4,2,1,70,0,0
24191,-100,4,2,2,70,0,0
24257,-100,4,2,1,70,0,0
24454,-100,4,2,1,50,0,0
24980,-100,4,2,1,70,0,0
25507,-83.3333333333333,4,2,1,70,0,1
25770,-83.3333333333333,4,2,2,70,0,1
25836,-83.3333333333333,4,2,1,70,0,1
26296,-83.3333333333333,4,2,2,70,0,1
26362,-83.3333333333333,4,2,1,70,0,1
26822,-83.3333333333333,4,2,2,70,0,1
26888,-83.3333333333333,4,2,1,70,0,1
27349,-83.3333333333333,4,2,5,35,0,1
27415,-83.3333333333333,4,2,1,70,0,1
27875,-83.3333333333333,4,2,2,70,0,1
27941,-83.3333333333333,4,2,1,70,0,1
28401,-83.3333333333333,4,2,2,70,0,1
28467,-83.3333333333333,4,2,1,70,0,1
28928,-83.3333333333333,4,2,2,70,0,1
28993,-83.3333333333333,4,2,1,70,0,1
29454,-83.3333333333333,4,2,2,70,0,1
29520,-83.3333333333333,4,2,1,70,0,1
29980,-83.3333333333333,4,2,2,70,0,1
30046,-83.3333333333333,4,2,1,70,0,1
30507,-83.3333333333333,4,2,2,70,0,1
30572,-83.3333333333333,4,2,1,70,0,1
31033,-83.3333333333333,4,2,2,70,0,1
31099,-83.3333333333333,4,2,1,70,0,1
31559,-83.3333333333333,4,2,2,70,0,1
31757,-83.3333333333333,4,2,1,20,0,1
31822,-83.3333333333333,4,2,1,70,0,1
32086,-83.3333333333333,4,2,2,70,0,1
32151,-83.3333333333333,4,2,1,70,0,1
32612,-83.3333333333333,4,2,2,70,0,1
32678,-83.3333333333333,4,2,1,70,0,1
33138,-83.3333333333333,4,2,2,70,0,1
33204,-83.3333333333333,4,2,1,70,0,1
33401,-83.3333333333333,4,2,1,70,0,0
33665,-83.3333333333333,4,2,2,70,0,0
33730,-83.3333333333333,4,2,1,70,0,0
33928,-83.3333333333333,4,2,1,70,0,1
34191,-83.3333333333333,4,2,2,70,0,1
34257,-83.3333333333333,4,2,1,70,0,1
34717,-83.3333333333333,4,2,2,70,0,1
34783,-83.3333333333333,4,2,1,70,0,1
35243,-83.3333333333333,4,2,2,70,0,1
35309,-83.3333333333333,4,2,1,70,0,1
35770,-83.3333333333333,4,2,5,30,0,1
35836,-83.3333333333333,4,2,1,70,0,1
36296,-83.3333333333333,4,2,2,70,0,1
36362,-83.3333333333333,4,2,1,70,0,1
36822,-83.3333333333333,4,2,2,70,0,1
36888,-83.3333333333333,4,2,1,70,0,1
37349,-83.3333333333333,4,2,2,70,0,1
37415,-83.3333333333333,4,2,1,70,0,1
37875,-83.3333333333333,4,2,5,30,0,1
37941,-83.3333333333333,4,2,1,70,0,1
38401,-83.3333333333333,4,2,2,70,0,1
38467,-83.3333333333333,4,2,1,70,0,1
38928,-83.3333333333333,4,2,2,70,0,1
38993,-83.3333333333333,4,2,1,70,0,1
39454,-83.3333333333333,4,2,2,70,0,1
39520,-83.3333333333333,4,2,1,70,0,1
39980,-83.3333333333333,4,2,5,30,0,1
40046,-83.3333333333333,4,2,1,70,0,1
40507,-83.3333333333333,4,2,2,70,0,1
40572,-83.3333333333333,4,2,1,70,0,1
41033,-83.3333333333333,4,2,2,70,0,1
41099,-83.3333333333333,4,2,1,70,0,1
41559,-83.3333333333333,4,2,2,70,0,1
41625,-83.3333333333333,4,2,1,70,0,1
41822,-83.3333333333333,4,2,1,70,0,1
42086,-83.3333333333333,4,2,2,70,0,1
42151,-83.3333333333333,4,2,1,70,0,1
42349,-100,4,2,4,70,0,0
50243,-100,4,2,2,60,0,0
50309,-100,4,2,1,60,0,0
50770,-125,4,2,1,40,0,0
51559,-125,4,2,2,40,0,0
51625,-125,4,2,1,40,0,0
52086,-125,4,2,2,40,0,0
52151,-125,4,2,1,40,0,0
53138,-125,4,2,2,40,0,0
53204,-125,4,2,1,40,0,0
53401,-125,4,2,7,50,0,0
53467,-125,4,2,1,40,0,0
53665,-125,4,2,2,40,0,0
53730,-125,4,2,1,40,0,0
54717,-125,4,2,2,40,0,0
54783,-125,4,2,1,40,0,0
55770,-125,4,2,2,40,0,0
55836,-125,4,2,1,40,0,0
56296,-125,4,2,2,40,0,0
56362,-125,4,2,1,40,0,0
56822,-125,4,2,2,40,0,0
56888,-125,4,2,1,40,0,0
57086,-100,4,2,1,30,0,0
57612,-100,4,2,1,35,0,0
58138,-100,4,2,2,70,0,0
58204,-100,4,2,1,20,0,0
59191,-100,4,2,4,70,0,0
59257,-100,4,2,1,70,0,0
59783,-100,4,2,2,70,0,0
60178,-100,4,2,1,70,0,0
60507,-100,4,2,2,70,0,0
60572,-100,4,2,1,70,0,0
60770,-50,4,2,4,70,0,0
61033,-50,4,2,2,70,0,0
61099,-50,4,2,1,70,0,0
61296,-100,4,2,1,70,0,0
61559,-100,4,2,2,70,0,0
61625,-100,4,2,1,70,0,0
61954,-100,4,2,2,70,0,0
62283,-100,4,2,1,70,0,0
62349,-50,4,2,1,70,0,0
62612,-66.6666666666667,4,2,2,70,0,0
62678,-66.6666666666667,4,2,1,70,0,0
63138,-100,4,2,2,70,0,0
63204,-100,4,2,1,70,0,0
63401,-100,4,2,1,70,0,0
64059,-100,4,2,2,70,0,0
64388,-100,4,2,1,70,0,0
64717,-100,4,2,2,70,0,0
64783,-100,4,2,1,70,0,0
64980,-50,4,2,4,70,0,0
65243,-100,4,2,2,70,0,0
65309,-100,4,2,1,70,0,0
65770,-100,4,2,2,70,0,0
65836,-100,4,2,1,70,0,0
66165,-100,4,2,2,70,0,0
66362,-100,4,2,1,70,0,0
66559,-50,4,2,1,70,0,0
66822,-50,4,2,2,70,0,0
66888,-50,4,2,1,70,0,0
67349,-50,4,2,2,70,0,0
67415,-50,4,2,1,70,0,0
67612,-100,4,2,4,70,0,0
67678,-100,4,2,1,70,0,0
68270,-100,4,2,2,70,0,0
68599,-100,4,2,1,70,0,0
68928,-100,4,2,2,70,0,0
68993,-100,4,2,1,70,0,0
69191,-50,4,2,4,70,0,0
69454,-50,4,2,2,70,0,0
69520,-50,4,2,1,70,0,0
69717,-100,4,2,1,70,0,0
69980,-100,4,2,2,70,0,0
70046,-100,4,2,1,70,0,0
70375,-100,4,2,2,70,0,0
70770,-50,4,2,1,70,0,0
71033,-66.6666666666667,4,2,2,70,0,0
71099,-100,4,2,1,70,0,0
71296,-66.6666666666667,4,2,1,70,0,0
71559,-66.6666666666667,4,2,2,70,0,0
71625,-100,4,2,1,70,0,0
72480,-100,4,2,2,70,0,0
72809,-100,4,2,1,70,0,0
73138,-100,4,2,2,70,0,0
73204,-100,4,2,1,70,0,0
73401,-50,4,2,4,70,0,0
73467,-50,4,2,1,70,0,0
73928,-100,4,2,1,70,0,0
74191,-100,4,2,2,50,0,0
74257,-100,4,2,1,50,0,0
74586,-100,4,2,2,50,0,0
74651,-100,4,2,1,50,0,0
74980,-125,4,2,1,50,0,0
75243,-125,4,2,2,60,0,0
75309,-125,4,2,1,50,0,0
75507,-83.3333333333333,4,2,1,60,0,0
75770,-83.3333333333333,4,2,2,60,0,0
75836,-83.3333333333333,4,2,1,60,0,0
76033,-100,4,2,4,70,0,0
76099,-100,4,2,1,70,0,0
76822,-100,4,2,2,70,0,0
76888,-100,4,2,1,70,0,0
77349,-100,4,2,2,70,0,0
77415,-100,4,2,1,70,0,0
77875,-83.3333333333333,4,2,2,70,0,0
78138,-100,4,2,1,70,0,0
78401,-100,4,2,2,70,0,0
78467,-100,4,2,1,70,0,0
78928,-100,4,2,2,70,0,0
78993,-100,4,2,1,70,0,0
79190,-83.3333333333333,4,2,1,70,0,0
79454,-83.3333333333333,4,2,2,70,0,0
79520,-83.3333333333333,4,2,1,70,0,0
79980,-83.3333333333333,4,2,2,70,0,0
80046,-83.3333333333333,4,2,1,70,0,0
80243,-100,4,2,1,70,0,0
81033,-100,4,2,2,70,0,0
81099,-100,4,2,1,70,0,0
81559,-100,4,2,2,70,0,0
81625,-100,4,2,1,70,0,0
82612,-100,4,2,2,70,0,0
82678,-100,4,2,1,70,0,0
83138,-100,4,2,2,70,0,0
83204,-100,4,2,1,70,0,0
83401,-83.3333333333333,4,2,1,70,0,0
83665,-83.3333333333333,4,2,2,70,0,0
83730,-83.3333333333333,4,2,1,70,0,0
84191,-83.3333333333333,4,2,2,70,0,0
84257,-83.3333333333333,4,2,1,70,0,0
84454,-100,4,2,4,70,0,0
84520,-100,4,2,1,70,0,0
85243,-100,4,2,2,70,0,0
85309,-100,4,2,1,70,0,0
85770,-100,4,2,2,70,0,0
85836,-100,4,2,1,70,0,0
86296,-83.3333333333333,4,2,2,70,0,0
86559,-100,4,2,1,70,0,0
86822,-100,4,2,2,70,0,0
86888,-100,4,2,1,70,0,0
87349,-100,4,2,2,70,0,0
87415,-100,4,2,1,70,0,0
87611,-83.3333333333333,4,2,1,70,0,0
87875,-83.3333333333333,4,2,2,70,0,0
87941,-83.3333333333333,4,2,1,70,0,0
88401,-83.3333333333333,4,2,2,70,0,0
88533,-83.3333333333333,4,2,1,70,0,0
88664,-100,4,2,1,70,0,0
89454,-100,4,2,2,70,0,0
89520,-100,4,2,1,70,0,0
89980,-100,4,2,2,70,0,0
90046,-100,4,2,1,70,0,0
91033,-100,4,2,2,70,0,0
91099,-100,4,2,1,70,0,0
91559,-100,4,2,2,70,0,0
91625,-100,4,2,1,70,0,0
91822,-100,4,2,1,50,0,0
92349,-100,4,2,1,70,0,0
92875,-83.3333333333333,4,2,1,70,0,1
93138,-83.3333333333333,4,2,2,70,0,1
93204,-83.3333333333333,4,2,1,70,0,1
93665,-83.3333333333333,4,2,2,70,0,1
93730,-83.3333333333333,4,2,1,70,0,1
94191,-83.3333333333333,4,2,2,70,0,1
94257,-83.3333333333333,4,2,1,70,0,1
94717,-83.3333333333333,4,2,5,30,0,1
94783,-83.3333333333333,4,2,1,70,0,1
95243,-83.3333333333333,4,2,2,70,0,1
95309,-83.3333333333333,4,2,1,70,0,1
95770,-83.3333333333333,4,2,2,70,0,1
95836,-83.3333333333333,4,2,1,70,0,1
96296,-83.3333333333333,4,2,2,70,0,1
96362,-83.3333333333333,4,2,1,70,0,1
96822,-83.3333333333333,4,2,2,70,0,1
96888,-83.3333333333333,4,2,1,70,0,1
97349,-83.3333333333333,4,2,2,70,0,1
97415,-83.3333333333333,4,2,1,70,0,1
97875,-83.3333333333333,4,2,2,70,0,1
97941,-83.3333333333333,4,2,1,70,0,1
98401,-83.3333333333333,4,2,2,70,0,1
98467,-83.3333333333333,4,2,1,70,0,1
98928,-83.3333333333333,4,2,2,70,0,1
99125,-83.3333333333333,4,2,1,20,0,1
99191,-83.3333333333333,4,2,1,70,0,1
99454,-83.3333333333333,4,2,2,70,0,1
99520,-83.3333333333333,4,2,1,70,0,1
99980,-83.3333333333333,4,2,2,70,0,1
100046,-83.3333333333333,4,2,1,70,0,1
100507,-83.3333333333333,4,2,2,70,0,1
100770,-83.3333333333333,4,2,1,70,0,0
101033,-83.3333333333333,4,2,2,70,0,0
101165,-83.3333333333333,4,2,1,70,0,0
101296,-83.3333333333333,4,2,1,70,0,1
101559,-83.3333333333333,4,2,2,70,0,1
101625,-83.3333333333333,4,2,1,70,0,1
102086,-83.3333333333333,4,2,2,70,0,1
102151,-83.3333333333333,4,2,1,70,0,1
102612,-83.3333333333333,4,2,2,70,0,1
102678,-83.3333333333333,4,2,1,70,0,1
103138,-83.3333333333333,4,2,5,30,0,1
103204,-83.3333333333333,4,2,1,70,0,1
103665,-83.3333333333333,4,2,2,70,0,1
103730,-83.3333333333333,4,2,1,70,0,1
104191,-83.3333333333333,4,2,2,70,0,1
104257,-83.3333333333333,4,2,1,70,0,1
104717,-83.3333333333333,4,2,2,70,0,1
104783,-83.3333333333333,4,2,1,70,0,1
105243,-83.3333333333333,4,2,5,30,0,1
105309,-83.3333333333333,4,2,1,70,0,1
105770,-83.3333333333333,4,2,2,70,0,1
105836,-83.3333333333333,4,2,1,70,0,1
106296,-83.3333333333333,4,2,2,70,0,1
106362,-83.3333333333333,4,2,1,70,0,1
106822,-83.3333333333333,4,2,2,70,0,1
106888,-83.3333333333333,4,2,1,70,0,1
107349,-83.3333333333333,4,2,5,30,0,1
107415,-83.3333333333333,4,2,1,70,0,1
107875,-83.3333333333333,4,2,2,70,0,1
107941,-83.3333333333333,4,2,1,70,0,1
108401,-83.3333333333333,4,2,2,70,0,1
108467,-83.3333333333333,4,2,1,70,0,1
108928,-83.3333333333333,4,2,2,70,0,1
108993,-83.3333333333333,4,2,1,70,0,1
109454,-83.3333333333333,4,2,2,70,0,1
109520,-83.3333333333333,4,2,1,70,0,1
109717,-100,4,2,4,70,0,0
109783,-100,4,2,1,40,0,0
111822,-100,4,2,1,25,0,0
113928,-100,4,2,1,10,0,0

[Colours]
Combo1 : 255,0,0
Combo2 : 173,255,95
Combo3 : 255,88,100
Combo4 : 255,94,55
Combo5 : 17,254,176

[HitObjects]
276,284,244,54,0,P|356:308|350:227,1,192,2|8,0:0|0:0,0:0:0:0:
157,188,1033,1,2,0:0:0:0:
157,188,1165,2,0,P|103:191|55:152,1,96
126,119,1559,1,2,0:0:0:0:
332,16,1822,2,0,L|324:64,1,48,8|0,0:0|0:0,0:0:0:0:
292,152,2086,6,0,P|368:144|424:176,1,143.999995605469,2|2,0:0|0:0,0:0:0:0:
424,176,2612,6,0,L|408:269,1,96,0|8,0:0|0:0,0:0:0:0:
236,320,3007,1,0,0:0:0:0:
297,275,3138,2,0,P|309:304|310:322,1,48,2|0,0:0|0:0,0:0:0:0:
160,348,3401,54,0,P|164:284|236:240,1,143.999995605469,2|2,0:0|0:0,0:0:0:0:
225,240,3928,1,8,0:0:0:0:
92,156,4059,1,0,0:0:0:0:
184,156,4191,1,2,0:0:0:0:
172,16,4322,1,0,0:0:0:0:
224,84,4454,22,0,P|312:108|380:44,1,192,2|8,0:0|0:0,0:0:0:0:
332,208,5243,1,2,0:0:0:0:
380,264,5375,2,0,P|404:224|392:164,1,96
236,320,5770,2,0,L|244:368,1,48,2|0,0:0|0:0,0:0:0:0:
92,236,6033,6,0,L|123:44,1,192,8|2,0:0|0:0,0:0:0:0:
399,176,6822,2,0,P|347:188|287:164,1,120,2|8,0:0|0:0,0:0:0:0:
124,47,7217,1,0,0:0:0:0:
116,156,7349,22,0,P|152:152|200:120,1,71.9999978027344,2|0,0:0|0:0,0:0:0:0:
324,16,7612,1,2,1:2:0:0:
332,28,8401,53,0,0:0:0:0:
344,44,8665,2,0,B|336:140|336:140|360:180|360:180|352:276,1,240,6|8,0:0|0:0,0:0:0:0:
108,256,9454,1,2,0:0:0:0:
108,256,9586,2,0,L|102:197,1,60,0|2,0:0|0:0,0:0:0:0:
288,324,9849,1,0,0:0:0:0:
256,136,9980,2,0,L|243:254,1,120,2|8,0:0|0:0,0:0:0:0:
208,332,10375,1,0,0:0:0:0:
352,184,10507,2,0,P|358:108|322:52,1,143.999995605469,2|2,0:0|0:0,0:0:0:0:
323,52,11033,21,2,0:0:0:0:
155,88,11165,2,0,P|143:120|147:172,1,60,0|8,0:0|0:0,0:0:0:0:
256,136,11428,1,0,0:0:0:0:
32,188,11559,2,0,P|46:219|85:253,1,60,2|0,0:0|0:0,0:0:0:0:
284,276,11822,6,0,P|212:272|156:312,1,143.999995605469,2|2,0:0|0:0,0:0:0:0:
392,184,12217,1,0,0:0:0:0:
392,184,12349,2,0,P|424:248|487:276,1,143.999995605469,8|2,0:0|0:0,0:0:0:0:
256,136,12743,1,0,0:0:0:0:
320,56,12875,6,0,P|256:32|156:156,1,240,2|8,0:0|0:0,0:0:0:0:
388,136,13665,1,2,0:0:0:0:
208,228,13796,2,0,L|204:288,1,60,0|2,0:0|0:0,0:0:0:0:
256,136,14059,1,0,0:0:0:0:
448,76,14191,2,0,L|444:16,1,60,2|0,0:0|0:0,0:0:0:0:
372,148,14454,2,0,B|352:249|415:218|395:320,1,180,8|0,0:0|0:0,0:0:0:0:
313,343,14980,6,0,P|311:313|316:284,1,60,2|0,0:0|0:0,0:0:0:0:
128,272,15243,1,2,0:0:0:0:
108,360,15375,1,0,0:0:0:0:
128,272,15507,2,0,P|154:285|178:304,1,60,8|0,0:0|0:0,0:0:0:0:
292,144,15770,2,0,P|267:160|239:171,1,60,2|0,0:0|0:0,0:0:0:0:
80,56,16033,22,0,P|144:36|220:48,1,143.999995605469,2|2,0:0|0:0,0:0:0:0:
352,92,16428,1,0,0:0:0:0:
164,200,16559,2,0,L|156:128,1,71.9999978027344,8|0,0:0|0:0,0:0:0:0:
372,172,16822,2,0,L|364:244,1,71.9999978027344,10|8,0:0|0:0,0:0:0:0:
108,344,17086,6,0,P|52:288|72:140,1,240,6|8,0:0|0:0,0:0:0:0:
304,28,17875,1,2,0:0:0:0:
272,164,18007,2,0,P|264:140|268:100,1,60,0|2,0:0|0:0,0:0:0:0:
160,232,18270,1,0,0:0:0:0:
160,232,18401,2,0,L|173:351,1,120,2|8,0:0|0:0,0:0:0:0:
348,128,18796,1,0,0:0:0:0:
472,288,18928,2,0,P|408:296|336:264,1,143.999995605469,2|2,0:0|0:0,0:0:0:0:
336,264,19454,6,0,P|352:292|360:320,1,60,2|0,0:0|0:0,0:0:0:0:
252,328,19717,1,8,0:0:0:0:
288,176,19849,2,0,P|296:144|310:119,1,60,0|2,0:0|0:0,0:0:0:0:
392,48,20112,1,0,0:0:0:0:
188,112,20243,6,0,P|112:124|44:72,1,143.999995605469,2|2,0:0|0:0,0:0:0:0:
18,192,20638,1,0,0:0:0:0:
56,292,20770,2,0,P|117:257|186:270,1,143.999995605469,8|2,0:0|0:0,0:0:0:0:
136,360,21165,1,0,0:0:0:0:
0,212,21296,22,0,P|104:168|228:188,1,240,2|8,0:0|0:0,0:0:0:0:
396,268,22086,1,2,0:0:0:0:
380,84,22217,2,0,L|374:145,1,60,0|2,0:0|0:0,0:0:0:0:
388,284,22480,1,0,0:0:0:0:
482,179,22612,2,0,L|488:120,1,60,2|0,0:0|0:0,0:0:0:0:
264,124,22875,2,0,P|176:120|116:56,1,180,8|0,0:0|0:0,0:0:0:0:
92,172,23401,6,0,P|88:204|80:232,1,60,2|0,0:0|0:0,0:0:0:0:
200,312,23665,2,0,P|192:283|188:253,1,60,2|0,0:0|0:0,0:0:0:0:
324,256,23928,2,0,P|320:285|312:314,1,60,8|0,0:0|0:0,0:0:0:0:
431,230,24191,2,0,P|423:201|420:172,1,60,2|0,0:0|0:0,0:0:0:0:
412,52,24454,1,2,1:2:0:0:
412,52,24980,5,8,0:0:0:0:
328,60,25112,1,8,0:0:0:0:
244,64,25243,2,0,L|184:56,1,60,8|8,0:0|0:0,0:0:0:0:
40,64,25507,5,6,0:0:0:0:
132,164,25638,1,0,0:0:0:0:
52,276,25770,2,0,P|48:312|52:356,1,71.9999978027344,2|0,0:0|0:0,0:0:0:0:
200,140,26033,21,8,0:0:0:0:
60,188,26165,1,0,0:0:0:0:
216,304,26296,2,0,L|288:300,1,71.9999978027344,2|0,0:0|0:0,0:0:0:0:
476,200,26559,5,2,0:0:0:0:
313,223,26691,1,0,0:0:0:0:
400,254,26822,1,2,0:0:0:0:
292,133,26954,1,0,0:0:0:0:
132,244,27086,2,0,P|44:252|56:152,1,215.999993408203,8|0,0:0|0:0,0:0:0:0:
184,32,27612,5,2,0:0:0:0:
28,76,27743,1,0,0:0:0:0:
184,124,27875,2,0,P|188:84|184:28,1,71.9999978027344,2|0,0:0|0:0,0:0:0:0:
132,244,28138,5,8,0:0:0:0:
314,303,28270,1,0,0:0:0:0:
142,269,28401,1,2,0:0:0:0:
292,192,28533,1,0,0:0:0:0:
152,295,28665,22,0,P|162:346|156:399,1,71.9999978027344,2|0,0:0|0:0,0:0:0:0:
212,108,28928,2,0,P|259:82|311:74,1,71.9999978027344,2|0,0:0|0:0,0:0:0:0:
509,217,29191,2,0,P|454:235|362:189,1,143.999995605469,8|2,0:0|0:0,0:0:0:0:
376,205,29717,5,2,0:0:0:0:
467,146,29849,1,0,0:0:0:0:
285,56,29980,2,0,L|289:128,1,71.9999978027344,2|0,0:0|0:0,0:0:0:0:
360,292,30243,5,8,0:0:0:0:
244,276,30375,1,0,0:0:0:0:
140,328,30507,2,0,P|108:344|68:348,1,71.9999978027344,2|0,0:0|0:0,0:0:0:0:
48,152,30770,5,2,0:0:0:0:
83,259,30901,1,0,0:0:0:0:
160,64,31033,1,2,0:0:0:0:
132,180,31164,1,0,0:0:0:0:
220,208,31296,22,0,P|253:219|285:244,1,71.9999978027344,8|0,0:0|0:0,0:0:0:0:
504,168,31559,2,0,P|455:190|402:186,1,107.999996704102,2|0,0:0|0:0,0:0:0:0:
402,186,31822,6,0,P|416:224|416:268,1,71.9999978027344,2|0,0:0|0:0,0:0:0:0:
392,360,32086,1,2,0:0:0:0:
208,304,32217,1,0,0:0:0:0:
388,340,32349,5,8,0:0:0:0:
192,320,32480,2,0,L|188:248,1,71.9999978027344,0|2,0:0|0:0,0:0:0:0:
308,60,32743,2,0,L|304:132,1,71.9999978027344,0|2,0:0|0:0,0:0:0:0:
316,243,33007,1,0,0:0:0:0:
136,112,33138,1,2,0:0:0:0:
136,112,33401,6,0,P|64:112|8:152,1,143.999995605469,8|10,0:0|0:0,0:0:0:0:
96,212,33796,1,8,0:0:0:0:
204,192,33928,22,0,P|224:168|236:120,1,71.9999978027344,6|0,0:0|0:0,0:0:0:0:
372,72,34191,2,0,P|403:89|438:93,1,71.9999978027344,2|0,0:0|0:0,0:0:0:0:
380,176,34454,5,8,0:0:0:0:
432,4,34586,1,0,0:0:0:0:
316,216,34717,1,2,0:0:0:0:
264,44,34849,1,0,0:0:0:0:
500,132,34980,6,0,P|504:168|500:228,1,71.9999978027344,2|0,0:0|0:0,0:0:0:0:
344,320,35243,2,0,P|378:309|414:304,1,71.9999978027344,2|0,0:0|0:0,0:0:0:0:
240,212,35507,2,0,P|131:205|25:184,1,215.999993408203,8|0,0:0|0:0,0:0:0:0:
76,112,36033,5,2,0:0:0:0:
160,100,36165,1,0,0:0:0:0:
244,124,36296,2,0,P|284:128|328:120,1,71.9999978027344,2|0,0:0|0:0,0:0:0:0:
280,32,36559,21,8,0:0:0:0:
212,226,36691,1,0,0:0:0:0:
108,32,36822,1,2,0:0:0:0:
200,204,36954,1,0,0:0:0:0:
384,148,37086,6,0,P|385:116|388:76,1,71.9999978027344,2|0,0:0|0:0,0:0:0:0:
364,288,37349,2,0,P|366:323|367:359,1,71.9999978027344,2|0,0:0|0:0,0:0:0:0:
220,332,37612,2,0,P|164:356|36:288,1,215.999993408203,8|0,0:0|0:0,0:0:0:0:
20,204,38138,5,2,0:0:0:0:
147,113,38270,1,0,0:0:0:0:
64,129,38401,1,2,0:0:0:0:
222,158,38533,1,0,0:0:0:0:
144,256,38665,5,8,0:0:0:0:
224,72,38796,1,0,0:0:0:0:
345,185,38928,1,2,0:0:0:0:
148,144,39059,1,0,0:0:0:0:
260,284,39191,22,0,P|264:324|260:360,1,71.9999978027344,2|0,0:0|0:0,0:0:0:0:
64,129,39454,2,0,P|60:89|64:53,1,71.9999978027344,2|0,0:0|0:0,0:0:0:0:
144,232,39717,2,0,B|156:300|124:372|124:372|108:336|112:300,1,215.999993408203,8|0,0:0|0:0,0:0:0:0:
260,124,40243,6,0,P|320:88|389:104,1,143.999995605469,2|2,0:0|0:0,0:0:0:0:
336,192,40638,1,0,0:0:0:0:
389,279,40770,2,0,P|320:295|260:260,1,143.999995605469,8|2,0:0|0:0,0:0:0:0:
440,192,41165,1,0,0:0:0:0:
492,272,41296,6,0,L|486:344,1,71.9999978027344,2|0,0:0|0:0,0:0:0:0:
240,152,41559,2,0,L|234:80,1,71.9999978027344,2|0,0:0|0:0,0:0:0:0:
336,192,41822,2,0,L|324:336,1,143.999995605469,8|10,0:0|0:0,0:0:0:0:
68,236,42217,2,0,L|62:164,1,71.9999978027344,8|6,0:0|0:0,0:0:0:0:
262,163,50243,5,2,0:0:0:0:
184,194,50375,2,0,P|178:162|184:134,1,60
184,136,50770,22,0,P|112:128|24:200,1,192,2|2,0:0|0:0,0:0:0:0:
140,260,51559,1,2,0:0:0:0:
140,260,51691,2,0,P|188:268|236:256,1,96
260,244,52086,1,2,0:0:0:0:
324,144,52349,6,0,B|340:96|340:96|380:232,1,192,2|2,0:0|0:0,0:0:0:0:
420,348,53138,1,2,0:0:0:0:
420,348,53270,2,0,P|372:356|324:344,1,96
300,332,53665,1,2,0:0:0:0:
188,180,53928,2,0,P|116:172|28:244,1,192,2|2,0:0|0:0,0:0:0:0:
8,332,54586,1,0,0:0:0:0:
8,332,54717,1,2,0:0:0:0:
148,360,54980,6,0,B|160:312|136:268|136:268|180:288|232:272,1,192,2|2,0:0|0:0,0:0:0:0:
316,196,55770,1,2,0:0:0:0:
316,196,55901,2,0,P|340:236|344:284,1,96
336,312,56296,1,2,0:0:0:0:
500,152,56559,2,0,P|460:176|412:180,1,96,2|2,0:0|0:0,0:0:0:0:
233,155,57086,5,8,0:0:0:0:
231,136,57151,1,8,0:0:0:0:
224,119,57217,1,8,0:0:0:0:
212,104,57283,1,8,0:0:0:0:
197,93,57349,1,8,0:0:0:0:
179,88,57414,1,8,0:0:0:0:
160,87,57480,1,8,0:0:0:0:
142,92,57546,1,8,0:0:0:0:
126,102,57612,21,8,0:0:0:0:
114,115,57678,1,8,0:0:0:0:
106,132,57743,1,8,0:0:0:0:
103,151,57809,1,8,0:0:0:0:
106,169,57875,1,8,0:0:0:0:
114,186,57941,1,8,0:0:0:0:
126,200,58007,1,8,0:0:0:0:
142,210,58072,1,8,0:0:0:0:
160,215,58138,53,10,0:0:0:0:
160,216,59191,22,0,P|248:240|316:192,1,180,6|0,0:0|0:0,0:0:0:0:
316,96,59717,1,8,0:0:0:0:
232,144,59849,1,2,0:0:0:0:
336,80,59980,1,2,0:0:0:0:
416,196,60112,1,2,0:0:0:0:
360,324,60243,2,0,L|480:316,1,120,2|2,0:0|0:0,0:0:0:0:
196,236,60770,38,0,P|112:228|48:352,1,240,12|2,0:0|0:0,0:0:0:0:
147,326,61165,1,0,0:0:0:0:
300,240,61296,38,0,P|288:188|240:140,1,120,2|2,0:0|0:0,0:0:0:0:
36,172,61691,1,0,0:0:0:0:
220,128,61822,2,0,L|280:120,1,60,8|0,0:0|0:0,0:0:0:0:
80,88,62086,2,0,L|20:80,1,60,2|2,0:0|0:0,0:0:0:0:
248,40,62349,22,0,B|336:28|336:28|316:52,1,120,2|0,0:0|0:0,0:0:0:0:
196,236,62612,2,0,P|120:244|36:176,1,180.000006866455,2|8,0:0|0:0,0:0:0:0:
68,56,63007,1,0,0:0:0:0:
148,136,63138,1,2,0:0:0:0:
36,172,63270,1,8,0:0:0:0:
232,156,63401,54,0,L|412:148,1,180,2|0,0:0|0:0,0:0:0:0:
496,208,63928,1,8,0:0:0:0:
504,108,64059,1,2,0:0:0:0:
412,248,64191,1,2,0:0:0:0:
356,40,64322,1,2,0:0:0:0:
316,240,64454,22,0,P|320:276|328:300,1,60,2|0,0:0|0:0,0:0:0:0:
184,292,64717,2,0,P|161:311|134:325,1,60,2|0,0:0|0:0,0:0:0:0:
396,344,64980,54,0,P|460:296|404:168,1,240,12|2,0:0|0:0,0:0:0:0:
324,248,65375,2,0,L|384:256,1,60,0|2,0:0|0:0,0:0:0:0:
383,255,65770,22,0,P|335:227|311:163,1,120,2|8,0:0|0:0,0:0:0:0:
406,168,66165,1,2,0:0:0:0:
490,136,66296,2,0,P|494:172|486:216,1,60,2|0,0:0|0:0,0:0:0:0:
208,348,66559,38,0,P|122:368|68:304,1,180,2|0,0:0|0:0,0:0:0:0:
148,292,66822,2,2,P|233:271|288:336,1,180,2|0,0:0|0:0,0:0:0:0:
365,312,67086,2,0,P|270:258|208:348,1,240,8|8,0:0|0:0,0:0:0:0:
171,197,67480,1,0,0:0:0:0:
264,96,67612,38,0,P|316:56|424:72,1,180,6|0,0:0|0:0,0:0:0:0:
452,168,68138,1,8,0:0:0:0:
352,144,68270,1,2,0:0:0:0:
492,300,68401,1,2,0:0:0:0:
329,187,68533,1,2,0:0:0:0:
296,351,68665,2,0,P|298:282|308:210,1,120,2|2,0:0|0:0,0:0:0:0:
115,35,69191,22,0,P|132:155|136:277,1,240,12|2,0:0|0:0,0:0:0:0:
137,274,69586,1,0,0:0:0:0:
48,348,69717,54,0,P|24:292|32:228,1,120,2|2,0:0|0:0,0:0:0:0:
134,153,70112,1,0,0:0:0:0:
244,244,70243,2,0,P|248:288|237:324,1,60,8|2,0:0|0:0,0:0:0:0:
128,168,70507,2,0,P|124:138|129:108,1,60,2|2,0:0|0:0,0:0:0:0:
308,16,70770,6,0,B|328:60|312:116|312:116|304:100,1,120,2|0,0:0|0:0,0:0:0:0:
232,156,71033,2,0,B|304:149|304:149|335:168|335:168|408:162,1,180.000006866455,2|8,0:0|0:0,0:0:0:0:
500,136,71428,1,0,0:0:0:0:
424,280,71559,1,2,0:0:0:0:
504,168,71691,1,0,0:0:0:0:
340,312,71822,6,0,P|276:324|176:276,1,180,2|0,0:0|0:0,0:0:0:0:
240,168,72349,1,8,0:0:0:0:
116,208,72480,1,2,0:0:0:0:
248,184,72612,1,2,0:0:0:0:
244,60,72743,1,2,0:0:0:0:
132,120,72875,2,0,L|68:116,1,60,2|0,0:0|0:0,0:0:0:0:
256,200,73138,2,0,L|315:196,1,60,2|0,0:0|0:0,0:0:0:0:
484,80,73401,54,0,B|456:88|456:88|431:75|431:75|396:88|396:88|364:72|364:72|340:80|340:80|316:68|316:68|268:88|268:88|208:72|208:72|144:92|120:168|156:224,1,480,12|2,0:0|0:0,0:0:0:0:
155,222,74191,22,0,L|144:344,1,120,2|0,0:0|0:0,0:0:0:0:
240,168,74586,2,0,L|251:290,1,120,2|0,0:0|0:0,0:0:0:0:
320,116,74980,6,0,L|332:168,2,48,2|0|2,0:0|0:0|0:0,0:0:0:0:
236,72,75375,1,0,0:0:0:0:
416,108,75507,6,0,L|424:36,2,71.9999978027344,8|8|8,0:0|0:0|0:0,0:0:0:0:
292,256,75901,1,8,0:0:0:0:
360,332,76033,22,0,P|457:307|393:230,1,240,6|8,0:0|0:0,0:0:0:0:
136,360,76822,1,2,0:0:0:0:
136,360,76954,2,0,P|128:336|132:292,1,60,0|2,0:0|0:0,0:0:0:0:
184,188,77217,1,0,0:0:0:0:
299,137,77349,2,0,P|303:205|292:256,1,120,2|8,0:0|0:0,0:0:0:0:
64,200,77743,1,0,0:0:0:0:
64,200,77875,2,0,P|48:121|54:41,1,143.999995605469,2|2,0:0|0:0,0:0:0:0:
306,77,78401,6,0,P|305:107|299:137,1,60,2|0,0:0|0:0,0:0:0:0:
192,92,78665,1,8,0:0:0:0:
308,248,78796,2,0,P|337:241|367:240,1,60,0|2,0:0|0:0,0:0:0:0:
484,244,79059,1,0,0:0:0:0:
256,324,79191,6,0,P|188:332|124:296,1,143.999995605469,2|2,0:0|0:0,0:0:0:0:
208,232,79586,1,0,0:0:0:0:
232,128,79717,2,0,P|289:168|312:235,1,143.999995605469,8|2,0:0|0:0,0:0:0:0:
208,232,80112,1,0,0:0:0:0:
360,100,80243,6,0,P|396:168|388:328,1,240,2|8,0:0|0:0,0:0:0:0:
128,156,81033,1,2,0:0:0:0:
288,220,81165,2,0,L|228:228,1,60,0|2,0:0|0:0,0:0:0:0:
116,280,81428,1,0,0:0:0:0:
336,328,81559,2,0,L|396:336,1,60,2|0,0:0|0:0,0:0:0:0:
448,96,81822,2,0,L|268:104,1,180,8|0,0:0|0:0,0:0:0:0:
176,172,82349,22,0,P|160:120|168:56,1,120,2|2,0:0|0:0,0:0:0:0:
336,212,82743,1,0,0:0:0:0:
336,212,82875,2,0,P|352:264|344:328,1,120,8|2,0:0|0:0,0:0:0:0:
84,312,83270,1,0,0:0:0:0:
172,272,83401,6,0,P|212:268|256:280,1,71.9999978027344,2|0,0:0|0:0,0:0:0:0:
340,112,83665,2,0,P|300:116|256:104,1,71.9999978027344,2|0,0:0|0:0,0:0:0:0:
40,68,83928,2,0,L|52:216,1,143.999995605469,8|10,0:0|0:0,0:0:0:0:
84,312,84322,1,8,0:0:0:0:
136,128,84454,6,0,B|270:101|229:185|365:159,1,240,6|8,0:0|0:0,0:0:0:0:
188,220,85243,1,2,0:0:0:0:
300,256,85375,2,0,L|308:316,1,60,0|2,0:0|0:0,0:0:0:0:
320,76,85638,1,0,0:0:0:0:
464,304,85770,2,0,P|488:256|480:192,1,120,2|8,0:0|0:0,0:0:0:0:
336,80,86165,1,0,0:0:0:0:
240,240,86296,2,0,L|384:236,1,143.999995605469,2|2,0:0|0:0,0:0:0:0:
383,236,86822,6,0,B|366:261|366:261|357:290,1,60,2|0,0:0|0:0,0:0:0:0:
436,148,87086,1,8,0:0:0:0:
264,156,87217,2,0,B|233:154|233:154|203:161,1,60,0|2,0:0|0:0,0:0:0:0:
460,168,87480,1,0,0:0:0:0:
248,60,87612,22,0,B|174:56|174:56|114:93,1,143.999995605469,2|2,0:0|0:0,0:0:0:0:
204,161,88007,1,0,0:0:0:0:
156,260,88138,2,0,B|229:263|229:263|289:226,1,143.999995605469,8|2,0:0|0:0,0:0:0:0:
204,161,88533,1,0,0:0:0:0:
128,352,88665,6,0,B|250:358|250:358|350:295,1,240,2|8,0:0|0:0,0:0:0:0:
176,56,89454,1,2,0:0:0:0:
204,161,89586,2,0,P|205:190|201:220,1,60,0|2,0:0|0:0,0:0:0:0:
99,132,89849,1,0,0:0:0:0:
204,60,89980,2,0,P|232:66|260:78,1,60,2|0,0:0|0:0,0:0:0:0:
336,208,90243,2,0,P|424:220|496:168,1,180,8|0,0:0|0:0,0:0:0:0:
441,74,90770,6,0,P|416:91|400:116,1,60,2|0,0:0|0:0,0:0:0:0:
349,295,91033,2,0,P|351:324|364:351,1,60,2|0,0:0|0:0,0:0:0:0:
147,351,91296,2,0,P|160:324|163:295,1,60,8|0,0:0|0:0,0:0:0:0:
112,116,91559,2,0,P|95:91|70:74,1,60,2|0,0:0|0:0,0:0:0:0:
19,169,91822,1,2,1:2:0:0:
19,169,92349,5,8,0:0:0:0:
108,160,92480,1,8,0:0:0:0:
196,152,92612,2,0,L|256:148,1,60,8|8,0:0|0:0,0:0:0:0:
376,200,92875,21,6,0:0:0:0:
349,25,93007,1,0,0:0:0:0:
344,29,93072,1,0,0:0:0:0:
340,34,93138,2,0,P|328:66|332:122,1,71.9999978027344,2|0,0:0|0:0,0:0:0:0:
424,296,93401,5,8,0:0:0:0:
484,208,93533,1,0,0:0:0:0:
308,288,93665,2,0,L|324:360,1,71.9999978027344,2|0,0:0|0:0,0:0:0:0:
232,184,93928,5,2,0:0:0:0:
92,368,94060,1,0,0:0:0:0:
224,212,94191,5,2,0:0:0:0:
20,182,94322,1,0,0:0:0:0:
216,240,94454,2,0,B|337:264|300:188|423:212,1,215.999993408203,8|0,0:0|0:0,0:0:0:0:
484,292,94980,21,2,0:0:0:0:
384,308,95112,1,0,0:0:0:0:
432,184,95243,1,2,0:0:0:0:
260,148,95375,1,0,0:0:0:0:
440,152,95507,5,8,0:0:0:0:
300,40,95638,1,0,0:0:0:0:
280,132,95770,1,2,0:0:0:0:
447,122,95901,1,0,0:0:0:0:
240,164,96033,6,0,L|244:236,1,71.9999978027344,2|0,0:0|0:0,0:0:0:0:
76,80,96296,2,0,L|148:84,1,71.9999978027344,2|0,0:0|0:0,0:0:0:0:
128,280,96559,2,0,P|60:260|32:196,1,143.999995605469,8|2,0:0|0:0,0:0:0:0:
32,197,97086,5,6,0:0:0:0:
208,236,97217,1,0,0:0:0:0:
128,187,97349,1,2,0:0:0:0:
228,328,97480,1,0,0:0:0:0:
392,272,97612,21,8,0:0:0:0:
300,264,97743,1,0,0:0:0:0:
492,132,97875,1,2,0:0:0:0:
472,224,98006,1,0,0:0:0:0:
376,36,98138,6,0,L|448:48,1,71.9999978027344,2|0,0:0|0:0,0:0:0:0:
388,172,98401,1,2,0:0:0:0:
204,88,98533,1,0,0:0:0:0:
219,288,98665,6,0,P|223:255|213:215,1,71.9999978027344,8|0,0:0|0:0,0:0:0:0:
101,165,98928,2,0,P|87:218|99:269,1,107.999996704102,2|0,0:0|0:0,0:0:0:0:
100,270,99191,6,0,L|28:264,1,71.9999978027344,2|0,0:0|0:0,0:0:0:0:
196,188,99454,2,0,L|268:194,1,71.9999978027344,2|0,0:0|0:0,0:0:0:0:
76,168,99717,22,0,L|82:96,1,71.9999978027344,8|0,0:0|0:0,0:0:0:0:
244,80,99980,1,2,0:0:0:0:
248,252,100112,2,0,P|252:288|248:332,1,71.9999978027344,0|2,0:0|0:0,0:0:0:0:
148,292,100375,1,0,0:0:0:0:
289,136,100507,1,2,0:0:0:0:
289,136,100770,6,0,L|432:124,1,143.999995605469,8|8,0:0|0:0,0:0:0:0:
352,22,101165,1,10,0:0:0:0:
223,30,101296,5,6,0:0:0:0:
168,148,101428,1,0,0:0:0:0:
92,44,101559,1,2,0:0:0:0:
92,44,101691,1,0,0:0:0:0:
268,168,101822,5,8,0:0:0:0:
200,244,101954,1,0,0:0:0:0:
300,264,102086,1,2,0:0:0:0:
85,325,102217,1,0,0:0:0:0:
34,227,102349,22,0,P|63:217|105:217,1,71.9999978027344,2|0,0:0|0:0,0:0:0:0:
252,336,102612,2,0,P|217:348|181:350,1,71.9999978027344,2|0,0:0|0:0,0:0:0:0:
284,156,102875,2,0,B|405:132|368:208|491:184,1,215.999993408203,8|0,0:0|0:0,0:0:0:0:
452,92,103401,5,6,0:0:0:0:
460,288,103533,1,0,0:0:0:0:
268,244,103665,1,2,0:0:0:0:
491,183,103796,1,0,0:0:0:0:
224,88,103928,5,8,0:0:0:0:
388,208,104059,1,0,0:0:0:0:
200,290,104191,1,2,0:0:0:0:
276,196,104322,1,0,0:0:0:0:
384,284,104454,6,0,P|401:316|407:356,1,71.9999978027344,2|0,0:0|0:0,0:0:0:0:
150,217,104717,2,0,P|183:205|219:203,1,71.9999978027344,2|0,0:0|0:0,0:0:0:0:
428,100,104980,2,0,P|348:116|244:40,1,215.999993408203,8|0,0:0|0:0,0:0:0:0:
244,41,105507,21,6,0:0:0:0:
136,28,105638,1,0,0:0:0:0:
123,136,105770,1,2,0:0:0:0:
231,149,105901,1,0,0:0:0:0:
24,104,106033,5,8,0:0:0:0:
185,88,106165,1,0,0:0:0:0:
201,250,106296,1,2,0:0:0:0:
38,265,106428,1,0,0:0:0:0:
116,176,106559,6,0,P|114:140|107:104,1,71.9999978027344,2|0,0:0|0:0,0:0:0:0:
356,16,106822,2,0,P|348:51|347:87,1,71.9999978027344,2|0,0:0|0:0,0:0:0:0:
480,224,107086,2,0,B|433:210|393:238|393:238|353:264|310:236|310:236|329:229|347:238,1,215.999993408203,8|0,0:0|0:0,0:0:0:0:
451,307,107612,5,2,0:0:0:0:
333,338,107743,1,0,0:0:0:0:
240,259,107875,2,0,P|237:223|249:190,1,71.9999978027344,2|0,0:0|0:0,0:0:0:0:
367,75,108138,21,8,0:0:0:0:
210,30,108269,1,0,0:0:0:0:
259,175,108401,2,0,P|286:152|321:144,1,71.9999978027344,2|0,0:0|0:0,0:0:0:0:
167,123,108665,6,0,P|98:133|38:93,1,143.999995605469,2|2,0:0|0:0,0:0:0:0:
119,39,109059,1,0,0:0:0:0:
264,132,109191,2,0,P|303:190|293:260,1,143.999995605469,8|10,0:0|0:0,0:0:0:0:
204,212,109586,1,8,0:0:0:0:
404,148,109717,5,6,0:0:0:0:
256,192,109783,12,0,116033,0:0:0:0:
